#TITLE:Opening Theme;
#SUBTITLE:;
#ARTIST:Thundercats;
#TITLETRANSLIT:;
#SUBTITLETRANSLIT:;
#ARTISTTRANSLIT:;
#CREDIT:;
#BANNER:Thundercats.PNG;
#BACKGROUND:Thundercats-bg.PNG;
#LYRICSPATH:;
#CDTITLE:Dormin.png;
#MUSIC:Thundercatsopening.mp3;
#OFFSET:-0.180;
#SAMPLESTART:31.950;
#SAMPLELENGTH:15.700;
#SELECTABLE:YES;
#DISPLAYBPM:*;
#BPMS:0.000=187.721,78.000=193.001,109.000=233.421,187.000=185.801;
#STOPS:;
#BGCHANGES:;
// cache tags:
#FIRSTBEAT:0.000;
#LASTBEAT:248.000;
#SONGFILENAME:Songs/new encore/Opening Theme/Opening Theme.sm;
#HASMUSIC:1;
#HASBANNER:1;
#MUSICLENGTH:75.776;
// end cache tags

//---------------dance-single - ----------------
#NOTES:
     dance-single:
     :
     Easy:
     4:
     0.288,0.409,0.528,0.238,0.152,95.000,40.000,18.000,0.000,0.000:
0000
0000
0000
0000
,
1000
0000
0001
0010
0000
0000
0000
0000
,
0000
0000
0000
0000
,
0000
0000
0000
0000
0000
0000
0000
0010
,
0000
0000
0000
1000
0000
0000
0000
0010
,
0000
0000
0000
0001
0000
0000
0000
0100
,
0000
0000
0000
1000
0000
0000
0000
0010
,
0000
0000
0000
0000
0000
0000
0000
0000
0000
0000
0000
0000
0000
1001
0000
0000
,
0000
0000
0000
0000
0000
0000
0000
0000
0000
1100
0000
0000
0000
0000
0000
0000
,
0000
0000
0000
0000
0101
0000
0000
0000
0000
0000
0000
0000
0000
0000
0000
1010
,
0000
0000
0000
0000
0101
0000
0000
0000
0000
0000
0000
2002
0000
0000
0000
0000
,
0000
0000
0000
0000
0000
0000
0000
0003
3000
0000
0000
0000
0000
0000
0000
0000
,
0000
0000
0000
2020
,
0000
0000
0000
0000
,
3030
0000
0000
0000
,
0000
0000
0000
0000
0000
0000
0000
0000
0000
2000
0000
0000
0000
0000
0000
0000
,
0000
0000
0000
0000
,
0000
0000
0000
0000
0001
0010
0000
0001
,
0010
0000
0001
0010
0000
0001
0010
0000
,
0001
0010
3000
0000
1000
0000
0000
0000
,
0000
0000
0001
0000
,
0000
0000
1000
0000
,
0000
0000
0000
0000
0000
0001
0000
0000
0000
0000
0000
0000
0000
0000
0000
0011
,
0000
1100
0000
0000
0000
0000
0000
0000
1000
0000
0000
0000
0000
0000
0000
0000
,
0000
0000
0100
0000
,
0000
0000
0001
0000
,
0000
0000
0000
0000
0000
1000
0000
0000
0000
0000
0000
0000
0000
0000
0000
0000
,
0110
1001
0000
0000
1000
0000
0000
0000
,
0001
0000
0000
0000
0000
0000
0000
0000
0000
0010
0000
0000
0000
0000
0000
0000
,
0000
1000
0000
0000
0000
0000
1001
0000
,
0000
2000
0000
0000
,
3000
0202
0000
0000
0000
0000
0000
0000
,
0000
0000
0000
0000
0303
0000
1000
0000
0000
0000
0000
0000
0000
0101
0000
0000
,
0000
0000
0000
1001
0000
0000
0000
0000
,
1010
0000
0000
0000
0000
0110
0000
0000
,
1000
0000
0000
0000
0000
0001
0000
0000
0000
0000
1000
0000
0000
0000
0000
0002
,
0000
0000
0000
0000
,
0003
1000
0000
0000
0000
0000
0000
0000
0000
0000
0000
0110
0000
0000
0000
0000
,
0000
0000
0000
0000
1100
0000
0000
0000
0000
0000
0000
0000
0000
1001
0000
0000
,
0000
0000
0000
0000
0000
0000
0000
0101
0000
0000
0000
0000
0000
0000
0000
0000
,
0000
2000
0000
0000
0000
0000
0000
0000
,
3000
0020
0000
0000
0000
0030
0000
0000
,
1010
0000
0101
0000
,
0000
1010
0000
0000
0000
0000
0000
0000
0000
0000
1001
0000
0000
0000
0000
0110
,
0000
2002
0000
0000
,
0000
0000
3003
0000
,
0000
0000
0000
1000
,
0000
1000
0000
0010
,
0000
0100
0000
1000
,
0010
0001
0000
1000
0000
0110
0000
1000
,
0100
0010
0001
0000
0000
0000
0000
0000
,
0000
2200
0000
0000
0000
0000
0000
0000
,
0000
0000
0000
0000
,
3300
0000
0000
0000
,
0000
0000
0000
0000
1001
0000
0000
0101
,
0000
0000
0000
0000
0000
0000
1100
0000
0000
0000
0000
0000
0000
0011
0000
0000
,
0000
0000
0101
0000
0000
0200
0000
0000
,
0000
0000
0000
0000
,
0300
1010
0000
0101
,
0000
0000
0000
1001
0000
0000
0000
0000
0000
0000
0000
1100
0000
0000
0000
0110
,
0000
0022
0000
0000
,
0000
0000
0000
0000
,
0033
0000
0000
0000
;

//---------------dance-single - Copied from----------------
#NOTES:
     dance-single:
     Copied from:
     Medium:
     6:
     0.409,0.573,0.726,0.264,0.191,142.000,55.000,20.000,0.000,0.000:
0000
0000
0000
0000
,
1001
0000
0011
0110
0000
0000
0000
0000
,
0000
0000
0000
0000
,
0000
0000
0000
0000
0000
0000
0000
0010
,
0000
0100
0000
1000
0000
0010
0000
0010
,
0000
1000
0000
0001
0000
0010
0000
0100
,
0000
0001
0000
1000
0000
0100
0000
0010
,
0000
0000
1000
0000
0000
0000
0010
0000
0000
0000
0000
0000
0000
1001
0000
0000
,
0000
0000
0000
0000
0000
0000
0000
0000
0000
1010
0000
0000
0000
0000
0000
0000
,
0000
0000
0000
0000
0011
0000
0000
0000
0000
0000
0000
0000
0000
0000
0000
1001
,
0000
0000
0110
0000
0101
0000
0000
0000
0000
0000
0000
2002
0000
0000
0000
0000
,
0000
0000
0000
0000
0000
0000
0000
0003
3000
0000
0000
0000
0000
0000
0000
0000
,
0000
0000
0000
2200
,
0000
0000
0000
0000
,
3300
0000
0000
0000
,
0000
0000
0000
0000
0000
0000
0000
0000
0000
2000
0000
0000
0000
0000
0000
0000
,
0000
0000
0000
0000
,
0000
0000
0000
0000
0001
0100
0000
0010
,
0100
0000
0001
0010
0000
0100
0010
0000
,
0001
3010
0000
0000
1000
0000
0010
0100
,
0000
1000
0000
0000
0001
0000
0100
0002
,
0000
0003
0000
0000
1000
0000
0100
0001
,
0000
0000
0100
0000
0000
0000
0001
0000
0000
0000
0000
0000
0000
0000
0000
0011
,
0000
1100
0000
0000
0000
0000
0000
0000
1000
0000
0000
0000
0100
0000
0010
0000
,
0000
0001
0000
0000
0100
0000
1000
0110
,
0000
0000
0000
0000
0001
0000
0010
0001
,
0000
0110
0000
1000
0000
0000
0000
0000
,
0110
0000
1001
0000
0000
0000
0000
0000
1000
0000
0000
0000
0000
0110
0000
0000
,
0001
0000
0000
0000
1100
0000
0000
0000
0000
0010
0000
0000
0000
0000
0011
0000
,
0000
0000
1000
0000
0000
0000
0000
0010
0000
0000
0000
0000
1001
0000
0000
0000
,
0000
2000
0000
0000
,
3000
0022
0000
0000
0000
0000
0000
0000
,
0000
0000
0000
0000
0033
0000
1000
0000
0000
0000
0110
0000
0000
0101
0000
0000
,
0000
0000
1100
0000
0000
0000
0000
0011
0000
0000
0000
0000
1100
0000
0000
0000
,
0000
1010
0000
0000
0000
0000
1001
0000
0000
0000
0110
0000
0000
0000
0000
0000
,
1000
0000
0000
0000
0000
0001
0000
0000
0000
0000
1000
0000
0000
0000
0000
0002
,
0000
0000
0000
0000
,
0003
1000
0000
0000
0000
0000
0001
0000
0000
0000
0000
0110
0000
0000
0000
0000
,
0010
0000
0000
0000
1100
0000
0000
0000
0000
0010
0000
0000
0000
1001
0000
0000
,
0000
0000
0011
0000
0000
0000
0000
0101
0000
0000
0000
0000
0000
0000
0000
0000
,
0000
0000
0000
0000
0000
2000
0000
0000
0000
0000
0000
0000
0000
0000
0000
0000
,
3000
0020
0000
0000
0000
0030
0000
0000
,
1010
0000
0000
0000
0110
0000
0000
0000
0101
0000
0000
0000
0000
0100
0000
0000
,
0000
1010
0000
0000
0000
0000
0100
0000
0000
0000
0000
1001
0000
0000
0000
0000
,
0110
0000
0000
0000
0000
2002
0000
0000
0000
0000
0000
0000
0000
0000
0000
0000
,
0000
0000
3003
0200
0000
0000
0000
0000
,
0000
0000
0300
1000
,
0001
1000
0100
0010
,
0010
0100
0100
1000
,
0010
0001
0000
1000
0000
0110
0000
1000
,
0100
0010
0001
0000
0000
0000
0000
0000
,
0000
2200
0000
0000
0000
0000
0000
0000
,
0000
0000
0000
0000
,
3300
0000
0000
0000
,
0000
0000
0000
0000
1001
0000
0000
0101
,
0000
0000
0000
0000
0000
0000
1100
0000
0000
0000
0000
0000
0000
0011
0000
0000
,
0000
0000
0101
0000
0000
1000
0001
0200
,
0000
0000
0000
0000
,
0300
1010
0000
0101
,
0000
0000
0000
1001
0000
0000
0000
0000
0000
0000
0000
1100
0000
0000
0000
0110
,
0000
0022
0000
0000
,
0000
0000
0000
0000
,
0033
0000
0000
0000
;

//---------------dance-single - Copied from Copied f----------------
#NOTES:
     dance-single:
     Copied from Copied f:
     Hard:
     9:
     0.669,1.000,1.000,0.290,0.541,251.000,82.000,22.000,0.000,1.000:
1000
0010
0001
0000
0000
0000
0000
0000
,
1100
0000
0000
0000
0110
0000
1001
0000
0000
0000
0000
0000
0000
0000
0000
1001
,
0000
0110
0000
2002
0000
0000
0000
0000
0000
0000
0000
0000
0000
0000
0000
0000
,
0000
0000
0000
0000
3003
0000
0000
0010
,
1000
0100
0001
1000
0100
0010
0001
0010
,
0100
0100
0010
0001
1000
0100
0001
0100
,
1000
0001
0100
0001
0001
0010
1000
0010
,
0000
0001
1000
0000
0100
0000
0010
0000
0001
0000
1000
0000
0000
1001
0000
0110
,
0000
0000
0000
0000
0000
0000
0000
0000
0000
1010
0000
0101
0000
0000
0000
0000
,
0000
0000
0000
0000
0011
0000
0000
1100
0000
0000
0000
0000
0000
0000
0000
1001
,
0000
0000
0110
0000
0101
0000
0000
0000
0000
0000
0000
2020
0000
0000
0000
0000
,
0000
0000
0000
0000
0000
0000
0000
0000
3030
0000
0000
0110
0000
0000
0000
1000
,
0000
0001
0000
0000
0000
0100
0000
0000
0000
0010
0000
0000
2002
0000
0000
0000
,
0000
0000
0000
0000
,
3203
0000
0000
0000
,
0000
0000
0000
0000
0000
0000
0000
0000
0300
2000
0000
0000
0000
0000
0000
0000
,
0000
0000
0000
0000
,
0000
0000
0000
0000
0000
0000
0000
0000
0001
0010
0100
0000
0000
0000
0010
0001
,
0100
0000
0000
0000
0001
0100
0010
0000
0000
0000
0100
0000
0010
0000
0000
0000
,
0001
0100
3010
0001
0010
0100
0010
0001
1000
0000
0000
0000
0010
0000
0100
0000
,
0000
1000
0000
0000
0001
0000
0100
0002
,
0000
0003
0000
0000
1001
0000
0100
1001
,
0000
0000
0110
0000
0000
0000
0101
0000
0000
0000
0000
0000
0000
0000
0000
0011
,
0000
1100
0000
0000
0000
0000
0000
0000
1000
0000
0000
0000
0100
0000
0010
0000
,
0000
0001
0000
0000
0101
0000
1000
0110
,
0000
0000
0000
0000
1001
0000
0010
0101
,
0000
0110
0000
1010
0000
0000
0000
0000
,
0110
0000
1001
0000
0000
0000
0000
0000
1000
0000
0000
0000
0000
0110
0000
0000
,
0001
0000
0000
0000
1100
0000
0000
0000
0000
0010
0000
0000
0000
0000
0011
0000
,
0000
0000
1000
0000
0000
0000
0000
0010
0000
0000
0000
0000
1001
0000
0000
0000
,
0000
0000
0000
0000
2000
0000
0000
0000
3000
0100
1000
0100
1000
0100
1000
0100
,
1000
0100
0022
0000
0000
0000
0000
0000
0000
0000
0000
0000
0000
0000
0000
0000
,
0000
0000
0000
0000
0033
0000
1000
0000
0000
0000
0110
0000
0000
0101
0000
0000
,
0000
0000
1100
0000
0000
0000
0000
0011
0000
0000
0000
0000
1100
0000
0000
0000
,
0000
0000
0000
1010
0000
0000
0000
0000
0000
0000
0000
0000
0000
0000
0000
0000
0000
0000
1001
0000
0000
0000
0000
0000
0000
0000
0000
0000
0000
0000
0110
0000
0000
0000
0000
0000
1000
0000
0000
0000
0100
0000
0000
0000
0010
0000
0000
0000
,
1000
0000
0000
0000
0001
0000
0000
0000
0100
0000
0000
0000
0010
0000
0000
0000
1000
0000
0000
0000
0010
0000
0000
0000
0100
0000
0000
0000
0001
0000
0000
0000
1000
0000
0000
0000
0100
0000
0000
0000
0010
0000
0000
0000
0000
0002
0000
0000
,
0000
0000
0000
0000
,
0003
1000
0000
0000
0000
0000
0001
0000
0000
0000
0000
0110
0000
0000
0000
0000
,
0010
0000
0000
0000
1100
0000
0000
0000
0000
0010
0000
0000
0000
1001
0000
0000
,
0000
0000
0000
0000
0000
0000
0011
0000
0000
0000
0000
0000
0000
0000
0000
0000
0000
0000
0000
0000
0000
0101
0000
0000
0000
0000
0000
0000
1000
0000
0000
0000
0010
0000
0000
0000
0100
0000
0000
0000
0001
0000
0000
0000
0010
0000
0000
0000
,
0100
1000
0010
0100
0001
0100
0010
1000
0010
0100
1000
0001
,
0010
0100
0001
0100
1000
0010
0100
0001
0010
0100
1000
0000
,
1010
0000
0000
0000
0110
0000
0000
0000
0101
0000
0000
0000
0000
0100
0000
0000
,
0000
1010
0000
0000
0000
0000
0100
0000
0000
0000
0000
1001
0000
0000
0000
0000
,
0110
0000
0000
0000
0000
2002
0000
0000
0000
0000
0000
0000
0000
0000
0000
0000
,
0000
0000
3003
0220
0000
0000
0000
0000
,
0000
0000
0000
0330
0000
0000
0100
0010
,
1001
0100
1000
0001
0110
0100
1000
0001
,
0110
1000
0010
0010
0101
0010
1000
1000
,
0110
0001
0000
1000
0000
0110
0000
1000
,
0100
0010
0001
0000
0000
0000
0000
0000
,
0000
2002
0000
0000
0000
0000
0000
0000
,
0000
0000
0000
0000
,
3003
0200
0000
0000
0000
0000
0000
0000
,
0000
0000
0001
1000
0010
0000
0300
0000
1001
0000
0000
0000
0110
0000
0101
0000
,
0000
0000
1001
0000
0000
0000
1100
0000
0000
0000
0101
0000
0000
0011
0000
0000
,
0000
1010
0000
0000
0101
0000
0000
0000
0000
0000
1000
0000
0001
0000
0200
0000
,
0000
0000
0000
0000
,
0300
1010
0101
0101
,
0110
0000
0000
1001
0000
0000
0000
1010
0000
0000
0000
1100
0000
0000
0000
0110
,
0000
0002
0000
1000
,
0100
1000
0000
0000
0000
0000
0000
0000
,
0003
0000
0000
0000
;
