#TITLE:Innocent;
#SUBTITLE:;
#ARTIST:m1dy;
#TITLETRANSLIT:;
#SUBTITLETRANSLIT:;
#ARTISTTRANSLIT:;
#CREDIT:;
#BANNER:inocent-bn.png;
#BACKGROUND:inocent-bg.png;
#LYRICSPATH:;
#CDTITLE:;
#MUSIC:Innocent.ogg;
#OFFSET:0.463;
#SAMPLESTART:34.491;
#SAMPLELENGTH:21.772;
#SELECTABLE:YES;
#DISPLAYBPM:350.000;
#BPMS:0.000=350.000,484.000=175.000,488.000=350.000;
#STOPS:;
#BGCHANGES:;
// cache tags:
#FIRSTBEAT:4.000;
#LASTBEAT:862.000;
#SONGFILENAME:Songs/Index Tournament 1/Innocent/Innocent.sm;
#HASMUSIC:1;
#HASBANNER:1;
#MUSICLENGTH:149.796;
// end cache tags

//---------------dance-single - Sefirot----------------
#NOTES:
     dance-single:
     Sefirot:
     Challenge:
     13:
     1.000,1.000,0.634,0.160,0.067,1097.000,95.000,24.000,81.000,2.000:
0000
0000
0000
0000
,
000M
0000
0M00
00M0
M000
0000
000M
0000
,
M000
00M0
0M00
0000
000M
0000
00M0
00M0
,
00M1
0100
0010
1000
,
0001
0010
0100
1000
,
0001
1000
0010
0100
,
0001
1000
0100
0010
,
0001
0100
0001
1000
,
0100
0010
0001
1000
,
0001
0010
0100
1000
,
0001
0000
0100
0000
0001
0000
1000
0001
,
1000
0001
0010
0100
,
1000
0010
0100
0001
,
1000
0001
0010
0100
,
1000
0010
0100
0001
,
1000
0100
0010
0001
,
1000
0001
0100
0010
,
2000
3000
0200
0300
0020
0030
0002
0003
,
0200
0340
0000
1030
0001
0100
0001
1000
,
0100
0010
0001
0000
,
1000
0010
0000
0100
,
0001
0010
0000
0100
,
1000
0001
0100
0100
,
0010
1000
0001
0000
,
0010
0100
0000
0010
,
0001
0100
0000
0010
,
1000
0001
0010
0010
,
1001
0000
0000
1000
0100
0000
0010
0000
,
0000
0001
0100
0010
1000
0001
0100
0010
,
1000
0000
0000
1000
0100
0000
1000
0000
,
0000
0001
0010
0100
1000
0001
0010
0100
,
1000
0000
0000
1000
0010
0000
0100
0000
,
0000
0001
0010
0100
1000
0001
0100
0001
,
2000
0000
0000
0002
,
0000
0000
3113
0000
,
1001
0000
0001
0100
0010
0000
0100
0001
,
1000
0010
0100
0000
0001
0000
0010
0000
,
0011
0000
0010
0100
1000
0000
0001
1000
,
0100
1000
0010
0000
0100
0000
0010
0000
,
0110
0000
0100
0010
1000
0000
0001
1000
,
0100
0010
0001
0000
1000
0000
0010
0000
,
1010
0000
1000
0001
0010
0000
0100
0010
,
0001
1000
0010
0000
1000
0000
0001
0000
,
1001
0000
1000
0100
0010
0000
0001
0010
,
0100
1000
0001
0000
0100
0000
0010
0000
,
0110
0000
0100
0001
1000
0000
0001
1000
,
0100
1000
0001
0000
0100
0000
0010
0000
,
1010
0000
1000
0001
0100
0000
0010
1000
,
0001
0010
0100
1000
0010
0100
0001
0000
,
2002
0000
0000
0000
,
3003
0000
MMMM
0000
,
1001
0001
1000
1010
,
0100
0001
0011
0100
,
1100
1000
0010
1001
,
1000
0010
0110
0100
,
0101
0001
1000
1100
,
1000
0001
0011
0100
,
1001
0100
0010
1001
,
0100
0010
1001
0100
,
0101
0001
1000
1100
,
1000
0001
0011
0100
,
1001
1000
0010
0110
,
0001
1000
1001
0010
,
0011
0100
1000
1010
,
0100
0001
0011
0100
,
1001
0000
00M0
000M
M000
000M
0M00
00M0
,
0M00
000M
1000
0100
0010
0001
0100
0000
,
0101
0001
1000
1100
,
0100
0000
0010
0001
1000
0001
0100
0000
,
0101
0001
1000
1010
,
0100
0000
0010
1000
0001
1000
0100
0000
,
1100
1000
0010
1001
,
0100
0000
0001
1000
0001
0100
0010
0000
,
1010
0100
0001
1001
,
0010
0000
0001
0100
0001
1000
0010
0000
,
0110
0100
0001
0101
,
0001
0000
1000
0001
1000
0100
0010
0000
,
0011
0100
1000
1001
,
0010
0000
1000
0100
1000
0001
0010
0000
,
0011
0001
1000
1001
,
0100
0000
0001
0010
0100
1000
0001
0000
,
2002
0000
0000
0000
,
0000
0000
3003
0000
,
0001
0100
0010
0100
0001
1000
0010
0100
,
0001
0100
0010
1000
0001
0010
0100
1000
,
0001
0010
0001
0100
0010
1000
0001
0010
,
0001
0100
0010
1000
0001
0010
0001
0100
,
0010
1000
0001
1000
0100
0010
0001
1000
,
0010
1000
0001
1000
0010
0100
0001
1000
,
0100
0010
0100
1000
0001
0010
0100
0010
,
0001
1000
0001
1000
0010
0100
0010
0100
,
0001
1000
0010
0100
0001
1000
0001
0010
,
0100
1000
0001
0100
0001
1000
0010
1000
,
0001
0010
0100
1000
0001
0100
0001
0010
,
0100
1000
0001
0100
0001
0010
0100
1000
,
0001
0100
0001
0010
0100
1000
0001
0100
,
0001
0010
0100
1000
0001
0100
0001
0010
,
0200
1300
0200
0310
0200
1300
0200
0310
,
0200
4300
0000
3100
0010
0001
1000
0001
,
0100
0000
0000
0100
0000
0000
0100
0000
,
0000
0000
0010
1000
0001
0010
0100
1000
,
0001
0000
0000
0001
0000
0000
0001
0000
,
0000
0000
0010
0001
1000
0010
0100
0001
,
1000
0000
0000
1000
0000
0000
1000
0000
,
0000
0000
0010
0100
0001
0010
0100
1000
,
0010
0000
0000
0010
0000
0000
0010
0000
,
0000
0000
0100
0001
1000
0100
0010
0001
,
1000
0000
0000
0001
1000
0000
0001
0000
,
0000
0010
0100
1000
0001
0010
0100
1000
,
0010
0000
0000
0010
0100
0000
0001
0000
,
0000
0010
0001
1000
0100
0010
0001
1000
,
0010
0000
0000
0010
0100
0000
0001
0000
,
0000
0001
1000
0010
0100
0001
0010
0100
,
2000
0000
0000
0002
,
0000
0000
3113
0000
,
1001
1000
0001
0101
,
0010
1000
1100
0010
,
0011
0001
0100
1001
,
0001
0100
0110
0010
,
1010
1000
0001
0011
,
0001
1000
1100
0010
,
2002
0M00
00M0
0M00
00M0
0M00
30M3
0000
,
1001
0010
0100
1001
,
0010
0100
1001
0010
,
1010
1000
0001
0011
,
0001
1000
1100
0010
,
1001
0001
0100
0110
,
1000
0001
1001
1000
,
0001
1000
0001
0000
1000
0001
1000
0010
,
0100
0001
0100
0010
1000
0001
0010
0001
,
1000
0001
1000
0000
0100
1000
0001
1000
,
0100
1000
0001
0000
0010
0001
1000
0000
,
0010
1000
0010
0000
0100
0001
1000
0001
,
0100
0001
1000
0000
0010
1000
0001
0000
,
0010
0001
0010
0000
0100
1000
0001
1000
,
0100
1000
0001
0000
0100
0010
1000
0000
,
0001
0100
0001
0000
1000
0100
1000
0001
,
1000
0100
0010
0000
0001
0010
0100
0000
,
1000
0010
0100
0000
0001
0100
0001
1000
,
0001
0100
0010
0000
1000
0010
0100
0000
,
0001
0010
0100
0000
1000
0100
0010
0001
,
0010
0100
1000
0000
0010
0100
0001
0000
,
1000
0100
0010
0000
0001
0100
0010
1000
,
0010
0100
0001
0000
1000
0100
0010
0001
,
1000
0000
0M00
000M
M000
000M
00M0
0M00
,
M000
000M
0M00
00M0
M000
000M
00M0
0000
,
1000
0010
0100
0010
1000
0001
0100
0010
,
1000
0010
0100
0001
1000
0100
0010
0001
,
1000
0010
1000
0100
0010
0001
1000
0010
,
1000
0100
0010
0001
1000
0010
1000
0100
,
0010
0001
1000
0001
0010
0100
1000
0001
,
0100
0001
1000
0001
0100
0010
1000
0001
,
0010
0100
0010
0001
1000
0100
0010
0100
,
1000
0001
1000
0001
0100
0010
0100
0010
,
1000
0001
0100
0010
1000
0001
1000
0100
,
0010
0001
1000
0010
1000
0001
0100
0010
,
1000
0010
0100
0001
1000
0100
1000
0010
,
0100
0001
1000
0100
1000
0010
0100
0001
,
1000
0100
1000
0010
0100
0001
1000
0100
,
1000
0010
0100
0001
1000
0001
0100
0010
,
0100
0001
1000
0010
0100
0001
1000
0001
,
2000
0000
0000
3200
0000
0000
0320
0000
0000
0032
0000
0000
1003
0000
0100
0000
0010
0000
0001
0000
1000
0000
0100
0000
,
0010
0001
1000
0001
1000
0001
0100
0010
,
0100
0001
1000
0010
0100
0001
1000
0010
,
1000
0001
0100
0001
0010
0100
1000
0010
,
1000
0001
0100
0001
0010
0100
1000
0001
,
0100
0001
0010
0100
1000
0001
0100
0001
,
0010
0100
1000
0010
0100
0001
0010
0100
,
1000
0001
0100
0010
1000
0001
0010
0100
,
1000
0100
0010
0001
1000
0001
1000
0001
,
0100
0010
1000
0010
0100
0001
1000
0100
,
0010
0100
1000
0001
0010
0100
1000
0001
,
1000
0010
0100
0001
0010
0100
1000
0010
,
0100
0001
0010
0100
1000
0010
0100
0001
,
0010
0100
1000
0010
0100
0001
0010
0100
,
1000
0010
0100
0001
0010
0100
1000
0001
,
0400
0340
4030
3004
0043
0430
4300
3004
,
4003
3004
4003
3004
4003
3004
4003
3004
,
1003
0001
1000
0001
1000
0001
1000
0001
1000
0001
1000
0001
,
1000
0001
1000
0001
1000
0001
1000
0001
1000
0001
1000
0001
,
4000
0004
0000
0000
0000
0000
0000
0000
0000
0000
0000
0000
0000
0000
0000
0000
,
0000
0000
0000
3003
,
10M1
0M00
00M0
0000
0M00
0000
00M0
0M00
,
0000
00M0
0M00
0000
00M0
0M00
00M0
0000
,
1001
0000
1000
0010
0100
0000
0010
1000
,
0001
0100
0010
0000
1000
0000
0100
0000
,
1100
0000
0100
0010
0001
0000
1000
0001
,
0010
0001
0100
0000
0010
0000
0100
0000
,
0110
0000
0010
0100
0001
0000
1000
0001
,
0010
0100
1000
0000
0001
0000
0100
0000
,
0101
0000
0001
1000
0100
0000
0010
0100
,
1000
0001
0100
0000
0001
0000
1000
0000
,
1001
0000
0001
0010
0100
0000
1000
0100
,
0010
0001
1000
0000
0010
0000
0100
0000
,
0110
0000
0010
1000
0001
0000
1000
0001
,
0010
0001
1000
0000
0010
0000
0100
0000
,
0101
0000
0001
1000
0010
0000
0100
0001
,
1000
0100
0010
0000
0100
0000
1000
0000
,
1001
0000
1000
0100
0010
0000
0100
0010
,
0001
1000
0010
0000
0100
0000
0001
0000
,
0101
0001
1000
1100
,
1000
0001
1001
0100
,
0110
0010
1000
1010
,
0100
0001
0011
1000
,
1001
0001
0100
1001
,
1000
0100
1001
0001
,
0101
0100
0010
1010
,
1000
0001
0101
0010
,
1001
0M00
0000
00M0
0M00
0000
00M0
0M00
,
0000
00M0
0M00
0000
000M
0000
M000
0000
,
00M0
0M00
0000
00M0
0M00
0000
00M0
0M00
,
0000
00M0
0M00
0000
000M
0000
M000
0000
,
00M0
0M00
0000
00M0
0M00
0000
00M0
0M00
,
0000
00M0
0M00
0000
0004
0000
1003
0100
,
0010
0001
1000
0000
0001
0100
0010
1000
,
0001
0010
0110
0000
;
