#TITLE:Angel Eyes;
#SUBTITLE:;
#ARTIST:Brisk & Ham;
#TITLETRANSLIT:;
#SUBTITLETRANSLIT:;
#ARTISTTRANSLIT:;
#CREDIT:;
#BANNER:Angel Eyes.jpg;
#BACKGROUND:Angel Eyes-bg.jpg;
#LYRICSPATH:;
#CDTITLE:!macTitle.png;
#MUSIC:Angel Eyes.mp3;
#OFFSET:-0.040;
#SAMPLESTART:99.920;
#SAMPLELENGTH:12.000;
#SELECTABLE:YES;
#BPMS:0.000=176.360,96.000=88.180,161.000=44.090,161.500=22.050,162.500=44.090,163.500=88.180,167.500=176.360,171.500=88.180,172.000=176.360,299.000=88.180,299.500=176.360;
#STOPS:167.500=0.090
,167.750=0.085
,168.000=0.090
,168.250=0.090
,168.500=0.090
,168.750=0.090
,169.000=0.085
,169.250=0.090
,169.500=0.090
,169.750=0.085
,170.000=0.085
,170.250=0.085
;
#BGCHANGES:;
// cache tags:
#FIRSTBEAT:0.000;
#LASTBEAT:304.000;
#SONGFILENAME:Songs/Fabulously Fresh Flock of Fantastic Files F5/(macgravel) Angel Eyes/Angel Eyes.sm;
#HASMUSIC:1;
#HASBANNER:1;
#MUSICLENGTH:134.797;
// end cache tags

//---------------dance-single - ----------------
#NOTES:
     dance-single:
     :
     Hard:
     10:
     0.856,0.902,1.000,0.438,0.486,591.000,158.000,59.000,0.000,0.000:



1000
0100
0000
0010
0000
0000
0000
0020
,
0030
0000
0000
0000
0000
0000
0000
0002
,
1003
0010
0000
0100
0000
0000
0000
0200
,
0300
0000
0000
0000
0002
0000
0003
0200
,
0310
1000
0000
0001
0000
0000
0000
2000
,
3001
0010
0100
1000
0010
1000
0001
0100
0010
0100
0001
0010
0100
0010
0001
1000
,
0100
1000
0010
1000
0001
0100
0010
0100
0001
0010
0100
1000
0010
1000
0001
0100
,
0010
0100
0001
0010
0100
1000
0010
1000
0001
1000
0010
1000
0001
0000
0010
0000
,
1100
0100
0110
0010
0011
0001
1001
1000
,
1010
0010
0110
0100
0101
0001
0011
0010
,
0110
0100
1100
1000
1010
0010
0110
0100
,
0101
0001
1001
1000
1010
0010
0110
0100
,
0101
0001
0011
0010
0110
0010
0011
0001
,
1001
1000
1010
0010
0110
0100
0101
0001
,
1001
1000
1010
0010
0110
0100
0101
0001
,
0101
0100
0110
0010
1010
1000
1100
0100
,
0110
0001
0110
0001
1100
0100
0011
0010
,
0101
0010
1001
0100
0011
0100
1010
0001
,
0110
0001
1100
0010
0101
0100
1010
0001
,
0110
0001
0110
1000
1010
0001
0110
0001
,
0110
0001
1010
0100
1010
0001
0110
0001
,
0110
0001
1100
0010
1100
0010
0101
0010
,
1000
0001
0100
0001
1000
0010
0100
0010
1000
0100
0010
0001
0100
0001
1000
0100
,
0010
0001
0100
0001
1000
0010
0100
0010
1000
0100
0010
0001
0100
0000
0000
0000
,
2000
0000
0100
3200
0000
0000
0320
0000
0032
0000
0100
0203
0000
0000
0320
0000
,
2030
0000
0100
3200
0000
0000
0320
0000
0032
0000
0010
0023
0000
0000
0230
0000
,
2300
0000
0010
3020
0000
0000
0230
0000
0302
0000
0010
0023
0000
0000
0230
0000
,
0320
0000
0001
0032
0000
0000
0203
0000
0320
0000
1000
2030
0000
0000
3200
0000
,
0320
0000
0001
0032
0000
0000
0203
0000
0320
0000
0100
0230
0000
0000
0302
0000
,
2003
0000
0100
3200
0000
0000
2300
0000
3020
0000
0100
0230
0000
0000
0302
0000
,
0023
0000
0100
0230
0000
0000
2300
0000
3020
0000
0100
0230
0000
0000
0302
0000
,
0203
0000
0000
0000
0010
0000
0320
0000
0000
0000
0000
0000
2030
0000
0000
0000
3200
0000
0000
0000
0010
0000
0320
0000
0000
0000
0000
0000
0032
0000
0000
0003
,
0110
0010
1000
0100
1000
0010
0100
0001
,
0000
0010
0100
1000
0010
0100
0010
0100
,
0000
0001
1000
0010
1000
0100
0010
0100
,
0000
0000
1000
0000
0001
0000
0100
0000
0010
0000
0000
1000
0100
0010
0001
0100
,
1010
0100
0001
0000
0001
1000
0000
0100
0000
0000
0000
0010
0001
0100
0010
0100
,
0001
0000
1000
0000
0010
1000
0000
0100
0000
0000
0000
1000
0010
0100
0001
0100
,
0010
0000
1000
0000
0001
0100
0000
0010
0000
0000
0000
0000
0000
0010
1000
0001
,
1000
0010
0000
0100
0000
0010
1000
0001
0100
0010
0000
0200
0000
0000
0320
0000
,
2030
0000
0000
0000
,
0000
0000
0000
0000
0000
0000
0000
0000
3100
0010
0001
1000
0010
0100
0001
1000
0100
0010
0001
0010
0100
0010
0001
1000
0010
0100
0010
1000
0100
0000
0010
0000
,
0001
1000
0010
0100
0001
1000
0010
0100
0010
1000
0100
0010
0001
1000
0010
0000
,
1000
0000
0000
0100
0000
0000
0010
0000
0000
0000
0001
0000
0010
0000
0100
0000
,
1000
0000
0000
0010
0000
0000
0100
0000
0000
0000
0001
0000
1000
0000
0010
0000
,
0100
0000
0000
0001
0000
0000
1000
0000
0000
0000
0100
0000
0010
0000
0100
0000
,
1000
0000
0000
0010
0000
0000
0100
0000
0000
0000
0001
0000
1000
0000
0001
0000
,
1000
0000
0000
0100
0000
0000
0010
0000
0000
0000
0001
0000
0010
0000
0001
0000
,
1000
0000
0000
0010
0000
0000
0100
0000
0000
0000
0001
0000
1000
0000
0010
0000
,
1000
0000
0000
0100
0000
0000
0010
0000
0000
0000
0001
0000
0100
0000
0010
0000
,
1000
0000
0000
0100
0000
0000
0010
0000
0000
0000
0001
0000
1000
0000
0010
0000
,
0101
0000
0000
0110
0000
0000
1001
0000
0000
0000
1001
0000
1010
0000
1001
0000
,
0110
0000
0000
0101
0000
0000
0110
0000
0000
0000
0011
0000
0110
0000
0011
0000
,
1100
0000
0000
1010
0000
0000
0101
0000
0000
0000
0110
0000
1001
0000
1010
0000
,
0101
0000
0000
0110
0000
0000
0011
0000
0000
0000
0110
0000
0011
0000
1100
0000
,
1010
0000
0000
1001
0000
0000
0110
0000
0000
0000
0101
0000
0110
0000
1001
0000
,
1010
0000
0000
1100
0000
0000
1010
0000
0000
0000
1100
0000
0110
0000
0011
0000
,
0110
0000
0000
0011
0000
0000
1100
0000
0000
0000
1010
0000
0101
0000
0110
0000
,
0101
0000
0000
1001
0000
0000
0100
0000
0010
0000
0100
0000
0010
0000
0100
0000
,
0110
0000
1001
0000
1010
0010
0101
1000
,
1001
0000
0110
0010
1100
0001
0101
0010
,
1100
0000
0101
0000
1010
0001
0101
0100
,
0101
0000
1010
0010
1001
0010
0110
0001
,
1100
0000
0011
0000
1010
0100
1010
0010
,
1001
0000
0101
0000
0110
0000
0101
0001
,
1100
0001
0110
1000
0101
0000
1001
0010
,
1100
0010
0101
0001
0110
0000
1001
0100
,
1010
0000
0101
0000
1100
0010
0101
0100
,
0110
0000
1001
0001
1010
0010
1100
0100
,
1001
0000
1010
0000
0101
0001
0110
0100
,
1001
0000
0110
0001
1010
0100
0101
0001
,
1010
0000
0110
0000
0101
0001
0110
0100
,
1001
0000
0000
0000
0101
0000
0000
0000
0110
0000
0000
0000
0010
0100
1000
0010
,
1000
0001
0100
0010
1000
0001
1000
0100
0010
0100
1000
0010
0100
0010
1000
0001
,
0100
0010
0100
0001
1000
0100
1000
0100
0010
0001
0100
0010
0100
0000
2002
0000
,
0000
0000
0000
0000
,
3003
0000
0000
0000
;
