#TITLE:Real Over Drive;
#SUBTITLE:;
#ARTIST:NieN;
#TITLETRANSLIT:;
#SUBTITLETRANSLIT:;
#ARTISTTRANSLIT:;
#CREDIT:;
#BANNER:Real Over Drive-bn.png;
#BACKGROUND:Real Over Drive-bg.jpg;
#LYRICSPATH:;
#CDTITLE:Type MARS.png;
#MUSIC:Real Over Drive.mp3;
#OFFSET:1.220;
#SAMPLESTART:101.420;
#SAMPLELENGTH:12.640;
#SELECTABLE:YES;
#BPMS:0.000=76.000,19.250=152.000,19.500=304.000,20.000=152.000,149.000=76.000,181.000=152.000,204.000=304.000,205.000=152.000;
#STOPS:200.000=1.160
,204.000=0.600
;
#BGCHANGES:0.625=Real Over Drive.avi=1.000=1=1=1,
99999=-nosongbg-=1.000=0=0=0 // don't automatically add -songbackground-
;
// cache tags:
#FIRSTBEAT:4.000;
#LASTBEAT:240.750;
#SONGFILENAME:Songs/Definitive Keyboard Megapack/Real Over Drive(typeMARS)/Real Over Drive.sm;
#HASMUSIC:1;
#HASBANNER:1;
#MUSICLENGTH:122.626;
// end cache tags

//---------------dance-single - ----------------
#NOTES:
     dance-single:
     :
     Beginner:
     1:
     0.174,0.171,0.073,0.008,0.000,139.000,9.000,1.000,0.000,0.000:
0000
0000
0000
0000
,
0000
0000
0000
0000
,
0000
0000
0000
0000
,
0001
0000
0100
0000
,
1000
0000
0020
0030
,
0000
0100
0000
0010
,
0001
1000
0000
0100
,
1000
0001
0000
0001
,
1000
0100
0000
0110
,
0000
0010
0000
0001
,
0001
0100
0000
1000
,
1000
0100
0000
0010
,
0010
1000
0000
1001
,
0000
0001
0000
0000
,
1001
0000
0000
1000
,
0000
0010
0000
0010
,
0000
0100
0000
0100
,
0000
0001
0000
0000
,
1001
0000
0000
1000
,
0000
0100
0000
0001
,
0000
0100
0000
0001
,
0001
1000
0000
0100
,
0000
0100
0000
0001
,
0001
1000
0000
0100
,
0000
0100
0000
1000
,
1000
0010
0000
0010
,
0000
0100
0000
0001
,
0001
0100
0000
1000
,
0000
0010
0010
0010
,
0010
0010
0000
0010
,
0000
0100
0000
1000
,
1000
0100
0000
0001
,
0000
0001
0000
0100
,
0010
0010
0000
1000
,
0000
0100
0000
1000
,
0001
0001
0000
0100
,
0000
0010
0000
0010
,
0010
0100
0000
0010
,
0000
0110
0000
1000
,
0000
0001
0000
1000
,
0000
0100
0100
0010
,
0010
0001
0000
0100
,
0010
1000
0000
1000
,
0001
0100
0000
0010
,
0100
0001
0000
0001
,
0001
0001
0100
0000
0000
0000
1000
0000
,
0000
0001
0000
0100
,
0000
0010
0000
0010
,
0000
0010
0000
1000
,
0000
0100
0000
0000
,
0110
0000
0100
0100
,
0100
0000
0001
0000
,
1000
0000
0010
0000
,
0100
0000
0001
0000
,
0100
1000
0000
1001
,
0000
0001
0100
0000
,
0010
1000
0000
0001
,
0001
0100
0100
0000
,
0010
1000
0000
1001
,
0000
0100
0000
0000
,
0110
0000
0000
0000
;

//---------------dance-single - ----------------
#NOTES:
     dance-single:
     :
     Challenge:
     12:
     1.000,1.000,1.000,0.514,0.901,660.000,179.000,63.000,0.000,22.000:
0000
0000
0000
0000
,
0002
0203
0000
0320
2030
0000
3002
0203
0320
2030
0000
3200
0302
0000
0203
0320
,
2030
3002
0000
0203
2300
0000
3002
2003
3020
0230
0000
0320
2030
3002
0203
0320
,
0130
0001
0010
0100
1000
0001
0010
0110
1001
0100
0010
0001
0010
0100
1000
0100
,
1001
0000
0000
0000
0010
0000
0000
0000
0100
0000
0000
0000
1000
0000
0000
0000
0100
0000
0000
0000
0010
0000
0000
0000
0001
0000
0000
0000
0100
0000
0000
0000
1001
0000
0000
0000
1001
0000
0000
0000
1001
0000
0000
0000
1001
0000
0000
0000
1001
0000
0000
0000
2002
0000
0000
0000
0000
0000
0000
0000
0000
0000
0000
3003
,
1001
0000
0000
0000
0110
1000
0001
0000
1001
0000
0010
0000
0100
0001
1000
0000
,
0110
0000
0002
0000
0103
0010
1000
0000
0110
0000
0001
0000
1000
0100
0010
0000
,
1001
0000
0020
0000
1030
0100
0001
0000
0101
0000
0010
0000
1000
0100
0010
0000
,
0110
0000
2000
0000
3001
0000
0010
1100
0000
0010
0101
0000
0010
1100
0000
1000
,
0011
1100
0011
1100
0011
0100
1000
0000
0110
0000
0001
0000
1000
0100
0001
0000
,
0101
0000
2000
0000
3010
0100
0001
0000
1001
0000
0100
0000
0010
0001
1000
0000
,
1010
0000
0200
0000
0301
1000
0100
0000
0110
0000
1000
0000
0001
0100
1000
0000
,
1010
0000
0100
0000
1001
0000
0010
1100
0000
0010
0101
0000
0100
1001
0000
0100
,
1010
0101
1010
0101
0010
1000
0010
1000
0002
0000
0103
0010
0100
0010
2000
0000
,
3001
0100
0001
0100
0020
0000
1030
0001
1000
0001
0200
0010
0301
1000
0001
1000
,
0001
0100
0001
0100
0010
0000
1001
0000
0100
0000
1010
0000
0100
0000
1100
0000
,
0010
1010
0100
0011
1000
0101
0010
1001
,
0100
0000
0011
0000
1000
0001
1000
0001
0200
0000
0310
1000
0010
1000
0002
0000
,
0103
0010
0100
0010
2000
0000
3001
0100
0001
0100
0020
1000
0130
0001
0100
0001
,
1000
0001
1000
0001
0100
0000
0110
0000
0001
0000
1100
0000
0010
0000
0101
0000
,
0010
0000
1001
0000
0100
0000
0110
0000
0010
0000
0011
0000
1000
0100
0010
0001
,
1100
0000
0110
0000
0102
0000
0010
1000
0110
0000
0100
0000
0010
0000
0000
0000
,
1100
0000
0203
0000
1000
0001
0010
0000
1010
0000
0001
0000
0001
0000
0000
0000
,
0310
0000
0001
0100
2000
0000
0010
0001
0110
0000
0100
0000
0001
0000
0000
0000
,
0101
0000
3020
0000
0100
1000
0001
0000
1001
0000
1000
0000
0100
0000
1100
0000
,
0131
0000
1001
0000
0120
0000
1000
0100
1001
0000
0100
0000
0001
0000
0000
0000
,
1032
0000
0100
0000
0010
0000
1000
0100
1010
0000
0100
0000
0010
0000
0010
0000
,
2103
0000
0000
0010
0000
0000
3001
0000
0010
0000
0100
0000
1001
0000
0100
0000
0010
0000
0100
0000
1000
0000
0010
0000
,
0101
0000
0000
0000
0010
0000
0000
0000
0100
0000
0000
0000
1000
0000
0000
0100
0000
0000
0010
0000
0000
0100
0000
0000
0010
0000
0000
0001
0000
0000
0010
0000
0000
0100
0000
0000
0010
0000
0000
0100
0000
0000
1000
0000
0000
0100
0000
0000
,
0001
0100
1000
0010
1001
0000
0110
0000
1000
0000
0101
0000
0010
0000
1100
0000
,
0010
0000
0110
0000
1000
0000
0101
0000
0010
0000
1100
0010
1000
0010
0101
1000
,
0010
0000
1001
0100
0001
0000
0110
0000
1000
0000
0110
0000
0100
0000
0101
0000
,
0001
1100
0010
0101
0010
0110
1000
0110
,
0001
1001
0100
0010
0001
1001
0100
0010
,
1000
0110
0001
0001
0100
1010
0101
0100
,
1000
0000
0110
0000
0010
0100
1000
0100
0010
0000
0001
0100
0010
1000
0100
0010
,
0001
0000
0100
0000
0010
1000
0100
0010
0001
0010
0100
0010
0001
0100
1000
0010
,
0001
0100
0010
1000
0200
0000
0000
0000
0000
0000
0000
0000
1001
0000
0000
0000
,
0311
0000
0000
0000
0000
0000
0000
0000
1002
0000
0000
0000
0000
0000
0000
0000
0000
0000
0000
0000
0000
0000
0000
0000
0010
0100
1000
0100
0010
0100
1000
0100
,
0010
0100
1000
0100
0010
0000
0000
0000
1103
0000
0000
0000
0110
0000
0000
0000
1001
0000
0000
0000
0100
0000
0000
0000
0011
0000
0000
0000
0101
0000
0000
0000
,
1001
0000
0000
0000
0100
0000
0000
0000
0110
0000
0000
0000
1001
0000
0000
0000
0101
0000
0000
0000
0100
0000
0000
0000
0001
0010
0100
0010
0001
0100
1000
0100
,
0001
0010
0100
1000
0110
0000
0000
0000
0210
0000
0000
0000
0001
0000
0001
0000
0010
0000
0000
0000
1000
0000
1000
0000
2310
0000
0100
0000
0010
0000
0100
0000
,
3002
0000
0000
0000
0010
0000
0100
0000
0023
0000
0100
0000
1000
0000
0100
0001
1000
0000
0100
0001
0100
0000
1000
0100
0001
0000
1000
0100
0001
0000
1000
0100
,
2031
0100
0010
0100
0010
0000
0000
0000
3012
0000
0010
0000
0100
0000
0000
0000
1000
0000
0100
0010
1000
0000
0100
1000
0010
0000
0000
0000
0100
0000
1000
0000
,
0123
0000
0000
0000
0000
0000
0000
0000
2031
0000
0100
0000
0000
0000
0010
0001
0100
0000
0010
0000
0100
0000
0001
0000
3100
0010
0001
0010
0100
1000
0100
0010
,
0100
1001
0100
1001
0110
0000
0100
0000
1001
0000
0010
0001
0100
1010
0001
0000
,
1100
0000
0110
0000
1001
0000
0100
0000
0011
0000
0100
1000
0110
0000
0010
0000
,
1100
0000
0100
0000
0101
0000
0100
0000
1010
0000
0100
0001
1000
0000
0100
0000
,
0110
1001
0100
0010
1001
0100
1000
0010
,
0101
0000
0100
0000
1010
0000
0100
0001
1000
0000
0010
0001
1000
0000
0010
0100
,
1001
0000
0110
0000
1001
0110
0110
1001
,
0101
0000
0000
0000
1001
0000
0010
0001
0100
0000
0010
1000
0001
0100
0010
0000
,
1001
0000
0200
0000
0310
0000
1000
0001
0100
0000
0010
1000
0100
0001
0100
0010
,
0101
0000
0020
0000
1030
0000
0001
0100
0010
0000
1000
0100
0010
0001
0100
0000
,
1001
0000
0020
0000
1030
0000
0101
0010
0000
1100
0010
0000
0011
1000
0000
0100
,
0011
1100
0011
1100
0011
0100
1000
0000
1001
0000
0010
0001
1100
0010
1000
0000
,
0110
0000
0002
0000
1103
0000
0010
0001
1100
0000
0010
0100
0011
0100
1000
0010
,
1100
0000
0002
0000
0113
0000
0010
1000
0101
0000
0100
0010
1001
0100
0010
0000
,
1100
0000
0002
0000
0103
0000
1100
0001
0000
0101
1000
0000
0110
0001
0000
1000
,
0101
1010
0101
1010
0001
1100
0011
1100
0011
0000
1000
0101
1010
0101
1010
0000
,
0010
0101
1010
0101
0000
0000
0000
0000
0000
0000
0000
0000
0000
0000
0000
0000
;

//---------------dance-single - ----------------
#NOTES:
     dance-single:
     :
     Easy:
     4:
     0.302,0.368,0.155,0.106,0.000,227.000,19.000,13.000,0.000,0.000:
0000
0000
0000
0000
,
0000
0000
0000
0000
,
0000
0000
0000
0000
,
0001
0001
0100
0100
,
1000
0000
1000
0000
0010
0010
0010
0000
,
0110
1000
0001
1000
,
1000
0001
1000
0001
,
0001
0100
0010
0100
,
0100
0010
1000
0100
,
0001
1000
0001
1000
,
1000
0001
1000
0001
,
0001
0100
0010
0100
,
0100
0001
0010
1000
,
0100
0002
0103
2000
,
3100
0020
0130
0002
,
1003
0100
0010
1000
,
0001
0100
1000
0100
,
0001
0200
1300
0002
,
0103
2000
3010
0002
,
0013
1000
0010
0001
,
0010
1000
0100
0001
,
0100
1000
0001
0000
,
1001
0000
1000
0010
,
0100
0001
0100
0000
,
0101
0000
0001
1000
,
0010
0100
0010
0000
,
0110
0000
0100
1000
,
0001
0100
0010
1000
,
0100
0010
0001
0100
,
0010
1000
0100
0000
,
1100
0000
0100
1000
,
0010
0100
0001
0000
,
0101
0000
0010
0001
,
0100
0010
1000
0000
,
0001
0000
0100
0000
,
0010
1000
0100
0001
,
0100
2000
3020
0032
,
0203
0310
1000
0001
,
0101
0000
1001
0000
0010
0000
1000
0100
,
0010
0001
0100
0100
0010
0000
0010
0010
,
1000
0000
0100
1000
0001
0000
0100
0010
,
1000
0001
0100
0000
0010
0000
1000
0000
,
1001
0001
0100
0010
,
1010
0100
0001
0010
,
0110
0100
1000
0001
,
0100
0100
0110
0000
1000
0000
0100
0000
,
0001
1001
1000
1001
,
0001
1001
1000
0100
,
0010
0100
1000
0110
,
0001
0110
1000
0100
,
0110
0100
0010
0010
,
0110
1000
0100
0010
,
0001
1000
0010
0100
,
0001
1000
0100
0001
,
0100
1000
0010
0001
,
0100
1000
1000
1000
,
1000
0001
0001
0001
,
0001
0100
0100
0100
,
0100
0010
0100
1000
,
0100
0000
0001
0001
0000
1000
1000
0000
,
0020
0130
0000
0000
0000
0000
0000
0000
;

//---------------dance-single - ----------------
#NOTES:
     dance-single:
     :
     Medium:
     6:
     0.422,0.466,0.277,0.285,0.033,293.000,34.000,35.000,0.000,0.000:
0000
0000
0000
0000
,
0000
0000
0000
0000
,
0000
0000
0000
0000
,
0001
0000
0000
0000
0100
0000
0000
0100
0100
0000
0000
0000
1000
0000
0000
0000
,
1000
0000
0000
0000
0010
0000
0000
0000
0010
0000
0100
0000
0001
0200
0000
0000
,
0300
0000
0010
1000
0001
0000
0100
0000
,
1000
0000
0010
1000
0001
0000
0100
0000
,
0001
0000
0010
1000
0100
0000
0010
0000
,
0001
0000
0000
0000
0100
0000
0000
0010
0000
0000
1000
0000
0100
0000
0000
0000
,
1001
0000
0010
0001
0010
0000
0100
0000
,
1000
0000
0010
1000
0010
0000
0100
0000
,
0010
0000
0001
0100
0001
0000
0100
0000
,
0010
0000
0000
0000
2000
0000
0000
3200
0000
0000
0301
0000
1000
0000
0000
0000
,
1001
0000
0001
0200
0000
1300
0002
0000
,
0103
0020
0000
1030
0002
0000
0103
0000
,
1001
0000
0100
0001
0000
0100
0000
1000
,
0000
0001
0000
1100
0000
0001
0000
0101
,
0000
1000
0001
0200
0000
0310
2000
0000
,
3001
0200
0000
0310
2000
0000
3001
1000
,
0001
0000
0100
0010
0000
1000
0000
0001
,
0000
1000
0000
0101
0000
1100
0000
0010
,
0000
1000
0002
0000
0103
0000
2000
0000
,
3010
0100
0002
0000
1003
0000
0020
0000
,
0130
0001
2000
0000
3010
0000
0200
0000
,
0301
1000
0020
0000
0130
0000
0001
1000
,
0010
0200
0301
2000
,
3001
0100
0110
0001
,
1001
0000
0100
0010
1000
0000
0001
0100
,
0010
0000
1000
0010
0100
0001
0100
0000
,
0110
0000
1001
0000
0100
0000
0010
1000
,
0100
0000
0010
0001
0100
0000
0001
1000
,
0001
0000
0100
0000
0110
0000
1000
0001
,
0100
0000
0010
1000
0100
0000
0001
1000
,
0001
0100
1001
0010
,
0001
0100
0010
0000
1000
0010
0100
0000
,
0010
0000
0100
0001
1000
0000
0010
0000
,
0100
0000
0001
1000
0001
0000
0100
0010
,
0100
0010
2000
0000
0000
0000
3001
0000
,
0110
0000
1002
0000
0000
0000
0103
1000
,
0010
0110
1000
0001
0110
0100
0001
0100
,
1001
0000
0100
0000
0010
0000
1000
0000
0110
0000
0001
0000
0100
0010
1000
0100
,
0010
0001
0200
0000
0010
0000
0001
0000
,
0310
2000
0001
0010
,
3100
0002
1000
0100
,
0013
2000
0001
0010
,
3100
0100
1001
0000
0101
0000
0001
0100
,
0010
0000
1000
0000
1100
0000
1000
0100
,
0010
0000
0001
0000
1001
0000
1000
0001
,
0100
0000
0010
1000
0001
0000
0100
0001
,
1000
0010
0101
1100
,
1001
0000
0010
0000
0100
0001
0100
0001
,
0200
0000
0300
0000
0110
0000
1000
0001
,
0100
0000
0010
0000
1000
0000
0001
0100
,
0010
0000
1000
0000
0010
0000
0100
0001
,
1000
0000
0000
0000
0020
0000
0000
0230
0000
0000
0302
0000
1003
0000
0000
0000
,
0100
0001
1000
0000
0101
0000
1000
0000
,
1100
0010
0110
1000
,
1001
0001
0101
1000
,
1010
0000
0000
0000
0002
0000
0000
2003
0000
0000
3020
0000
0130
0000
0001
0000
,
1000
0010
0100
0002
0000
1003
0020
0000
,
0130
0110
0000
0000
0000
0000
0000
0000
;

//---------------dance-single - ----------------
#NOTES:
     dance-single:
     :
     Hard:
     9:
     0.643,0.736,0.236,0.253,0.343,492.000,29.000,31.000,0.000,0.000:
0000
0000
0000
0000
,
0000
0000
0000
0000
,
0000
0000
0000
0000
,
0001
0000
0100
0000
0010
0000
1000
0100
0100
0000
0010
0000
1000
0000
0001
0000
,
0010
0000
1000
0000
0001
0000
0100
0000
0010
0100
0010
0100
0010
0020
0000
0000
,
0030
0000
0000
0000
1000
0000
0001
0000
0100
0000
0001
0000
1000
0100
1000
0000
,
0010
0000
0100
0000
0001
0000
0100
0000
0010
0000
1000
0000
0010
0100
0010
0000
,
0100
0000
0001
0000
1000
0000
0010
0000
0100
0000
0001
0000
1000
0100
1000
0000
,
0010
0000
0100
0000
0002
0000
1003
0020
0000
0130
0002
0000
1003
0000
0010
0000
,
0110
0000
0000
0000
1000
0000
0001
0000
0100
0000
0010
0000
1000
0001
1000
0000
,
0010
0000
0100
0000
0001
0000
0010
0000
0100
0000
1000
0000
0001
0100
0001
0000
,
0100
0000
1000
0000
0010
0000
0100
0000
0001
0000
0010
0000
0100
0010
0100
0000
,
0001
0000
0100
0000
2000
0000
3001
0200
0000
0301
2000
0000
3001
0000
0010
0000
,
0110
0000
0000
0000
1000
0100
1000
0200
0000
0000
0301
0100
0001
0200
0000
0000
,
0310
0100
0010
0200
0000
0000
1300
0100
1000
0200
0000
0000
0301
0000
0100
0000
,
0001
0000
1000
0010
0100
0001
0010
0100
,
1000
0100
0010
1000
0001
0100
0001
0010
,
0100
0000
1000
0000
0001
1000
0001
2000
0000
0000
3010
1000
0010
2000
0000
0000
,
3001
1000
0001
2000
0000
0000
3100
1000
0100
2000
0000
0000
3001
0000
0100
0000
,
0010
0000
1000
0001
0100
0010
1000
0100
,
0010
0001
1000
0010
0100
0001
0010
0100
,
1000
0100
0020
0100
0130
0000
1001
0000
,
0001
0002
1000
0103
0100
0000
0110
0000
,
1001
0001
0200
0010
0310
0000
1001
0000
,
1000
0020
0100
1030
0000
0001
0100
0010
,
0110
0100
2000
0001
3001
0000
0110
0000
,
0100
0002
1000
0103
0100
0000
0110
0000
,
0010
0000
0000
1000
0000
0000
0001
0000
0010
0000
0100
0000
1000
0000
0000
0100
0000
0000
0010
0000
1000
0000
0100
0000
,
0010
0100
0001
0010
0100
0010
0001
0100
,
1000
0100
0001
1000
0010
0100
0001
0010
,
0100
0000
0010
0000
0001
0000
0100
0000
0010
0000
1000
0100
1000
0000
0001
0000
,
1000
0010
0100
0001
0010
0100
0010
0100
,
0001
1000
0010
0100
0010
1000
0100
0010
,
0001
0100
0010
1000
1000
0010
0100
0100
,
0001
1000
1000
0010
0001
0100
0010
1000
,
0100
0000
0010
0000
0001
0100
0001
0100
0001
0000
0010
0000
1000
0000
0100
0000
,
0010
0000
0001
0000
0100
1000
0100
1000
0100
0000
0010
0000
1000
0001
1000
0001
,
1000
0001
1000
0001
2000
0000
0000
0000
0001
0000
0000
0000
3010
0000
0000
0000
,
1100
0000
0000
0000
1002
0000
0000
0000
0100
0000
0000
0000
0013
0010
0100
0100
,
0001
0001
1001
0000
0110
0000
0110
0000
1001
0000
0100
0000
0101
0000
0101
0000
,
1001
0000
0010
0000
1100
0000
1100
0000
1001
0000
0010
0000
0001
0001
0100
0100
,
0010
1000
1001
0000
0110
0000
0010
0010
1000
0000
0100
0100
0001
1000
0001
0100
,
0010
0000
1000
0000
0100
0000
0001
1000
0010
0000
0100
0001
1000
0001
0100
0010
,
1000
0000
1001
0000
0001
0000
0100
0010
1000
0000
0001
0100
0010
0000
1000
0100
,
0010
0000
0101
0000
0010
0000
1000
0100
0010
0000
0100
0010
1000
0100
0010
0001
,
0010
0100
1000
0100
0010
0000
0001
0000
1000
0000
0000
0000
0010
0000
1000
0000
,
0100
0010
0001
0100
0010
0000
1000
0100
,
0010
0000
0001
0010
0100
0010
0001
0100
,
0010
0000
1000
0010
0100
0010
1000
0100
,
0010
0000
1001
0001
1000
0001
1000
0001
,
1001
0000
0200
0000
0310
0010
0100
0100
,
0120
0000
0000
0000
1030
0000
0001
0000
0100
0000
0010
0000
1000
0001
1000
0000
,
0010
0000
0100
0000
0001
0000
0100
0000
0010
0000
1000
0000
0001
0100
0001
0000
,
1000
0000
0100
0000
0010
0000
0100
0000
1000
0000
0001
0000
0100
0010
0100
0000
,
0001
0000
0100
0000
0010
0000
1000
0002
0000
0103
0020
0000
1030
0000
0001
0000
,
1001
0000
0000
0000
0010
0000
1000
0000
0001
0000
0100
0000
0010
1000
0001
0000
,
0100
0000
0010
0000
1000
0000
0001
0000
0100
0000
0010
0000
1000
0100
0010
0000
,
0001
0000
0100
0000
0010
0000
1000
0000
0100
0000
0010
0000
0001
0010
0100
0000
,
1000
0000
0010
0000
0100
0000
0001
2000
0000
3010
0200
0000
0301
1000
0000
1000
,
0001
0000
0100
0000
0010
1000
0010
2000
0000
0000
3001
1000
0001
2000
0000
0000
,
3010
0100
0010
0100
0000
0000
0000
0000
0000
0000
0000
0000
0000
0000
0000
0000
;
