#TITLE:The Adventures of Lolo GAMMA;
#SUBTITLE:;
#ARTIST:Saskrotch;
#TITLETRANSLIT:;
#SUBTITLETRANSLIT:;
#ARTISTTRANSLIT:;
#CREDIT:;
#BANNER:lologamma.png;
#BACKGROUND:;
#LYRICSPATH:;
#CDTITLE:!cdtitle.png;
#MUSIC:The Adventures of Lolo.mp3;
#OFFSET:-0.020;
#SAMPLESTART:10.747;
#SAMPLELENGTH:12.000;
#SELECTABLE:YES;
#BPMS:0.000=337.500;
#STOPS:;
#BGCHANGES:;
// cache tags:
#FIRSTBEAT:0.000;
#LASTBEAT:127.000;
#SONGFILENAME:Songs/Hard Songs Megapack Volume 9/The Adventures of Lolo GAMMA/lolo.sm;
#HASMUSIC:1;
#HASBANNER:1;
#MUSICLENGTH:22.857;
// end cache tags

//---------------dance-single - ----------------
#NOTES:
     dance-single:
     :
     Challenge:
     18:
     1.000,1.000,1.000,0.000,1.000,332.000,212.000,0.000,0.000,0.000:
1100
0000
0000
0010
0000
0000
1100
0000
0000
1001
0000
0000
1010
0000
0100
1001
0000
0000
0110
0000
1000
0110
0000
1000
,
0011
0000
0000
0100
0000
0000
0011
0000
0000
1010
0000
0000
0011
0000
0100
1010
0000
0000
1100
0000
0010
1100
0000
0010
,
0101
0000
0000
0010
0000
0000
0101
0000
0000
1010
0000
0001
0110
0000
0001
1010
0000
0000
1100
0000
0001
1100
0000
0001
,
1010
0000
0000
0100
0000
0000
1010
0000
0000
0011
0000
0100
1010
0000
0100
0011
0000
0000
1001
0000
0100
1001
0000
0100
,
0011
0000
0000
0100
0000
0000
0011
0000
0000
1010
0000
0100
0011
0000
0100
1010
0000
0000
0110
0000
1000
0110
0000
1000
,
0011
0000
0000
0100
0000
0000
0011
0000
0000
1100
0000
0010
0101
0000
0010
1100
0000
0000
0101
0000
1000
0101
0000
1000
,
0110
0000
0000
0001
0000
0000
0110
0000
0000
1010
0000
0100
1001
0000
0100
1010
0000
0000
0010
0000
0001
1100
0000
0001
,
0110
0000
0000
0101
0000
0000
0011
0000
0000
1100
0000
0010
0101
0000
0010
1100
0000
0000
0101
0000
0010
0101
0000
0010
,
1100
0000
0000
0100
0000
0000
1100
0000
0000
0011
0000
0000
1100
0000
0000
0101
0000
0010
1100
0000
0000
1010
0000
0001
,
1100
0000
0000
0010
0000
0000
1100
0000
0000
1001
0000
0000
0100
0000
0000
1001
0000
0000
0101
0000
0010
0101
0010
0100
,
1001
0000
0000
0010
0000
0000
1100
0000
0000
0011
0000
0100
1010
0000
0100
0011
0000
0000
1010
0000
0001
1010
0000
0001
,
1100
0000
0000
0100
0000
0000
1100
0000
0000
1001
0000
0100
1010
0000
0100
1001
0000
0000
0110
0000
1000
0110
0000
1000
,
0101
0000
0000
0100
0000
0000
1001
0000
0000
0101
0000
0010
1001
0000
0000
0101
0000
0000
0011
0000
0000
0011
0000
0000
,
1010
0000
0000
0100
0000
0001
1010
0000
0000
1001
0000
0100
1010
0000
0000
1001
0000
0100
1010
0000
0000
1100
0000
0010
,
0101
0000
0000
0101
0000
0000
0011
0000
0000
1010
0000
0001
0110
0000
0000
0101
0000
0000
0110
0000
0000
0011
0000
0000
,
0000
0001
0010
0100
1000
0000
0101
0000
,
0011
0000
0000
0100
0000
0000
0011
0000
0000
1001
0000
0000
0011
0000
0000
1001
0000
0000
0110
0000
1000
0110
0001
0000
,
1100
0000
0000
1010
0000
0000
1100
0000
0000
0101
0000
0000
1010
0000
0000
0101
0000
0000
0011
0000
1000
0011
0100
0000
,
1010
0000
0000
0100
0000
0000
1010
0000
0000
0101
0000
0000
1010
0000
0000
0101
0000
0000
0011
0000
1000
0101
0010
0000
,
1100
0000
0000
1001
0000
0000
1100
0000
0000
1010
0000
0000
0001
0000
0000
1010
0000
0000
0101
0000
0010
0101
1000
0000
,
0110
0000
0000
1000
0000
0000
0110
0000
0000
0011
0000
1000
0110
0000
0000
0011
0000
1000
0110
0000
0000
0110
0000
0000
,
1100
0000
0000
0100
0000
0010
1100
0000
0000
0101
0000
0010
1100
0000
0000
0101
0000
0010
1100
0000
0000
1010
0000
0000
,
0110
0000
0000
0010
0000
0000
0110
0000
0000
0101
0000
0000
1001
0000
0000
0101
0000
0010
1100
0000
0000
0011
0000
0100
,
1010
0000
0000
1001
0000
0000
1100
0000
0000
0011
0000
0000
0100
0000
0000
1001
0000
0000
1000
0000
0001
0100
0010
1000
,
0110
0000
0000
0100
0000
0000
0110
0000
0000
1100
0000
0010
0101
0000
0010
1100
0000
0000
0101
0000
0010
0101
0000
1000
,
0011
0000
0000
0010
0000
0000
0011
0000
0000
1001
0000
0010
1100
0000
0000
1001
0000
0000
1010
0000
0100
1010
0000
0100
,
0011
0000
0000
1000
0000
0000
0101
0000
0000
1100
0000
0010
0101
0000
0000
1100
0000
0000
0110
0000
0000
0110
0000
0000
,
0011
0000
0000
0001
0000
0100
0011
0000
0000
1001
0000
0100
0011
0000
0000
1001
0000
0100
1010
0000
0000
1010
0000
0000
,
0101
0000
0000
0100
0000
0000
0101
0000
0000
1100
0000
0010
0101
0000
0000
1100
0000
0000
0101
0000
0000
0101
0000
0000
,
0110
0000
0000
0100
0000
0010
0101
0000
0000
1001
0000
0010
0101
0000
0000
1001
0000
0000
0011
0000
0000
0011
0000
0000
,
1010
0000
0000
1010
0000
0000
1100
0000
0000
0101
0000
0000
0011
0000
0000
1010
0000
0001
0110
0000
0000
1100
0000
0000
,
0000
1000
0010
0100
0001
0000
1010
0000
;

//---------------dance-single - ----------------
#NOTES:
     dance-single:
     :
     Edit:
     20:
     1.000,1.000,1.000,0.000,1.000,331.000,213.000,0.000,0.000,101.000:
1110
0000
0000
0010
0000
0000
1101
0000
0000
1001
0000
0000
1010
0000
0100
1011
0000
0000
0110
0000
1000
0110
0000
1000
,
0111
0000
0000
0100
0000
0000
1011
0000
0000
1010
0000
0000
0011
0000
0100
1011
0000
0000
1100
0000
0010
1100
0000
0001
,
1110
0000
0000
0010
0000
0000
0111
0000
0000
1010
0000
0001
0110
0000
0001
1110
0000
0000
1100
0000
0001
1100
0000
0001
,
1110
0000
0000
0100
0000
0000
1011
0000
0000
0011
0000
0100
1010
0000
0100
1011
0000
0000
1001
0000
0010
1001
0000
0010
,
1101
0000
0000
0100
0000
0000
0111
0000
0000
1010
0000
0100
0011
0000
0100
1011
0000
0000
0110
0000
1000
0110
0000
1000
,
0111
0000
0000
0100
0000
0000
1011
0000
0000
1100
0000
0010
0101
0000
0100
1011
0000
0000
0101
0000
0100
1001
0000
1000
,
0111
0000
0000
0001
0000
0000
1110
0000
0000
1010
0000
0100
1011
0000
0010
1001
0000
0000
0010
0000
0010
1100
0000
0001
,
1110
0000
0000
0101
0000
0000
0111
0000
0000
1100
0000
0010
1101
0000
0010
1100
0000
0000
0101
0000
0010
0101
0000
0001
,
1110
0000
0000
0100
0000
0000
1110
0000
0000
0011
0000
0000
0111
0000
0000
1001
0000
1000
0111
0000
0000
1001
0000
0010
,
1101
0000
0000
0010
0000
0000
1011
0000
0000
1101
0000
0000
0100
0000
0000
0111
0000
0000
0101
0000
0010
1100
0010
0100
,
1011
0000
0000
0010
0000
0000
1011
0000
0000
0011
0000
0100
1011
0000
1000
0011
0000
0000
1010
0000
0001
1010
0000
0001
,
1110
0000
0000
0100
0000
0000
1101
0000
0000
1001
0000
0100
1011
0000
0010
1101
0000
0000
0110
0000
1000
0110
0000
1000
,
0111
0000
0000
0100
0000
0000
1101
0000
0000
0101
0000
0010
1101
0000
0000
0101
0000
0000
1011
0000
0000
0011
0000
0000
,
1110
0000
0000
0100
0000
0100
1011
0000
0000
0101
0000
0100
1011
0000
0000
0101
0000
0100
1011
0000
0000
0101
0000
0100
,
1011
0000
0000
0101
0000
0000
0111
0000
0000
1010
0000
0001
1110
0000
0000
0101
0000
0000
1110
0000
0000
0011
0000
0000
,
0000
0001
0010
0100
1000
0000
0101
0000
,
1011
0000
0000
0100
0000
0000
0011
0000
0000
1101
0000
0000
0011
0000
0000
1001
0000
0000
0101
0000
0001
0110
0001
0000
,
1101
0000
0000
1011
0000
0000
1100
0000
0000
0111
0000
0000
1010
0000
0000
0101
0000
0000
0110
0000
0100
0011
0100
0000
,
1110
0000
0000
0100
0000
0000
1010
0000
0000
0111
0000
0000
1100
0000
0000
0101
0000
0000
0011
0000
0010
0101
0010
0000
,
1110
0000
0000
1101
0000
0000
1010
0000
0000
1110
0000
0000
0001
0000
0000
1010
0000
0000
1001
0000
1000
0101
1000
0000
,
1110
0000
0000
1000
0000
0000
1011
0000
0000
0011
0000
1000
0111
0000
0000
0011
0000
0100
1011
0000
0000
0110
0000
0000
,
1101
0000
0000
0010
0000
0010
1101
0000
0000
0110
0000
0010
1101
0000
0000
0110
0000
0010
1101
0000
0000
1010
0000
0000
,
0111
0000
0000
0010
0000
0000
0111
0000
0000
0101
0000
0000
1011
0000
0000
0101
0000
0100
1011
0000
0000
0011
0000
0010
,
1101
0000
0000
1001
0000
0000
1110
0000
0000
0111
0000
0000
0000
0000
0000
1011
0000
0000
1000
0000
0100
1000
0100
1000
,
0111
0000
0000
0100
0000
0000
0110
0000
0000
1100
0000
0010
0101
0000
0010
1100
0000
0000
0101
0000
0010
0101
0000
0100
,
1011
0000
0000
0010
0000
0000
0011
0000
0000
1001
0000
0001
1110
0000
0000
1001
0000
0000
1010
0000
0001
1010
0000
0100
,
1011
0000
0000
0110
0000
0000
0111
0000
0000
1100
0000
1000
0111
0000
0000
1100
0000
0000
1110
0000
0000
0110
0000
0000
,
0111
0000
0000
0100
0000
0100
1011
0000
0000
0101
0000
0100
1011
0000
0000
0101
0000
0100
1011
0000
0000
1100
0000
0000
,
0111
0000
0000
0010
0000
0000
1011
0000
0000
1010
0000
0010
1101
0000
0000
1010
0000
0000
1101
0000
0000
0101
0000
0000
,
0111
0000
0000
1000
0000
1000
0111
0000
0000
1010
0000
1000
0111
0000
0000
1001
0000
0000
1011
0000
0000
0011
0000
0000
,
1110
0000
0000
1010
0000
0000
1101
0000
0000
0101
0000
0000
1011
0000
0000
1010
0000
1000
0111
0000
0000
1011
0000
0000
,
0000
1000
0010
0100
0001
0000
1010
0000
;
