#TITLE:Forsaken Neon;
#SUBTITLE:;
#ARTIST:Dimrain47;
#TITLETRANSLIT:;
#SUBTITLETRANSLIT:;
#ARTISTTRANSLIT:;
#CREDIT:;
#BANNER:;
#BACKGROUND:;
#LYRICSPATH:;
#CDTITLE:;
#MUSIC:Dimrain47 - Forsaken Neon.ogg;
#OFFSET:-0.465;
#SAMPLESTART:42.572;
#SAMPLELENGTH:12.000;
#SELECTABLE:YES;
#BPMS:0.000=230.000,174.000=115.000,198.000=230.000;
#STOPS:;
#BGCHANGES:;
// cache tags:
#FIRSTBEAT:14.000;
#LASTBEAT:553.000;
#SONGFILENAME:Songs/SSSC PACK/[Madd Matt] - Forsaken Neon V2/Forsaken Neon.sm;
#HASMUSIC:1;
#HASBANNER:0;
#MUSICLENGTH:153.360;
// end cache tags

//---------------dance-single - Blank----------------
#NOTES:
     dance-single:
     Blank:
     Challenge:
     12:
     1.000,1.000,0.606,1.000,0.339,977.000,93.000,222.000,108.000,0.000:

0000
0000
0000
0000
,
0000
0000
0000
0000
,
0000
0000
0000
0000
,
0000
0000
0000
0000
1000
0100
1000
0010
,
1000
0001
1000
0010
0200
0001
0301
0200
,
0010
0310
1000
0100
0010
0001
0100
0001
,
1000
0001
0010
0001
2000
0100
3100
2000
,
0001
3001
0100
0000
1001
0000
1010
0000
,
0110
0101
1001
1100
,
0011
0000
1MM1
1000
0100
0000
0011
0000
,
1001
0000
1M1M
0010
0100
0000
M1M1
0100
,
0001
0000
0100
0010
0100
0001
0100
0001
1000
0000
0000
0000
2020
0000
3030
0000
,
2002
3003
0202
0303
M12M
0130
0001
1000
,
0100
0000
0010
0000
0001
0000
1000
0100
1000
0000
0000
0000
0022
0000
0033
0000
,
0220
0330
2200
3300
2MM1
3001
0100
0010
,
1000
0000
0100
0010
0001
0000
1000
0000
0010
0000
0000
0000
0202
0000
0303
0000
,
2002
3003
2200
3300
MM21
0031
1000
0100
,
0010
0000
0001
0000
1000
0000
0010
0100
0002
0000
1003
0000
0002
0000
0013
0000
,
0002
0103
0020
2030
3002
0023
0230
2300
,
3200
0320
0032
0203
0310
1000
0001
0010
,
0100
1000
0100
1000
0001
1000
0010
0100
0001
0000
1000
0000
0010
0000
0100
0000
,
0001
1000
0100
1000
0010
1000
0100
0010
,
0001
1000
0001
1000
0010
0100
0001
0100
0010
0000
1000
0000
0100
0000
0010
0001
,
0010
0100
1000
0000
0001
0000
0100
0000
0001
1000
0001
1000
0001
0100
0001
1000
,
0001
0010
0001
1000
0100
1000
0100
0010
0001
0000
0001
0000
1000
0000
0010
0000
,
0010
0000
0100
0000
0001
0000
0001
0000
1000
0100
0010
0100
0010
0000
0001
0100
,
0010
0100
0010
0000
1000
0100
0010
0001
1000
0001
1000
0100
0010
0001
0010
0100
,
1000
0001
1000
0100
1000
0001
1000
0001
0100
0000
0000
0000
2200
0000
3300
0000
,
2002
3003
0202
0303
0001
2000
0100
3100
,
0020
0100
0130
0010
0001
1000
2002
3003
,
2020
3030
0220
0330
0100
0002
1000
1003
,
0100
0010
0001
1000
0001
0000
2020
3030
,
0220
0330
0202
0303
1000
0200
1300
0010
,
0000
0100
0001
1000
0100
0010
0001
1000
,
0010
0000
1000
0000
0001
0000
0100
0000
0001
0000
1000
0100
1000
0000
0001
0000
,
1000
0000
0000
0100
0000
0000
1000
0000
0000
0000
0000
0000
0001
0000
0000
0000
0000
0000
1000
0000
0000
0000
0000
0000
0001
0000
0000
0000
0010
0000
0000
0000
0100
0000
0000
0000
0010
0000
0000
0000
0001
0000
0000
0000
1000
0000
0000
0000
,
0001
0000
0010
0000
0100
0000
0010
0000
0001
0000
1000
0000
0010
0000
0000
0100
0000
0000
0001
0000
0000
1000
0000
0000
,
0001
0100
0001
1000
0010
1000
0100
0010
,
0001
1000
0001
0010
0100
0010
0001
1000
,
0010
1000
0100
0010
0001
0100
0001
0010
,
0100
0010
0001
1000
0010
0010
0100
0100
,
0001
0000
0001
0000
0100
0000
0010
1000
0010
0000
0100
0000
0001
0000
1000
0000
,
0100
0000
0010
0000
0001
0000
0010
0100
0010
0000
0001
0000
1000
0000
0010
0000
,
0100
0001
0100
0001
1000
0010
1000
0001
0020
0000
MM00
0000
0000
0000
M00M
0000
,
0000
0M0M
0000
MM00
0000
0M0M
0000
M00M
,
0000
0000
0M0M
0000
0000
0000
MM00
0030
0001
0000
0001
0010
0100
0000
0001
0010
,
0100
1000
0100
0010
0001
0000
0100
0010
1000
0000
0001
0000
0010
0100
0010
0001
,
1000
0010
0100
0001
0010
0100
1000
0100
0010
0001
1000
0100
0010
0000
0001
0100
,
0010
0000
1000
0000
0010
0100
0001
1000
0010
0100
0001
0010
0100
1000
0100
0000
,
0010
0001
0010
0100
1000
0001
1000
0100
0020
0000
0000
0030
0101
0000
0000
0000
,
0020
0000
0000
0030
0101
0000
0000
0000
0020
0000
0000
0030
1100
0000
0000
0000
,
0020
0000
0000
0030
1100
0000
0000
0000
0002
0000
0000
0003
1010
0000
0000
0000
,
0200
0000
0000
0300
2002
0000
0000
3003
2200
0000
0000
3300
0202
0000
0000
0303
,
0022
0000
0000
0033
2020
0000
0000
3030
0200
0000
0000
0300
1001
0000
0000
0000
,
0020
0000
0000
0030
1000
0000
0100
0000
0020
0000
0000
0030
1001
0000
0000
0000
,
0200
0000
0000
0300
0011
0000
0000
0000
0200
0000
0000
0300
1010
0000
0000
0000
,
0200
0000
0000
0300
1010
0000
0000
0000
0002
0000
0000
0003
1000
0000
0100
0000
,
1000
0010
1000
0100
M02M
0000
0100
0000
,
0001
0000
0100
0030
2000
0000
0010
0000
,
0001
0000
0010
3000
00M2
0000
0100
0003
,
2M00
0000
0010
3000
00M2
0000
0010
0003
,
M101
101M
0M12
2003
,
3020
0230
0302
2003
,
3200
0320
0M32
0203
,
23M0
0000
0000
0000
3020
0000
0000
0000
0M32
0000
0000
0000
0203
0000
0000
0300
,
101M
0000
11M0
0000
M001
0010
0100
1000
,
0010
0100
0001
0010
0100
0010
0001
0100
,
0010
1000
0100
1000
101M
0000
0100
0000
,
10M1
0010
110M
0100
,
10M1
M011
2M10
3200
,
2300
0000
3100
0010
0002
0000
0023
0000
,
0230
0000
2300
0000
30M1
0000
0100
0010
,
100M
0000
0001
0100
M010
0000
1M00
0001
,
M010
0100
10M0
0001
M2M0
0000
M00M
0000
,
00MM
M0M0
M00M
00MM
,
M00M
0000
M0M0
0000
0001
0301
0010
0100
,
1000
0001
0010
0001
2000
0001
3001
0020
,
0100
0130
0010
0200
1000
1300
0010
0100
,
0010
1000
0001
0100
0020
1000
1030
0020
,
0100
0130
0010
1000
2002
3003
2200
3300
,
2002
3003
0022
0033
2MM1
3001
0010
0100
,
1000
0000
0010
0000
1000
0000
0001
0100
0001
0000
0000
0000
2020
0000
3030
0000
,
0220
0330
2002
3003
M2M1
0301
1000
0010
,
1000
0000
0001
0100
0010
0000
1000
0000
0001
0000
0000
0000
2020
0000
3030
0000
,
0220
0330
2002
3003
M2M1
0301
1000
0001
,
0100
0000
0001
0000
1000
0000
0100
0010
0002
0000
0103
0000
0002
0000
0013
0000
,
0002
0103
0002
0023
0230
2300
3002
0203
,
0320
2030
3200
0320
0032
0013
0100
1000
,
0001
0010
0100
1000
0100
0010
0100
1000
,
0001
0000
0010
0000
0100
0000
1000
0000
0001
0000
0100
0010
0100
0000
0001
0000
,
1000
0000
0100
0000
0010
0000
0001
0000
1000
0000
0010
0100
0010
0000
1000
0000
,
0001
1000
0100
0010
0001
0100
0010
1000
,
0100
1000
0010
0100
0001
0100
0010
1000
,
0100
0010
0001
0010
0100
0010
0001
1000
,
0010
0100
0010
1000
0100
0010
0100
1000
,
0001
0000
1000
0000
0100
1000
0001
1000
0010
0000
0000
0000
0220
0000
0330
0000
,
0202
0303
2002
3003
1000
0020
1000
1030
,
0200
0010
0310
0001
0100
0010
2020
3030
,
0220
0330
0202
0303
1000
0002
0010
0013
,
0100
0010
0001
0100
0010
0000
2200
3300
,
2002
3003
0220
0330
0001
2000
3100
0010
,
0000
0001
0100
0010
1000
0001
1000
0001
,
0010
0000
0100
0000
0010
0000
0001
0000
1000
0000
0010
0100
0010
0000
1000
0000
,
0010
0100
0010
0000
1000
0000
0001
0000
1000
0000
0100
0000
0010
0000
0001
0000
,
0100
0001
1000
0020
M100
0130
0020
100M
,
1030
0001
0010
0100
1000
0001
0010
0001
,
0100
0001
1000
0200
10M0
1300
0200
M010
,
0310
0001
1000
0010
1000
0100
1000
0010
,
0100
0010
1000
0002
01M0
0103
0002
M010
,
0013
0001
0100
0010
1000
0100
1000
0001
,
0100
0001
0010
0100
1000
1000
0010
0010
,
0100
0000
0100
0000
0001
0000
0100
0000
2002
3003
0010
0000
1000
0000
0001
0000
,
1000
0100
0010
0002
0M10
0013
0200
100M
,
1300
0100
0010
0001
0010
0100
1000
0001
,
1000
0010
1000
0002
01M0
0103
0020
M100
,
0130
0000
0010
0000
1000
0000
0010
0000
2002
3003
0100
0000
0010
0000
1000
0000
,
0001
0010
0001
2000
01M0
3100
0020
010M
,
0130
1000
0001
0100
0010
0100
0001
0010
,
0001
0100
0001
0020
M100
0130
2000
010M
,
3100
1000
0100
0010
0022
0033
0202
0303
,
0022
0033
0202
0303
1000
0002
0100
0103
,
0020
1000
1030
0001
0100
0010
2020
3030
,
0220
0330
2002
3003
1000
0200
1000
1300
,
0001
0010
0100
1000
0010
0000
0202
0303
,
0220
0330
2200
3300
0001
0020
0130
0010
,
0000
0100
1000
0010
1000
0001
0100
0001
,
0010
0000
0100
0000
0010
0000
0001
0000
1000
0000
0010
0100
0010
0000
1000
0000
,
0010
0100
0010
0000
1000
0000
0001
0000
1000
0000
0010
0000
0100
0000
0001
0000
,
0010
0100
1000
0002
0100
0103
0020
1000
,
1030
0100
1000
0001
1000
0100
0010
0001
,
0100
0010
1000
0020
0100
0130
0020
1000
,
1030
0100
1000
0010
0100
0001
0010
0001
,
0100
0010
1000
0100
0010
0001
0010
0100
,
1000
0000
0001
0000
0010
0000
0001
0000
0100
0001
0100
0001
1000
0001
0100
0001
,
1000
0001
1000
0100
1000
0100
1000
0001
0100
0001
1000
0010
1000
0001
0010
0001
,
1000
0010
0100
0010
1000
0001
0010
0100
2000
0000
00MM
0000
0000
0000
0M0M
0000
,
0000
0MM0
0000
00MM
0000
0M0M
0000
0MM0
,
0000
00MM
0000
0M0M
0000
0MM0
3000
0000
;

//---------------dance-single - Expert----------------
#NOTES:
     dance-single:
     Expert:
     Hard:
     11:
     1.000,1.000,0.587,0.652,0.186,928.000,90.000,100.000,33.000,0.000:





0000
0000
0000
0000
,
0000
0000
0000
0000
,
0000
0000
0000
0000
,
0000
0000
0000
0000
1000
0100
0010
0001
,
0010
0100
1000
0020
0100
0130
0002
0010
,
0013
0100
1000
0100
0010
0100
1000
0010
,
0100
0001
0010
0200
1000
1300
0002
0010
,
0013
0100
1000
0000
0101
0000
1001
0000
,
1100
0011
0110
1100
,
0101
0000
1001
0001
0100
0000
0110
0000
,
0101
0000
1001
1000
0100
0000
0011
0001
,
1000
0000
0010
0000
1000
0100
0010
0001
1000
0000
0000
0000
1010
0000
0000
0000
,
1001
0000
0101
0000
1001
1000
0010
1000
,
0100
0010
0001
0000
1001
0000
1010
0000
,
0110
0000
1001
0000
0011
0001
1000
0100
,
1000
0000
0001
0010
0100
0000
1000
0000
0001
0000
0000
0000
1100
0000
0000
0000
,
0110
0000
1001
0000
0101
0100
0001
0100
,
0010
1000
0100
0010
0002
1003
0002
0103
,
0002
0013
0002
0203
0320
2030
3002
0023
,
0230
2300
3020
0230
0302
1003
0100
1000
,
0010
0100
0010
0000
1000
0000
0001
0010
0001
0000
0100
0000
0010
0000
0100
0000
,
0001
1000
0010
1000
0100
1000
0010
1000
,
0100
0010
0100
0000
1000
0000
0010
0000
1000
0000
0100
0000
1000
0000
0001
0000
,
0100
0010
0100
0000
0001
0000
1000
0000
0010
0100
0010
0000
1000
0000
0001
0000
,
0010
0100
0010
0000
0001
0000
1000
0000
0100
0000
0100
0000
2000
0000
3010
0000
,
0010
0000
0200
0000
0301
0000
0001
0000
0100
0010
0100
0000
0001
0000
0010
0100
,
0010
0000
0001
0000
0100
0010
0100
0000
0001
0000
1000
0000
0100
0000
0010
0000
,
0001
0010
0100
1000
0010
0000
0110
0000
,
0101
0000
1001
0000
1000
0200
1000
1300
,
0020
0100
0130
0001
0010
0100
0110
0000
,
1100
0000
1001
0000
1000
0002
0100
0103
,
0010
0100
0001
0010
0110
0000
1010
0000
,
0101
0000
1001
0000
0001
2000
3010
0100
,
0000
0001
0010
0100
1000
0001
1000
0001
,
0100
0000
0010
0000
0100
0000
0001
0000
1000
0000
0100
0010
0100
0000
1000
0000
,
0100
0000
0000
0010
0000
0000
0100
0000
0000
0000
0000
0000
0010
0000
0000
0000
0000
0000
0100
0000
0000
0000
0000
0000
1000
0000
0000
0000
0100
0000
0000
0000
0010
0000
0000
0000
0100
0000
0000
0000
1000
0000
0000
0000
0001
0000
0000
0000
,
1000
0000
0100
0000
0010
0000
0100
0000
1000
0000
0001
0000
0100
0000
0000
0010
0000
0000
1000
0000
0000
0001
0000
0000
,
0100
0010
1000
0100
0010
0100
1000
0010
,
0100
0010
1000
0100
0010
0001
1000
0100
,
0010
0001
0010
0100
1000
0100
0010
0100
,
1000
0010
1000
0001
0010
0010
0100
0100
,
1000
1000
0001
0001
0010
0100
0010
0001
,
0100
0010
1000
0100
1000
0001
0010
0100
,
0010
0000
0001
0000
1000
0100
0010
0002
2000
0000
0000
0000
0MM0
0000
0000
0000
,
0000
0MM0
0000
0MM0
,
0000
0000
0000
0000
3003
0000
0000
0000
1000
0000
0010
0100
0001
0000
0010
0100
,
1000
0100
0010
0001
0100
0000
0010
0100
0010
0000
1000
0000
0100
0010
0100
1000
,
0010
0100
0010
1000
0100
0010
0001
0010
0100
1000
0001
0010
0100
0000
1000
0010
,
0100
0000
0001
0000
0100
0010
1000
0001
0100
0010
1000
0100
0010
0001
0010
0000
,
0100
1000
0100
0010
0001
0000
0100
0010
0110
0000
0000
0000
0001
0000
0000
0000
,
1000
0100
0101
1000
,
0100
0010
1001
0100
,
0101
0010
0110
0101
,
1010
0110
1001
0100
,
1000
0000
0001
0010
0100
0000
1001
0000
,
0101
1000
0101
0010
,
0110
0000
0100
0000
0010
0000
1000
0100
,
1000
0010
1000
0100
2000
0000
0100
0000
,
0010
0000
0100
3000
0002
0000
0100
0000
,
0010
0000
0100
0003
2000
0000
0010
3000
,
0002
0000
0100
0003
2000
0000
0100
3000
,
1010
0101
2000
3200
,
0320
0032
2003
3020
,
0230
0302
2003
3020
,
0032
0000
0000
0000
0203
0000
0000
0000
2300
0000
0000
0000
3020
0000
0000
0030
,
0101
0000
0011
0000
1000
0100
0010
0001
,
0100
0010
1000
0100
0010
0100
1000
0010
,
0100
0001
0010
0001
0101
0000
0010
0000
,
1001
0100
0011
0010
,
1001
0110
0002
0023
,
0032
0000
0013
0100
2000
0000
3200
0000
,
0320
0000
0032
0000
1003
0000
0010
0100
,
0001
0000
1000
0010
0100
0000
0001
1000
,
0100
0010
0001
1000
0020
0000
MM0M
0000
,
MM0M
MM0M
MM0M
MM0M
,
MM0M
0000
MM0M
0000
1000
1030
0100
0010
,
0001
1000
0100
1000
0002
0100
0103
0020
,
1000
1030
0100
0020
0001
0031
0100
0010
,
0100
0001
1000
0010
0200
0001
0301
0200
,
0010
0310
0100
0001
1001
0000
0011
0000
,
1001
0000
1100
0000
1001
1000
0100
0010
,
0001
0100
0001
0000
1001
0000
0101
0000
,
0110
0000
1001
0000
1010
1000
0001
0100
,
0001
0000
1000
0010
0100
0000
0001
0000
1000
0000
0000
0000
0101
0000
0000
0000
,
0110
0000
1001
0000
1010
0010
1000
0100
,
0010
0001
0010
0100
2000
3010
2000
3100
,
2000
3010
2000
3200
0320
0032
2003
3020
,
0230
0302
0023
0230
2300
3100
0010
0001
,
1000
0100
0010
0001
0010
0100
0010
0001
,
1000
0000
0100
0000
0010
0000
0001
0000
0100
0000
0010
0100
0010
0000
0100
0000
,
0001
0000
0010
0000
0100
0000
1000
0000
0010
0000
0100
0010
0100
0000
0010
0000
,
1000
0001
0010
0100
1000
0010
0100
0001
,
0010
0001
0100
0010
1000
0010
0100
0001
,
0010
0100
1000
0100
0010
0100
1000
0001
,
0100
0010
0100
0001
0010
0100
0010
0001
,
0100
0000
0010
0000
1000
0100
0010
0001
1000
0000
0000
0000
0110
0000
0000
0000
,
1100
0000
1001
0000
0001
0200
0001
0301
,
0020
0100
0130
1000
0010
0100
0101
0000
,
0110
0000
1010
0000
0001
2000
0100
3100
,
0010
0100
1000
0010
0100
0000
0011
0000
,
1001
0000
0110
0000
1000
0002
0013
0100
,
0000
1000
0010
0100
0001
1000
0001
1000
,
0100
0000
0010
0000
0100
0000
1000
0000
0001
0000
0100
0010
0100
0000
0001
0000
,
0100
0010
0100
0000
0001
0000
0010
0000
0001
0000
0010
0000
0100
0000
1000
0000
,
0100
1000
0001
0200
0010
0310
2000
0001
,
3001
0010
0001
0010
0100
0010
0001
0010
,
0100
1000
0010
0200
0001
0301
2000
0100
,
3100
0010
0001
0100
0001
0010
0001
0100
,
0010
0100
0001
2000
0010
3010
2000
0100
,
3100
1000
0010
0100
0001
0010
0001
1000
,
0010
1000
0100
0010
0001
0001
0100
0100
,
0010
0010
1000
0010
1000
0001
0010
0100
,
0010
0001
1000
0020
0100
0130
0002
1000
,
1003
0010
0100
0010
1000
0010
0100
0001
,
0010
0100
1000
0002
0010
0013
0200
1000
,
1300
0100
0010
0001
0100
0010
0100
0001
,
0100
0010
1000
0002
0010
0013
0200
0010
,
0310
0001
1000
0010
0100
0010
1000
0100
,
1000
0010
1000
0200
0010
0310
0002
0100
,
0103
0001
0010
0100
1100
0000
1010
0000
,
1100
0000
1010
0000
0001
2000
0010
3010
,
0200
0001
0301
1000
0010
0100
0110
0000
,
0101
0000
1100
0000
0001
0020
0001
0031
,
1000
0100
1000
0010
0100
0000
1010
0000
,
0110
0000
0011
0000
1000
0200
0310
0100
,
0000
1000
0010
0100
0001
0100
0010
1000
,
0100
0000
0010
0000
0100
0000
1000
0000
0001
0000
0100
0010
0100
0000
0001
0000
,
0100
0010
0100
0000
0001
0000
1000
0000
0001
0000
0100
0000
0010
0000
1000
0000
,
0100
0010
0001
2000
0010
3010
0200
0001
,
0301
0010
0001
1000
0001
0010
0100
1000
,
0010
0100
0001
0200
0010
0310
0200
0001
,
0301
0010
0001
0100
0010
1000
0100
1000
,
0010
0100
0001
0010
0001
0100
0001
0010
,
0100
1000
0001
1000
0100
0010
0001
1000
,
0100
0010
0001
0100
0010
1000
0001
0100
,
0010
0000
1000
0000
0001
0010
0100
2000
0002
0000
0000
0000
0MM0
0000
0000
0000
,
0000
0000
0000
0MM0
,
0000
0000
0000
0MM0
,
0000
3003
0000
0000
;
