#TITLE:Speedfucker;
#SUBTITLE:;
#ARTIST:Goreshit;
#TITLETRANSLIT:;
#SUBTITLETRANSLIT:;
#ARTISTTRANSLIT:;
#CREDIT:;
#BANNER:speedfucker bn.png;
#BACKGROUND:speedfucker bg.png;
#LYRICSPATH:;
#CDTITLE:;
#MUSIC:Speedfucker.ogg;
#OFFSET:-0.051;
#SAMPLESTART:44.299;
#SAMPLELENGTH:17.820;
#SELECTABLE:YES;
#DISPLAYBPM:217.000;
#BPMS:0.000=217.000;
#STOPS:;
#BGCHANGES:;
// cache tags:
#FIRSTBEAT:32.000;
#LASTBEAT:360.000;
#SONGFILENAME:Songs/SPEEEDCOOOORE 3/Speedfucker - [Tyler]/Speedfucker.sm;
#HASMUSIC:1;
#HASBANNER:1;
#MUSICLENGTH:100.728;
// end cache tags

//---------------dance-single - T. Moore----------------
#NOTES:
     dance-single:
     T. Moore:
     Challenge:
     15:
     1.000,1.000,0.010,0.020,1.000,937.000,1.000,2.000,0.000,0.000:
0000
0000
0000
0000
,
0000
0000
0000
0000
,
0000
0000
0000
0000
,
0000
0000
0000
0000
,
0000
0000
0000
0000
,
0000
0000
0000
0000
,
0000
0000
0000
0000
,
0000
0000
0000
0000
,
1000
0000
0100
0000
0010
0000
0001
0000
1000
0000
0001
0000
0010
0000
0100
1000
,
0001
0000
0100
0000
0010
0000
1000
0000
0001
0000
1000
0000
0010
0100
0001
1000
,
0100
0000
0010
0000
0001
0000
1000
0000
0100
0000
1000
0000
0001
0000
1000
0010
,
0100
0000
0001
0000
1000
0000
0001
0000
0010
0000
0100
1000
0001
0000
0100
0010
,
1000
0000
0001
0000
0010
0000
0100
0000
1000
0000
0001
0000
0100
0000
0010
1000
,
0001
0000
1000
0000
0100
0000
0010
0000
0001
0000
0010
0000
0100
1000
0100
1000
,
0001
0000
0100
0000
0001
0000
1000
0000
0010
0000
1000
0000
0100
0000
0010
0001
,
1000
0000
0000
0000
0000
0000
0000
0000
0000
0000
0000
0000
0000
0000
0000
0000
0000
0000
0000
0000
0000
0000
0000
0000
0001
0000
0000
0000
0000
0000
0000
0000
0000
0000
0000
0000
0000
0000
0000
0000
0000
0000
0000
0000
0000
0000
0000
0000
0100
0000
0000
0000
0000
0000
0000
0000
0000
0000
0000
0000
0000
0000
0000
0000
0000
0000
0000
0000
0000
0000
0000
0000
0010
0000
0000
0000
0000
0000
0000
0000
0000
0000
0000
0000
0000
0000
0000
0000
0000
0000
0000
0000
0000
0000
0000
0000
1000
0000
0000
0000
0000
0000
0000
0000
0000
0100
0000
0000
0000
0000
0000
0000
0000
0000
0000
0010
0000
0000
0000
0000
0000
0000
0000
0000
0000
0001
0000
0000
0000
0000
0000
0000
0000
0000
1000
0000
0000
0000
0000
0000
0000
0000
0000
0000
0010
0000
0000
0000
0000
0000
0000
0000
0000
0000
1000
0000
0000
0000
0000
0000
0000
0000
0000
0001
0000
0000
0000
0000
0000
0000
0000
0000
0000
0010
0000
0000
0000
0000
0000
0000
0000
0000
0100
0000
0000
0000
0000
0000
0000
0000
0000
0000
,
1000
0000
0001
0000
1000
0000
0010
0100
0001
0000
1000
0000
0100
0000
0010
0001
,
0100
0000
0010
0000
1000
0000
0001
0010
0100
0000
1000
0000
0001
0100
0010
1000
,
0001
0000
1000
0000
0100
0000
0010
0001
1000
0000
0001
0000
0100
0000
0010
1000
,
0001
0000
0010
0000
0100
0000
1000
0001
0100
0000
0010
1000
0100
0000
0010
0001
,
0100
0000
0010
0000
1000
0000
0001
0010
0100
0000
1000
0000
0001
0000
0100
0001
,
0010
0000
0100
0000
1000
0000
0001
1000
0010
0000
0100
0000
0001
1000
0001
0010
,
0100
0000
1000
0000
0001
0000
0100
0010
1000
0000
0001
0000
0010
0000
0100
1000
,
0010
0000
0000
0000
0000
0000
0000
0000
0000
0000
0000
0000
0000
0000
0000
0000
0000
0000
0000
0000
0000
0000
0000
0000
0100
0000
0000
0000
0000
0000
0000
0000
0000
0000
0000
0000
0000
0000
0000
0000
0000
0000
0000
0000
0000
0000
0000
0000
0001
0000
0000
0000
0000
0000
0000
0000
0000
0000
0000
0000
0000
0000
0000
0000
0000
0000
0000
0000
0000
0000
0000
0000
1000
0000
0000
0000
0000
0000
0000
0000
0000
0000
0000
0000
0000
0000
0000
0000
0000
0000
0000
0000
0000
0000
0000
0000
0001
0000
0000
0000
0000
0000
0000
0000
0000
0010
0000
0000
0000
0000
0000
0000
0000
0000
0000
0100
0000
0000
0000
0000
0000
0000
0000
0000
0000
1000
0000
0000
0000
0000
0000
0000
0000
0000
0001
0000
0000
0000
0000
0000
0000
0000
0000
0000
0100
0000
0000
0000
0000
0000
0000
0000
0000
0000
0001
0000
0000
0000
0000
0000
0000
0000
0000
1000
0000
0000
0000
0000
0000
0000
0000
0000
0000
0100
0000
0000
0000
0000
0000
0000
0000
0000
0010
0000
0000
0000
0000
0000
0000
0000
0000
0000
,
0001
0010
0100
0010
0001
0010
0100
0010
,
0001
0000
1000
0000
0100
0000
1000
0000
0001
0000
1000
0000
0010
0100
0010
0100
,
0001
1000
0001
0100
0001
1000
0001
0100
,
0010
0000
1000
0000
0001
0000
1000
0000
0010
0000
1000
0001
0010
0000
0100
0000
,
1000
0001
0100
0001
1000
0001
0100
0001
,
0010
0000
0100
0000
1000
0000
0100
0000
0010
0000
0100
0000
1000
0001
1000
0001
,
0100
0001
1000
0001
0100
0001
1000
0001
,
0010
0000
0100
0000
1000
0000
0100
0000
0020
0030
0001
0000
0020
0030
0001
0010
,
0100
0000
1000
0000
0001
0000
1000
0001
0100
0000
0010
0000
1000
0001
1000
0100
,
0010
0000
0001
0000
1000
0000
0001
0010
0100
0000
1000
0000
0001
1000
0001
1000
,
0010
0000
0100
0000
0001
0000
0100
0010
1000
0000
0001
0000
1000
0001
0010
0100
,
1000
0000
0001
0000
0100
0000
0001
1000
0100
0000
0010
0001
1000
0000
1000
0000
,
0010
0000
0100
0000
0001
0000
0100
0010
1000
0000
0001
0000
1000
0001
0010
0100
,
1000
0000
0001
0000
0100
0000
0001
1000
0100
0000
0010
0000
0001
1000
0001
1000
,
0010
0000
0100
0000
0001
0000
1000
0001
0010
0000
0100
0000
1000
0001
1000
0001
,
0100
0000
0000
0000
0000
0000
0000
0000
0000
0000
0000
0000
0000
0000
0000
0000
0000
0000
0000
0000
0000
0000
0000
0000
0100
0000
0000
0000
0000
0000
0000
0000
0000
0000
0000
0000
0000
0000
0000
0000
0000
0000
0000
0000
0000
0000
0000
0000
0100
0000
0000
0000
0000
0000
0000
0000
0000
0000
0000
0000
0000
0000
0000
0000
0000
0000
0000
0000
0000
0000
0000
0000
0010
0000
0000
0000
0000
0000
0000
0000
0000
0000
0000
0000
1000
0000
0000
0000
0000
0000
0000
0000
0000
0000
0000
0000
0001
0000
0000
0000
0000
0000
0000
0000
0000
0000
0000
0000
0000
0000
0000
0000
0000
0000
0000
0000
0000
0000
0000
0000
0001
0000
0000
0000
0000
0000
0000
0000
0000
0000
0000
0000
0000
0000
0000
0000
0000
0000
0000
0000
0000
0000
0000
0000
1000
0000
0000
0000
0000
0000
0000
0000
0000
0100
0000
0000
0000
0000
0000
0000
0000
0000
0000
0010
0000
0000
0000
0000
0000
0000
0000
0000
0000
0001
0000
0000
0000
0000
0000
0000
0000
0000
1000
0000
0000
0000
0000
0000
0000
0000
0000
0000
,
0010
0000
0100
0000
0001
0000
0010
0100
1000
0000
0001
0000
0100
0000
0010
1000
,
0001
0000
0010
0000
0100
0000
1000
0001
0100
0000
0010
0000
1000
0001
1000
0001
,
0010
0000
0100
0000
1000
0000
0001
0100
0010
0000
1000
0000
0001
0000
0010
0100
,
1000
0000
0010
0000
0100
0000
0001
1000
0100
0000
1000
0010
0100
0000
0001
0010
,
0100
0000
1000
0000
0100
0000
0010
0001
0100
0000
0010
0000
1000
0000
0001
0010
,
0100
0000
1000
0000
0001
0000
0100
0010
1000
0000
0001
0000
0010
0100
1000
0001
,
0100
0000
0010
0000
1000
0000
0001
0010
0100
0000
1000
0000
0001
0000
1000
0010
,
0100
0000
0000
0000
0000
0000
0000
0000
0000
0000
0000
0000
0000
0000
0000
0000
0000
0000
0000
0000
0000
0000
0000
0000
0001
0000
0000
0000
0000
0000
0000
0000
0000
0000
0000
0000
0000
0000
0000
0000
0000
0000
0000
0000
0000
0000
0000
0000
1000
0000
0000
0000
0000
0000
0000
0000
0000
0000
0000
0000
0000
0000
0000
0000
0000
0000
0000
0000
0000
0000
0000
0000
0100
0000
0000
0000
0000
0000
0000
0000
0000
0000
0000
0000
0000
0000
0000
0000
0000
0000
0000
0000
0000
0000
0000
0000
0010
0000
0000
0000
0000
0000
0000
0000
0000
0100
0000
0000
0000
0000
0000
0000
0000
0000
0000
1000
0000
0000
0000
0000
0000
0000
0000
0000
0000
0001
0000
0000
0000
0000
0000
0000
0000
0000
0100
0000
0000
0000
0000
0000
0000
0000
0000
0000
0010
0000
0000
0000
0000
0000
0000
0000
0000
0000
1000
0000
0000
0000
0000
0000
0000
0000
0000
0001
0000
0000
0000
0000
0000
0000
0000
0000
0000
0010
0000
0000
0000
0000
0000
0000
0000
0000
0100
0000
0000
0000
0000
0000
0000
0000
0000
0000
,
1000
0000
0001
0000
0100
0000
0010
1000
0100
0000
0010
0000
0001
0000
1000
0010
,
0100
0000
0001
0000
1000
0000
0100
0010
0001
0000
1000
0000
0010
0100
0001
1000
,
0100
0000
0010
0000
0001
0000
1000
0010
0100
0000
0001
0000
1000
0000
0100
0010
,
0001
0000
1000
0000
0010
0000
0100
0001
1000
0000
0100
0010
0001
0000
0100
0010
,
1000
0000
0001
0000
0010
0000
0100
1000
0010
0000
0100
0000
0001
0000
1000
0100
,
0010
0000
0001
0000
1000
0000
0010
0100
0001
0000
1000
0000
0100
0010
0100
0010
,
0001
0000
1000
0000
0010
0000
0100
0001
1000
0000
0100
0000
0010
0000
0001
1000
,
0010
0000
0000
0000
0000
0000
0000
0000
0000
0000
0000
0000
0000
0000
0000
0000
0000
0000
0000
0000
0000
0000
0000
0000
0100
0000
0000
0000
0000
0000
0000
0000
0000
0000
0000
0000
0000
0000
0000
0000
0000
0000
0000
0000
0000
0000
0000
0000
0001
0000
0000
0000
0000
0000
0000
0000
0000
0000
0000
0000
0000
0000
0000
0000
0000
0000
0000
0000
0000
0000
0000
0000
1000
0000
0000
0000
0000
0000
0000
0000
0000
0000
0000
0000
0000
0000
0000
0000
0000
0000
0000
0000
0000
0000
0000
0000
0001
0000
0000
0000
0000
0000
0000
0000
0000
0010
0000
0000
0000
0000
0000
0000
0000
0000
0000
0100
0000
0000
0000
0000
0000
0000
0000
0000
0000
1000
0000
0000
0000
0000
0000
0000
0000
0000
0001
0000
0000
0000
0000
0000
0000
0000
0000
0000
0100
0000
0000
0000
0000
0000
0000
0000
0000
0000
0010
0000
0000
0000
0000
0000
0000
0000
0000
1000
0000
0000
0000
0000
0000
0000
0000
0000
0000
0001
0000
0000
0000
0000
0000
0000
0000
0000
0010
0000
0000
0000
0000
0000
0000
0000
0000
0000
,
0001
1000
0010
0100
0001
1000
0001
0100
0010
1000
0001
0100
0010
0100
0001
1000
,
0100
0010
0001
1000
0001
0010
0100
1000
0001
0100
0010
1000
0001
1000
0010
0100
,
0001
1000
0100
1000
0001
0010
0001
1000
0100
0010
0100
1000
0001
0010
0100
1000
,
0001
0010
0001
1000
0100
0010
0001
1000
0001
0010
0100
1000
0001
0010
0001
1000
,
0010
0100
0001
1000
0001
0100
0010
1000
0001
1000
0010
0100
0001
1000
0010
1000
,
0001
0010
0100
0010
0001
1000
0100
1000
0001
0100
0010
1000
0001
1000
0010
0100
,
0001
1000
0100
1000
0001
0010
0001
1000
0100
0010
0100
1000
0001
0010
0100
1000
,
0001
0000
0000
0000
0000
0000
0000
0000
0000
0000
0000
0000
0010
0000
0000
0000
0000
0000
0000
0000
0000
0000
0000
0000
0001
0000
0000
0000
0000
0000
0000
0000
0000
0000
0000
0000
1000
0000
0000
0000
0000
0000
0000
0000
0000
0000
0000
0000
0100
0000
0000
0000
0000
0000
0000
0000
0000
0000
0000
0000
0010
0000
0000
0000
0000
0000
0000
0000
0000
0000
0000
0000
0001
0000
0000
0000
0000
0000
0000
0000
0000
0000
0000
0000
1000
0000
0000
0000
0000
0000
0000
0000
0000
0000
0000
0000
0001
0000
0000
0000
0000
0000
0000
0000
0000
0010
0000
0000
0000
0000
0000
0000
0000
0000
0000
0100
0000
0000
0000
0000
0000
0000
0000
0000
0000
1000
0000
0000
0000
0000
0000
0000
0000
0000
0001
0000
0000
0000
0000
0000
0000
0000
0000
0000
0100
0000
0000
0000
0000
0000
0000
0000
0000
0000
0010
0000
0000
0000
0000
0000
0000
0000
0000
1000
0000
0000
0000
0000
0000
0000
0000
0000
0000
0001
0000
0000
0000
0000
0000
0000
0000
0000
0010
0000
0000
0000
0000
0000
0000
0000
0000
0000
,
0100
1000
0001
0100
0001
1000
0010
0100
0010
1000
0001
0100
0010
0100
0001
1000
,
0100
0010
0001
1000
0001
0010
0100
1000
0001
0100
0010
1000
0001
1000
0010
0100
,
0001
1000
0100
1000
0001
0010
0001
1000
0100
0010
0100
1000
0001
0010
0100
1000
,
0001
0010
0001
1000
0100
0010
0001
1000
0001
0010
0100
1000
0001
0010
0001
1000
,
0010
0100
0001
1000
0001
0100
0010
1000
0001
1000
0010
0100
0001
1000
0010
1000
,
0001
0010
0100
0010
0001
1000
0100
1000
0001
0100
0010
1000
0001
1000
0010
0100
,
0001
1000
0100
1000
0001
0010
0001
1000
0100
0010
0100
1000
0001
0010
0100
1000
,
0001
0000
0000
0000
0000
0000
0000
0000
0000
0000
0000
0000
0010
0000
0000
0000
0000
0000
0000
0000
0000
0000
0000
0000
0001
0000
0000
0000
0000
0000
0000
0000
0000
0000
0000
0000
1000
0000
0000
0000
0000
0000
0000
0000
0000
0000
0000
0000
0100
0000
0000
0000
0000
0000
0000
0000
0000
0000
0000
0000
0010
0000
0000
0000
0000
0000
0000
0000
0000
0000
0000
0000
0001
0000
0000
0000
0000
0000
0000
0000
0000
0000
0000
0000
1000
0000
0000
0000
0000
0000
0000
0000
0000
0000
0000
0000
0001
0000
0000
0000
0000
0000
0000
0000
0000
0010
0000
0000
0000
0000
0000
0000
0000
0000
0000
0100
0000
0000
0000
0000
0000
0000
0000
0000
0000
1000
0000
0000
0000
0000
0000
0000
0000
0000
0001
0000
0000
0000
0000
0000
0000
0000
0000
0000
0100
0000
0000
0000
0000
0000
0000
0000
0000
0000
0010
0000
0000
0000
0000
0000
0000
0000
0000
1000
0000
0000
0000
0000
0000
0000
0000
0000
0000
0001
0000
0000
0000
0000
0000
0000
0000
0000
1000
0000
0000
0000
0000
0000
0000
0000
0000
0000
,
0100
0000
0000
0000
,
0000
0000
0000
0000
,
0011
0000
0001
0000
1000
0000
0001
0100
0010
0000
1000
0000
0001
0000
0010
0100
,
1000
0000
0001
0000
0100
0000
0010
1000
0001
0000
0010
0000
0100
1000
0100
1000
,
0001
0000
0100
0000
0010
0000
1000
0001
0010
0000
0100
0000
1000
0000
0010
0100
,
0001
0000
1000
0000
0100
0000
0010
0001
1000
0000
0010
0100
0001
0000
0010
0100
,
1000
0000
0001
0000
0100
0000
0010
1000
0001
0000
0010
0000
0100
0000
1000
0001
,
0100
0000
0010
0000
1000
0000
0001
0010
0100
0000
1000
0000
0001
0100
0001
0100
,
0010
0000
1000
0000
0001
0000
0010
0100
1000
0000
0001
0000
0100
0000
0010
1000
,
0001
0000
0000
0000
0000
0000
0000
0000
0000
0000
0000
0000
0000
0000
0000
0000
0000
0000
0000
0000
0000
0000
0000
0000
0010
0000
0000
0000
0000
0000
0000
0000
0000
0000
0000
0000
0000
0000
0000
0000
0000
0000
0000
0000
0000
0000
0000
0000
0100
0000
0000
0000
0000
0000
0000
0000
0000
0000
0000
0000
0000
0000
0000
0000
0000
0000
0000
0000
0000
0000
0000
0000
1000
0000
0000
0000
0000
0000
0000
0000
0000
0000
0000
0000
0001
0000
0000
0000
0000
0000
0000
0000
0000
0000
0000
0000
0100
0000
0000
0000
0000
0000
0000
0000
0000
0010
0000
0000
0000
0000
0000
0000
0000
0000
0000
1000
0000
0000
0000
0000
0000
0000
0000
0000
0000
0001
0000
0000
0000
0000
0000
0000
0000
0000
0010
0000
0000
0000
0000
0000
0000
0000
0000
0000
0100
0000
0000
0000
0000
0000
0000
0000
0000
0000
1000
0000
0000
0000
0000
0000
0000
0000
0000
0001
0000
0000
0000
0000
0000
0000
0000
0000
0000
0100
0000
0000
0000
0000
0000
0000
0000
0000
0010
0000
0000
0000
0000
0000
0000
0000
0000
0000
,
1000
0000
0001
0000
0010
0000
0100
1000
0001
0000
0100
0000
0010
0000
1000
0100
,
0010
0000
0001
0000
1000
0000
0010
0100
0001
0000
1000
0000
0001
0010
0001
0010
,
0100
0000
1000
0000
0001
0000
0100
0010
1000
0000
0001
0000
0010
0000
0100
1000
,
0001
0000
0100
0000
0010
0000
1000
0001
0010
0000
0001
0100
0010
0000
1000
0100
,
0010
0000
0001
0000
1000
0000
0010
0100
0001
0000
1000
0000
0100
0000
0010
0001
,
1000
0000
0010
0000
0100
0000
0001
1000
0100
0000
0010
0000
0001
0100
0010
1000
,
0100
0000
0010
0000
0001
0000
1000
0010
0100
0000
0001
0000
1000
0000
0100
0010
,
0001
0000
0000
0000
0000
0000
0000
0000
0000
0000
0000
0000
0000
0000
0000
0000
0000
0000
0000
0000
0000
0000
0000
0000
1000
0000
0000
0000
0000
0000
0000
0000
0000
0000
0000
0000
0000
0000
0000
0000
0000
0000
0000
0000
0000
0000
0000
0000
0010
0000
0000
0000
0000
0000
0000
0000
0000
0000
0000
0000
0000
0000
0000
0000
0000
0000
0000
0000
0000
0000
0000
0000
0100
0000
0000
0000
0000
0000
0000
0000
0000
0000
0000
0000
0001
0000
0000
0000
0000
0000
0000
0000
0000
0000
0000
0000
1000
0000
0000
0000
0000
0000
0000
0000
0000
0100
0000
0000
0000
0000
0000
0000
0000
0000
0000
0010
0000
0000
0000
0000
0000
0000
0000
0000
0000
0001
0000
0000
0000
0000
0000
0000
0000
0000
1000
0000
0000
0000
0000
0000
0000
0000
0000
0000
0001
0000
0000
0000
0000
0000
0000
0000
0000
0000
0100
0000
0000
0000
0000
0000
0000
0000
0000
0010
0000
0000
0000
0000
0000
0000
0000
0000
0000
1000
0000
0000
0000
0000
0000
0000
0000
0000
0001
0000
0000
0000
0000
0000
0000
0000
0000
0000
,
0010
0000
0000
0000
;

//---------------dance-single - T. Moore----------------
#NOTES:
     dance-single:
     T. Moore:
     Hard:
     12:
     1.000,1.000,0.010,0.020,1.000,727.000,1.000,2.000,0.000,0.000:
0000
0000
0000
0000
,
0000
0000
0000
0000
,
0000
0000
0000
0000
,
0000
0000
0000
0000
,
0000
0000
0000
0000
,
0000
0000
0000
0000
,
0000
0000
0000
0000
,
0000
0000
0000
0000
,
0001
0000
0010
0000
0100
0000
1000
0000
0001
0000
1000
0000
0100
0000
0010
0001
,
1000
0000
0010
0000
0100
0000
0001
0000
1000
0000
0001
0000
0100
0010
1000
0001
,
0010
0000
0100
0000
1000
0000
0001
0000
0010
0000
0001
0000
1000
0000
0001
0100
,
0010
0000
1000
0000
0001
0000
1000
0000
0100
0000
0010
0001
1000
0000
0010
0100
,
0001
0000
1000
0000
0100
0000
0010
0000
0001
0000
1000
0000
0010
0000
0100
0001
,
1000
0000
0001
0000
0010
0000
0100
0000
1000
0000
0100
0000
0010
0001
0010
0001
,
1000
0000
0010
0000
1000
0000
0001
0000
0100
0000
0001
0000
0010
0000
0100
1000
,
0001
0000
0000
0000
0000
0000
0000
0000
1000
0000
0000
0000
0000
0000
0000
0000
0010
0000
0000
0000
0000
0000
0000
0000
0100
0000
0000
0000
0000
0000
0000
0000
0004
0003
0000
0000
0040
0030
0000
0000
0400
0300
0000
0000
4000
3000
0000
0000
0040
0030
0000
0000
0400
0300
0000
0000
0004
0003
0000
0000
4000
3000
0000
0000
,
0100
0000
0010
0000
0001
0000
0100
0000
0010
0000
1000
0000
0001
0000
0010
0100
,
1000
0000
0001
0000
0100
0000
0010
0000
1000
0000
0001
0000
0010
0100
0010
0100
,
1000
0000
0001
0000
0100
0000
0010
0000
1000
0000
0001
0000
0010
0000
0100
1000
,
0001
0000
0100
0000
0010
0000
1000
0000
0100
0000
0010
0001
0100
0000
0010
1000
,
0100
0000
0010
0000
0001
0000
1000
0000
0010
0000
0100
0000
0001
0000
0010
0100
,
1000
0000
0001
0000
0100
0000
0010
0000
1000
0000
0100
0000
0010
0001
1000
0001
,
0100
0000
0010
0000
1000
0000
0001
0000
0010
0000
0100
0000
1000
0000
0001
0100
,
0010
0000
0000
0000
0000
0000
0000
0000
1000
0000
0000
0000
0000
0000
0000
0000
0001
0000
0000
0000
0000
0000
0000
0000
0010
0000
0000
0000
0000
0000
0000
0000
0400
0300
0000
0000
4000
3000
0000
0000
0004
0003
0000
0000
0400
0300
0000
0000
0040
0030
0000
0000
4000
3000
0000
0000
0004
0003
0000
0000
0040
0030
0000
0000
,
0100
1000
0001
1000
0100
1000
0001
1000
,
0100
0000
0010
0000
0001
0000
0010
0000
0100
0000
0010
0000
0001
1000
0001
1000
,
0010
0100
0001
0100
0010
0100
0001
0100
,
0010
0000
1000
0000
0001
0000
1000
0000
0100
0000
0010
0001
1000
0000
0010
0000
,
0100
0001
1000
0001
0100
0001
1000
0001
,
0100
0000
0010
0000
1000
0000
0010
0000
0100
0000
0010
0000
1000
0001
1000
0001
,
0010
0100
1000
0100
0010
0100
1000
0100
,
0010
0000
0001
0000
1000
0000
0001
0000
0200
0300
0001
0000
0200
0300
0001
0100
,
0010
0000
1000
0000
0001
0000
1000
0001
0010
0000
0100
0000
0010
0001
1000
0001
,
0100
0000
0010
0000
1000
0000
0010
0100
0001
0000
1000
0000
0100
0010
0100
0010
,
0001
0000
1000
0000
0100
0000
1000
0001
0010
0000
0100
0000
0010
0001
1000
0001
,
0100
0000
0010
0000
1000
0000
0010
0100
0001
0000
1000
0100
0010
0000
0010
0000
,
0001
0000
1000
0000
0100
0000
1000
0001
0010
0000
0100
0000
0010
0100
1000
0001
,
0010
0000
0100
0000
1000
0000
0001
0100
0010
0000
1000
0000
0001
0010
0001
0010
,
0100
0000
1000
0000
0001
0000
0100
0010
1000
0000
0001
0000
0010
0100
0010
0100
,
1000
0000
0000
0000
0000
0000
0000
0000
0001
0000
0000
0000
0000
0000
0000
0000
1000
0000
0000
0000
0000
0000
0000
0000
0001
0000
0000
0000
1000
0000
0000
0000
0001
0000
0000
0000
0000
0000
0000
0000
1000
0000
0000
0000
0000
0000
0000
0000
0004
0003
0000
0000
4000
3000
0000
0000
0004
0003
0000
0000
4000
3000
0000
0000
,
0001
0000
0100
0000
0010
0000
1000
0000
0100
0000
0010
0000
0001
0000
1000
0010
,
0100
0000
0001
0000
1000
0000
0100
0000
0010
0000
0001
0000
1000
0001
1000
0001
,
0100
0000
0010
0000
1000
0000
0001
0000
0010
0000
0100
0000
1000
0000
0010
0100
,
0001
0000
1000
0000
0100
0000
0010
0000
0001
0000
1000
0010
0100
0000
0001
0010
,
0100
0000
1000
0000
0001
0000
0100
0000
0010
0000
1000
0000
0001
0000
0010
0100
,
1000
0000
0001
0000
0100
0000
0010
0000
1000
0000
0001
0000
0010
0100
0010
0001
,
1000
0000
0010
0000
0100
0000
0001
0000
1000
0000
0100
0000
0010
0000
0001
1000
,
0010
0000
0000
0000
0000
0000
0000
0000
0100
0000
0000
0000
0000
0000
0000
0000
0001
0000
0000
0000
0000
0000
0000
0000
1000
0000
0000
0000
0000
0000
0000
0000
0004
0003
0000
0000
0040
0030
0000
0000
0400
0300
0000
0000
4000
3000
0000
0000
0040
0030
0000
0000
0400
0300
0000
0000
0004
0003
0000
0000
4000
3000
0000
0000
,
0100
0000
0010
0000
0001
0000
1000
0000
0010
0000
0100
0000
0001
0000
1000
0100
,
0010
0000
0001
0000
1000
0000
0010
0000
0100
0000
0001
0000
1000
0001
1000
0001
,
0010
0000
0100
0000
1000
0000
0001
0000
0100
0000
0010
0000
1000
0000
0100
0010
,
0001
0000
1000
0000
0010
0000
0100
0000
0001
0000
0010
0100
1000
0000
0010
0100
,
0001
0000
1000
0000
0100
0000
0010
0000
0001
0000
1000
0000
0010
0000
0100
0001
,
1000
0000
0100
0000
0010
0000
0001
0000
0100
0000
0010
0000
1000
0001
1000
0001
,
0010
0000
0100
0000
1000
0000
0010
0000
0100
0000
0001
0000
1000
0000
0100
0010
,
0001
0000
0000
0000
0000
0000
0000
0000
1000
0000
0000
0000
0000
0000
0000
0000
0010
0000
0000
0000
0000
0000
0000
0000
0100
0000
0000
0000
0000
0000
0000
0000
0004
0003
0000
0000
4000
3000
0000
0000
0400
0300
0000
0000
0040
0030
0000
0000
0004
0003
0000
0000
0400
0300
0000
0000
0040
0030
0000
0000
4000
3000
0000
0000
,
0001
0000
1000
0100
0000
0010
0001
0000
1000
0000
0001
0010
0000
0100
1000
0000
,
0001
0000
0100
0010
0000
1000
0001
0000
0010
0000
0100
1000
0000
0100
0010
0000
,
0001
0000
1000
0010
0000
0100
0001
0000
1000
0000
0001
0100
0000
0010
1000
0000
,
0001
0000
1000
0010
0000
0100
0001
0000
1000
0000
0001
0100
0001
0000
1000
0100
,
0010
0000
0001
0010
0000
0100
1000
0000
0001
0000
1000
0100
0000
0010
0001
0000
,
1000
0000
0010
0100
0000
0001
1000
0000
0100
0000
0010
0001
0000
0010
0100
0000
,
1000
0000
0001
0100
0000
0010
1000
0000
0001
0000
1000
0010
0000
0100
0001
0000
,
1000
0000
0000
0000
0000
0000
0000
0000
0001
0000
0000
0000
0100
0000
0000
0000
0000
0000
0000
0000
0010
0000
0000
0000
1000
0000
0000
0000
0000
0000
0000
0000
0004
0003
0000
0000
4000
3000
0000
0000
0004
0003
0000
0000
4000
3000
0000
0000
0004
0003
0000
0000
4000
3000
0000
0000
0004
0003
0000
0000
4000
3000
0000
0000
,
0001
0000
0010
0100
0000
1000
0001
0000
1000
0000
0100
0010
0000
0001
1000
0000
,
0010
0000
0100
0001
0000
0100
0010
0000
1000
0000
0001
0010
0000
0001
1000
0000
,
0010
0000
0100
0001
0000
0100
0010
0000
1000
0000
0010
0100
0000
0001
1000
0000
,
0001
0000
1000
0010
0000
0100
0001
0000
1000
0000
0001
0100
0001
0000
1000
0100
,
0010
0000
0001
0010
0000
0100
1000
0000
0001
0000
1000
0100
0000
0010
0001
0000
,
1000
0000
0010
0100
0000
0001
1000
0000
0100
0000
0010
0001
0000
0010
0100
0000
,
1000
0000
0001
0100
0000
0010
1000
0000
0001
0000
1000
0010
0000
0100
0001
0000
,
1000
0000
0000
0000
0000
0000
0000
0000
0001
0000
0000
0000
0100
0000
0000
0000
0000
0000
0000
0000
0010
0000
0000
0000
1000
0000
0000
0000
0000
0000
0000
0000
0004
0003
0000
0000
0040
0030
0000
0000
0400
0300
0000
0000
4000
3000
0000
0000
0040
0030
0000
0000
0400
0300
0000
0000
0004
0003
0000
0000
4000
3000
0000
0000
,
0100
0000
0000
0000
,
0000
0000
0000
0000
,
0011
0000
0001
0000
1000
0000
0001
0000
0100
0000
0010
0000
1000
0000
0100
0010
,
0001
0000
1000
0000
0010
0000
0100
0000
0001
0000
1000
0000
0100
0010
0100
0010
,
0001
0000
1000
0000
0010
0000
0100
0000
0001
0000
1000
0000
0100
0000
0010
0001
,
1000
0000
0010
0000
0100
0000
0001
0000
1000
0000
0100
0010
0001
0000
0100
0010
,
1000
0000
0001
0000
0010
0000
0100
0000
1000
0000
0001
0000
0100
0000
0010
1000
,
0001
0000
0010
0000
0100
0000
1000
0000
0001
0000
0100
0000
0010
1000
0010
1000
,
0001
0000
0010
0000
0100
0000
1000
0000
0001
0000
0100
0000
0010
0000
1000
0100
,
0010
0000
0000
0000
0000
0000
0000
0000
0001
0000
0000
0000
0000
0000
0000
0000
1000
0000
0000
0000
0000
0000
0000
0000
0010
0000
0000
0000
0000
0000
0000
0000
0400
0300
0000
0000
0004
0003
0000
0000
4000
3000
0000
0000
0400
0300
0000
0000
0040
0030
0000
0000
0004
0003
0000
0000
4000
3000
0000
0000
0040
0030
0000
0000
,
0100
0000
0001
0000
1000
0000
0100
0000
0010
0000
0001
0000
1000
0000
0010
0100
,
0001
0000
1000
0000
0100
0000
0010
0000
0001
0000
1000
0000
0010
0100
0010
0100
,
0001
0000
1000
0000
0100
0000
0010
0000
0001
0000
1000
0000
0010
0000
0100
0001
,
1000
0000
0100
0000
0010
0000
0001
0000
1000
0000
0010
0100
0001
0000
0010
0100
,
1000
0000
0001
0000
0100
0000
0010
0000
1000
0000
0001
0000
0010
0000
0100
1000
,
0001
0000
0100
0000
0010
0000
1000
0000
0100
0000
0010
0000
0001
1000
0010
0100
,
0001
0000
1000
0000
0100
0000
0010
0000
0001
0000
1000
0000
0010
0000
0100
0001
,
1000
0000
0000
0000
0000
0000
0000
0000
0100
0000
0000
0000
0000
0000
0000
0000
0010
0000
0000
0000
0000
0000
0000
0000
0001
0000
0000
0000
0000
0000
0000
0000
4000
3000
0000
0000
0040
0030
0000
0000
0400
0300
0000
0000
0004
0003
0000
0000
0040
0030
0000
0000
0400
0300
0000
0000
4000
3000
0000
0000
0004
0003
0000
0000
,
0100
0000
0000
0000
;
