#TITLE:Euphoric Dream;
#SUBTITLE:Vendetta (2009);
#ARTIST:Celesty;
#TITLETRANSLIT:;
#SUBTITLETRANSLIT:;
#ARTISTTRANSLIT:;
#CREDIT:;
#BANNER:celesty-bn.png;
#BACKGROUND:celesty-bg.png;
#LYRICSPATH:;
#CDTITLE:CDTitle.gif;
#MUSIC:02-celesty_-_euphoric_dream.mp3;
#OFFSET:-0.150;
#SAMPLESTART:52.000;
#SAMPLELENGTH:12.000;
#SELECTABLE:YES;
#BPMS:0.000=182.000,846.000=120.000;
#STOPS:;
#BGCHANGES:159.000=Dream-bg.png=1.000=1=0=1,
288.000=celesty-bg.png=1.000=0=0=1,
320.000=Euphoric-bg.png=1.000=0=0=1,
352.000=Dream-bg.png=1.000=1=0=1,
400.000=celesty-bg.png=1.000=1=0=1,
448.000=Euphoric-bg.png=1.000=0=0=1,
576.000=celesty-bg.png=1.000=0=0=1,
639.000=Dream-bg.png=1.000=1=0=1,
768.000=celesty-bg.png=1.000=0=0=1,
846.000=Euphoric-bg.png=1.000=0=0=1,
99999=-nosongbg-=1.000=0=0=0 // don't automatically add -songbackground-
;
// cache tags:
#FIRSTBEAT:0.000;
#LASTBEAT:888.000;
#SONGFILENAME:Songs/Astronomic Metal Collection 2/(Charlo) Euphoric Dream/Euphoric Dream.sm;
#HASMUSIC:1;
#HASBANNER:1;
#MUSICLENGTH:302.477;
// end cache tags

//---------------dance-single - Blank----------------
#NOTES:
     dance-single:
     Blank:
     Hard:
     13:
     1.000,1.000,0.949,0.939,1.000,1861.000,287.000,284.000,0.000,0.000:
2000
0000
3010
0100
0002
0000
0023
0000
,
0230
0000
1300
0010
0200
0000
0320
0000
,
2030
0000
0000
0000
,
0000
0000
3010
0100
0020
0000
2030
0000
,
3002
0000
0013
0100
0020
0000
2030
0000
,
3100
0010
0002
0000
0023
0000
0230
0000
,
0302
0000
2003
0000
,
3010
0100
0001
0010
0200
0000
0000
0000
0320
0000
0000
0000
0031
0000
1000
0000
,
0010
0100
0001
0010
0200
0000
2300
0000
,
3020
0000
0031
1000
0200
0000
0320
0000
,
0032
0000
0000
0000
,
0000
0000
0103
0010
0200
0000
0302
0000
,
2003
0000
3100
0010
0200
0000
2300
0000
,
3001
0000
0010
0000
0200
0000
0000
0000
2300
0000
0000
0000
3020
0000
0000
0030
,
2200
0000
0000
0000
0000
3300
2020
0000
0000
0000
0000
3030
0202
0000
0000
0000
,
0000
0303
0220
0000
0000
0000
0000
0330
2002
0000
0000
3003
0100
0010
0001
0010
,
1100
0000
1100
0100
0000
0000
0010
0000
,
1001
0000
0000
0000
1001
0000
0000
0000
0001
0010
0100
1000
0010
0100
0001
0100
,
0020
0000
2030
3200
,
0320
0000
0000
0000
0000
0000
0000
0000
0230
0000
0000
0000
0000
0000
0000
0300
,
1010
0000
1010
0001
0000
0000
0100
0000
,
0110
0000
0000
0000
0110
0000
0000
0000
1000
0100
1000
0001
0100
0001
0010
0100
,
2000
0000
0000
0000
0000
0000
0000
0000
3200
0000
0000
0000
0320
0000
0000
0030
,
2002
0000
0000
0000
0000
0000
0000
3003
0100
0010
0001
1000
0001
0010
0100
1000
,
0011
0100
1000
0010
0100
0001
0100
0010
1000
0100
0010
0100
1000
0001
0100
0010
,
0100
0001
0010
0100
1000
0001
0100
0001
1000
0100
1000
0010
0100
0001
0010
0001
,
1000
0010
1000
0100
0010
0001
0010
0100
1000
0001
0010
0100
0010
0001
0100
0010
,
1000
0100
0010
0100
1000
0010
0100
0010
1000
0100
1000
0001
0100
0001
1000
0010
,
1000
0100
0010
0001
0100
0010
1000
0100
0010
0001
1000
0001
0010
0100
0010
0001
,
1000
0010
0100
0001
0010
0100
1000
0001
0100
0010
1000
0100
0010
0100
1000
0001
,
0010
0100
0010
0001
1000
0010
1000
0100
0010
0001
0100
0010
0100
0001
0010
0100
,
1000
0001
0100
0001
1000
0010
1000
0100
0010
0001
0100
0001
0010
0100
1000
0001
,
0110
1000
0100
1000
0010
0100
0001
0010
0001
0100
0010
1000
0100
1000
0001
0010
,
0100
1000
0010
0100
0001
0010
0100
1000
0100
0010
0001
1000
0010
0100
0001
0010
,
0100
1000
0001
0100
0001
1000
0100
1000
0010
0100
0010
1000
0100
0010
0100
1000
,
0001
0010
0001
1000
0010
1000
0100
0010
0001
0010
0100
1000
0100
0010
0001
1000
,
0010
1000
0100
0010
0001
0100
0001
0010
0100
0010
0001
1000
0001
0010
0100
1000
,
0001
0100
0010
1000
0100
0010
0001
1000
0010
0100
0001
0100
0010
1000
0100
0010
,
0100
1000
0001
0010
0001
1000
0010
1000
0001
0100
0001
1000
0100
1000
0001
0010
,
0100
1000
0001
0010
0100
0010
0001
1000
0100
0010
0001
1000
0010
0100
0010
1000
,
0100
0000
0011
0000
1000
0010
1100
0000
,
0010
0100
0011
0100
0000
1000
0110
0000
,
1000
0000
0002
0000
0203
0000
0310
2000
,
0000
0000
0000
0000
3100
0000
0000
0000
0010
0000
0002
0000
0000
0000
0000
0003
,
0210
0000
0310
1000
,
0002
0000
0000
0000
0000
0000
0203
0000
0000
0000
0000
0000
0320
0000
0000
0030
,
1000
0000
0110
0000
0001
0001
1010
0000
,
0022
0000
0000
0030
1000
0000
0000
0003
0220
0000
0000
0300
0001
0000
0000
0030
,
1001
0000
0110
0000
0001
0100
1100
0000
,
0001
1000
0101
1000
0000
0010
0110
1000
,
0001
0000
2000
0000
3200
0000
0310
0200
,
0000
1300
0002
0023
,
0230
0000
0301
0000
1000
0010
1100
0000
,
0001
0000
0100
0000
0011
0000
0100
0000
0002
0000
0000
0000
2003
0000
0000
3000
,
0220
0000
0000
0000
0000
0330
2200
0000
0000
0000
0000
3300
2020
0000
0000
0000
,
0000
3030
2200
0000
0000
0000
0000
3300
0011
0100
1000
0010
0100
0010
1000
0001
,
1100
0000
0101
1100
1001
0000
0101
0011
,
0110
0000
1100
0000
0110
1001
0101
0000
,
0020
0000
0000
0230
,
2300
0000
0000
0000
0000
0000
0000
0000
3020
0000
0000
0000
0000
0000
0000
0030
,
1100
0000
0101
0011
0101
0000
1010
0110
,
1001
0000
1100
0000
1001
0101
1100
0000
,
0200
0000
0000
0320
0000
0000
0032
0000
,
0023
0000
0000
0000
0000
0000
0000
0000
0031
0100
0010
1000
0010
0100
0001
0010
,
1100
0000
1001
0101
0011
0000
1100
1010
,
0011
0000
1001
0000
0110
1100
0110
0000
,
2000
0000
0000
3200
0000
0000
2300
0000
,
3020
0000
0000
0230
0000
0000
0302
0000
,
1003
0010
0100
0001
0100
0010
0100
0001
0010
0100
1000
0010
0100
0001
0010
0100
,
1000
0001
1000
0100
0010
0001
0010
0100
1000
0001
0100
0010
1000
0100
1000
0001
,
0110
0000
1000
1000
0101
0000
0010
0010
,
0110
0000
0110
0000
,
1001
0100
0010
0100
1000
0001
0100
0001
0010
0100
1000
0001
0010
0001
1000
0010
,
1000
0001
0100
0001
0010
0100
1000
0010
1000
0100
0010
0100
1000
0001
1000
0010
,
0100
0010
1000
0001
0010
0100
1000
0001
0100
0010
0100
0001
0010
0100
1000
0001
,
0100
0010
0100
0001
0010
0100
1000
0010
0100
0010
1000
0100
1000
0010
0100
0010
,
1000
0100
0010
0001
1000
0100
1000
0010
0100
0001
0010
0001
1000
0010
0100
0001
,
0010
0100
1000
0010
0100
0001
0010
0100
1000
0001
0100
0010
0100
0001
0010
0100
,
2010
0000
0000
0000
0000
3000
0102
0000
0000
0000
0000
0003
0210
0000
0000
0000
,
0000
0300
1002
0000
0000
0000
0000
0003
1000
0100
1000
0010
0100
0001
0010
0001
,
0110
0110
1000
0001
0100
0010
1001
1001
,
1000
0000
0010
0000
0100
0000
0001
0000
1100
0010
0001
0100
0001
1000
0100
1000
,
0011
0011
1000
0010
0100
0010
0101
0101
,
0220
0000
0000
0000
0000
0330
2200
0000
0000
0000
0000
3300
2002
0000
0000
3003
,
1010
1010
0001
0100
0010
0100
0011
0011
,
1000
0000
0010
0000
1000
0000
0100
0000
0011
1000
0010
1000
0100
0010
0001
0010
,
1100
1100
0010
0001
0100
0010
0011
0011
,
2020
0000
0000
0000
0000
3030
0220
0000
0000
0000
0000
0330
2002
0000
0000
3003
,
0101
0000
2000
3020
,
0230
0000
0300
0020
,
0230
0000
0000
2300
0000
0000
3020
0000
,
0000
0000
0000
0000
0032
0000
0000
0000
0000
0000
0000
0000
0000
0000
0000
0003
,
0110
2000
3020
0230
,
0320
0000
0000
2030
0000
0000
3002
0000
,
0023
0000
0000
0000
0000
0000
0000
0000
0000
0000
0000
0000
0000
0000
0000
0030
,
1000
0000
0000
0000
0101
0000
0000
0000
0010
0000
1000
0001
0110
0000
1000
0000
,
1100
0000
0020
0230
,
0302
0000
2003
3200
,
0302
0000
0000
2003
0000
0000
3200
0000
,
0310
0010
0001
1000
0010
0100
0010
0010
,
1002
0000
0000
0000
0000
0000
0023
0000
0200
0000
0000
0330
2002
0000
0000
3003
,
0220
0000
0000
0000
0000
0330
0022
0000
0000
0000
0000
0033
2020
0000
0000
3030
,
0110
0001
1000
0010
1000
0100
0010
0100
1000
0010
0100
0001
0010
0100
0010
0001
,
1000
0010
0100
0001
0010
0001
1000
0010
1000
0100
0010
0001
1100
0001
1010
0100
,
0011
0100
1000
0010
1000
0100
0010
0100
1000
0001
0100
0010
0100
0001
0010
0100
,
1000
0001
0010
0001
1000
0010
1000
0100
0011
1000
0100
1000
0110
0001
0010
0100
,
1001
0010
0100
1000
0010
0100
0010
1000
0110
0001
0010
0100
1000
0001
0100
0001
,
1000
0100
0010
0100
1000
0001
1000
0010
1100
0001
0010
0100
1000
0001
0010
0100
,
1001
0010
0100
0010
0001
1000
0100
1000
0001
0100
0001
1000
0010
1000
0001
0010
,
1100
0010
0001
1000
0100
0010
0100
1000
0101
0010
0001
1000
0110
1000
0100
0010
,
1001
0100
0010
0100
1000
0010
0100
0001
0010
0001
1000
0010
1000
0100
0010
0001
,
1000
0100
1000
0010
0100
0001
0100
0010
1000
0100
1000
0001
0010
0100
1000
0001
,
0110
0110
1000
0001
1000
0010
1100
1100
,
0010
0000
0001
0000
1000
0000
0010
0000
1100
0010
0100
0000
0001
0000
0010
0000
,
2001
0000
3100
0020
0000
0130
1000
0001
,
2020
0000
0000
0000
0000
3030
0220
0000
0000
0000
0000
0330
0100
1000
0100
0010
,
0002
0000
0000
0000
0013
0100
0010
0100
2000
0000
0000
0000
3001
0010
0100
1000
,
0100
0010
0001
0100
0010
0100
0001
0010
0001
1000
0010
1000
0100
0010
0001
0010
,
0100
1000
0010
0100
0001
0100
0010
1000
0100
0010
0100
1000
0001
0010
0100
1000
,
0220
0000
0000
0000
0000
0330
0022
0000
0000
0000
0000
0033
2002
0000
0000
3003
,
0110
1000
0100
0010
0100
1000
0001
0010
0100
0010
0001
1000
0100
0010
0100
1000
,
0001
0100
0001
0010
0001
1000
0001
0100
0001
0010
0001
1000
0001
0100
0001
0010
,
0001
0010
0100
1000
0010
0100
0010
1000
0100
0010
0100
1000
0010
0100
0010
1000
,
0100
0010
0001
0100
0010
0100
0001
0010
0100
1000
0010
0100
0001
0010
0100
1000
,
0100
0010
0100
0010
0100
0010
0100
0010
0100
0010
0100
0010
0100
1000
0100
1000
0100
1000
0100
0010
0100
0010
0100
0010
,
0001
1000
0001
1000
0001
1000
0001
1000
0001
1000
0001
1000
0010
0100
0010
0100
0010
0100
0010
1000
0010
1000
0010
1000
,
0010
0100
0010
0100
0010
0100
0010
0100
0010
0100
0010
0100
0001
1000
0001
1000
0001
1000
0001
1000
0001
1000
0001
1000
,
0001
0010
0100
1000
0010
0000
1000
0100
0010
0000
0001
0010
0100
0010
0001
0010
,
0100
0000
0001
0010
0001
0100
0010
0000
1000
0000
0000
0100
0000
0000
0010
0000
,
0200
0000
0000
0000
0000
0000
0000
0000
0000
0000
0000
0000
0301
1000
0001
0010
,
0200
0000
0000
2300
0000
0000
3020
0000
,
0230
0320
0230
0320
0230
0320
0230
0000
,
0302
0000
0000
0000
1003
0010
0100
0010
1000
0001
0010
0100
2000
0000
0000
0000
,
0000
0000
3000
0000
0010
0000
0100
0000
0010
0000
1000
0000
0001
0010
0100
1000
,
0020
0000
0000
0000
0000
0032
0023
0230
,
0320
0000
0000
0000
0000
0000
0000
0000
0000
0000
0000
0000
0031
0010
0100
1000
,
0100
0010
0001
0010
0100
0010
0001
0010
0100
0010
0001
0010
0100
0010
0001
0010
,
0100
1000
0010
1000
0100
1000
0010
1000
0100
1000
0010
1000
0100
1000
0010
1000
,
0001
0100
0010
0100
0001
0100
0010
0100
0001
0100
0010
0100
0001
0100
0010
0100
,
0001
1000
0100
1000
0001
1000
0100
1000
0001
1000
0100
1000
0001
1000
0100
0010
,
1001
0100
0010
0100
1000
0001
0100
0010
1000
0100
0010
0100
1000
0001
0100
0010
,
0101
1000
0100
0010
0100
1000
0001
0010
0001
0100
0010
1000
0100
1000
0001
1000
,
0110
0001
1000
0001
0110
1000
0001
1000
0110
0001
1000
0001
0110
1000
0001
1000
,
0100
0000
0000
0010
0000
0000
0001
0000
0000
1000
0000
0000
0001
0000
0000
0010
0000
0000
0100
0000
0000
1000
0000
0000
0200
0000
0000
0000
0000
0000
0000
0000
0000
0000
0000
0000
0010
0000
0000
0000
0000
0000
0000
0000
0300
0000
0000
0000
,
1001
0010
0100
1000
0110
0001
1000
0100
0011
1000
0100
0010
1100
0001
0010
0100
,
1001
0010
0100
1000
0101
1000
0100
0010
1001
0100
0010
0100
1010
0001
0010
0100
,
1001
0010
0100
1000
0110
0001
0010
0001
1100
0010
0001
1000
0101
0010
0100
1000
,
0011
0100
1000
0010
0100
0001
1000
0100
0011
1000
0100
1000
0001
0100
0001
0010
,
1100
0010
0001
1000
0010
1000
0110
0001
0010
0100
1000
0001
1100
0010
0001
1000
,
0110
0001
0010
0100
1000
0001
1000
0100
0011
1000
0100
0010
0100
1000
0001
1000
,
0101
0010
0100
1000
0001
1000
0110
0001
1000
0100
1000
0001
1010
0100
0010
0001
,
0110
1000
0001
0010
0100
1000
0010
0100
1001
0010
0100
1000
0110
0001
1000
0100
,
0011
1000
0100
0010
1001
0100
0010
0001
0110
1000
0010
1000
0101
0010
0100
1000
,
0110
0001
1000
0001
0110
1000
0001
0010
1100
0001
0010
0100
1001
0010
0001
1000
,
0110
0001
1000
0100
0011
0100
1000
0001
1010
0100
0010
0001
1100
0001
0010
0100
,
1001
0010
0100
1000
0001
1000
0100
0010
1001
0100
0010
0001
1000
0100
1000
0001
,
0110
1000
0001
1000
0100
0010
1001
0010
0100
0010
0001
1000
0110
0001
1000
0100
,
0011
1000
0100
0010
0100
1000
0001
0100
0011
1000
0100
1000
0001
0100
0001
0010
,
1100
0001
0010
0100
1000
0010
1000
0100
0011
1000
0010
1000
0100
0010
0001
1000
,
0110
0001
0100
0010
1000
0100
0010
0001
0110
1000
0100
0010
0001
1000
0100
0010
,
1001
0000
1100
0000
0010
0100
0011
0000
,
1000
0010
1100
0001
0000
0100
0011
1000
,
0110
0000
0002
0000
2003
0000
3010
0200
,
0000
0000
0000
0000
0320
0000
0000
0000
1030
0000
0002
0000
0000
0000
0000
0003
,
1200
0000
0320
2030
,
3200
0000
0000
0302
0000
0000
2003
0000
,
3100
0000
0011
0000
1000
0010
0110
0000
,
2020
0000
0000
0030
0100
0000
0000
3000
0202
0000
0000
0300
0010
0000
0000
0003
,
0110
0000
1100
0000
0100
0001
1010
0000
,
0001
1000
1100
0010
0000
0001
0110
1000
,
0101
0000
0020
0000
2030
0000
3001
0020
,
0000
0000
0000
0000
0130
0000
0000
0000
2000
0000
0000
0000
3200
0000
0000
0300
,
0020
0000
1030
0000
0010
0100
0011
0000
,
1000
0000
0100
0000
0011
0000
1000
0000
0200
0000
0000
0000
2300
0000
0000
3000
,
0220
0000
0000
0000
0000
0330
0202
0000
0000
0000
0000
0303
2020
0000
0000
0000
,
0000
3030
2002
0000
0000
0000
0000
3003
0110
0001
1000
0010
1000
0100
0010
0100
,
1001
0000
0101
0011
1100
0000
1010
0101
,
0011
0000
0110
0000
0101
1001
0110
0000
,
0002
0000
0000
2003
,
3020
0000
0000
0000
0000
0000
0000
0000
0230
0000
0000
0000
0000
0000
0000
0300
,
1010
0000
1100
0110
1010
0000
0101
1001
,
1100
0000
0011
0000
0101
0011
1100
0000
,
0200
0000
0000
2300
0000
0000
3020
0000
,
0032
0000
0000
0000
0000
0000
0000
0000
1003
0100
1000
0010
0100
0010
1000
0100
,
1010
0000
1100
0011
0110
0000
1001
0110
,
1001
0000
0101
0000
1100
0011
0110
0000
,
0020
0000
0000
0230
0000
0000
2300
0000
,
3020
0000
0000
0230
0000
0000
0320
0000
,
1030
0100
0010
0001
1000
0001
0010
0100
1000
0001
1000
0100
0010
0001
0100
0010
,
1000
0001
0010
0100
0010
0001
1000
0100
1000
0001
0100
0001
0010
0100
0010
0001
,
1100
0000
0100
0100
0011
0000
0010
0010
,
1100
0000
1100
0000
,
2001
0000
3001
0100
0020
0000
2030
0000
,
3002
0000
0000
0000
0103
0000
0010
0000
2000
0000
0000
0000
3200
0000
0000
0300
,
0021
0000
0000
0000
,
0000
0000
0000
0030
1100
0000
1000
0000
0020
0000
0000
0000
0230
0000
0000
0300
,
1002
0000
0013
0100
0020
0000
2030
0000
,
3100
0000
0010
0000
0200
0000
0000
0000
2300
0000
0000
0000
3002
0000
0000
0003
,
0210
0000
2300
0000
,
3001
0100
0010
0100
0020
0000
0000
0000
2030
0000
0000
0000
3100
0000
0001
0000
,
1020
0000
1030
0010
0200
0000
0302
0000
,
0203
0000
0000
0000
0310
0000
1000
0000
0200
0000
0000
0000
0302
0000
0000
0003
,
2010
0000
0000
0000
,
0000
0000
0000
3000
0011
0000
1000
0000
0020
0000
0000
0000
2030
0000
0000
3000
,
0201
0000
0000
0310
2000
0000
3002
0000
,
1003
0100
0020
0000
0230
0000
0302
0000
,
0203
0000
0000
0320
0000
0000
2030
0000
,
0000
0000
3002
0000
0000
0000
0000
0000
0013
0100
1000
0010
1000
0100
0010
0001
,
0210
0000
0001
0000
0010
0300
1002
0000
0100
0000
0010
0003
2100
0000
0010
0000
,
0001
3000
0120
0000
0001
0000
0100
0030
2001
0000
0100
0000
0010
0000
0001
3000
,
0220
0000
0000
0000
0000
0330
0202
0000
0000
0000
0000
0303
2020
0000
0000
0000
,
0000
3030
0202
0000
0000
0000
0000
0303
2002
0000
0000
0000
0000
0000
0000
0000
,
0000
0000
3003
1100
1100
1100
0220
0000
0000
0000
0000
0000
,
0000
0000
0330
0011
0011
0011
2020
0000
0000
0000
0000
0000
,
0000
0000
3030
0110
0110
0110
0022
0030
1000
0100
0010
0103
,
1010
0000
0100
0010
0001
0010
2002
0000
0000
0000
0000
0000
,
0000
0000
0000
0000
,
0000
0000
0000
0000
,
0000
0000
0000
0000
,
0000
0000
0000
0000
,
0000
0000
0000
0000
,
0000
0000
0000
0000
,
3003
0000
0000
0000
;
