#TITLE:Tetris Trance;
#SUBTITLE:;
#ARTIST:2pm;
#TITLETRANSLIT:;
#SUBTITLETRANSLIT:;
#ARTISTTRANSLIT:;
#CREDIT:;
#BANNER:Tetrisb.png;
#BACKGROUND:Tetris.png;
#LYRICSPATH:;
#CDTITLE:;
#MUSIC:Tetris Trance.ogg;
#OFFSET:-0.234;
#SAMPLESTART:34.114;
#SAMPLELENGTH:13.700;
#SELECTABLE:YES;
#BPMS:0.000=140.010;
#STOPS:;
#BGCHANGES:;
// cache tags:
#FIRSTBEAT:16.000;
#LASTBEAT:240.000;
#SONGFILENAME:Songs/in the groove2/Tetris Trance/Tetris Trance.sm;
#HASMUSIC:1;
#HASBANNER:1;
#MUSICLENGTH:108.623;
// end cache tags

//---------------dance-single - ----------------
#NOTES:
     dance-single:
     :
     Beginner:
     1:
     0.079,0.166,0.064,0.000,0.000,53.000,7.000,0.000,0.000,0.000:
0000
0000
0000
0000
,
0000
0000
0000
0000
,
0000
0000
0000
0000
,
0000
0000
0000
0000
,
0010
0000
0000
0000
,
0000
0000
0000
0000
,
1000
0000
0000
0000
,
0000
0000
0000
0000
,
0001
0000
0000
0000
,
0000
0000
0000
0000
,
1000
0000
0000
0000
,
0000
0000
0000
0000
,
1000
0000
0000
0000
,
0001
0000
0000
0000
,
0100
0000
0000
0000
,
0010
0000
0000
0000
,
1000
0000
0000
0000
,
0001
0000
0000
0000
,
0100
0000
0000
0000
,
0010
0000
0000
0000
,
1001
0000
0000
0000
,
0100
0000
0000
0000
,
0001
0000
0000
0000
,
1000
0000
0000
0000
,
0010
0000
0000
0000
,
0100
0000
0000
0000
,
0001
0000
0000
0000
,
1000
0000
0000
0000
,
1001
0000
0000
0000
,
0010
0000
0000
0000
,
0001
0000
0000
0000
,
1000
0000
0000
0000
,
0010
0000
0000
0000
,
0100
0000
0000
0000
,
0001
0000
0000
0000
,
1000
0000
0000
0000
,
1001
0000
0000
0000
,
1001
0000
0000
0000
,
1001
0000
0000
0000
,
1001
0000
0000
0000
,
1000
0000
0000
0000
,
0001
0000
0000
0000
,
0100
0000
0000
0000
,
0010
0000
0000
0000
,
1000
0000
0000
0000
,
0001
0000
0000
0000
,
0100
0000
0000
0000
,
0010
0000
0000
0000
,
0001
0000
0000
0000
,
1000
0000
0000
0000
,
0010
0000
0000
0000
,
0001
0000
0000
0000
,
1000
0000
0000
0000
,
0010
0000
0000
0000
,
0001
0000
0000
0000
,
0100
0000
0000
0000
,
1000
0000
0000
0000
,
0001
0000
0000
0000
,
0010
0000
0000
0000
,
1000
0000
0000
0000
,
1001
0000
0000
0000
;

//---------------dance-single - ----------------
#NOTES:
     dance-single:
     :
     Easy:
     3:
     0.234,0.276,0.110,0.147,0.000,150.000,12.000,16.000,0.000,0.000:
0000
0000
0000
0000
,
0000
0000
0000
0000
,
0000
0000
0000
0000
,
0000
0000
0000
0000
,
1000
0000
0001
0000
,
1000
0000
0001
0000
,
0100
0000
0010
0000
,
0100
0000
0010
0000
,
1000
0000
1000
0000
,
0001
0000
0001
0000
,
0100
0000
0100
0000
,
2002
0000
3003
0000
,
0002
0000
0003
0000
,
2000
0000
3000
0000
,
0020
0000
0030
0000
,
0200
0000
0300
0000
,
0001
0000
0000
0000
,
1001
0000
0100
0000
,
0010
0000
1000
0000
,
2002
0000
0000
3003
,
1000
0000
0001
0001
,
0001
0000
1000
1000
,
1000
0000
0010
0000
,
0100
0100
0100
0000
,
0010
0000
1000
0001
,
1001
0000
1000
1000
,
0001
0000
0100
0100
,
0010
0010
1001
0000
,
1000
0001
1000
0001
,
1000
0000
0010
0100
,
0010
0000
0001
0001
,
1000
1000
0001
0000
,
0010
0000
0100
0100
,
1000
0000
0001
0001
,
0100
0000
0010
0010
,
1000
0001
1001
0000
,
1000
0001
1000
0001
,
0100
0010
0100
0010
,
1000
0001
1000
0001
,
0010
0010
1001
0000
,
0100
0100
0010
0010
,
1001
0000
0001
0001
,
1000
0000
0010
1000
,
0001
1000
0110
0000
,
0100
0000
0010
1000
,
1000
0000
0001
0100
,
0100
0000
0010
1000
,
0001
0001
0001
0000
,
1001
0000
0100
0100
,
0100
0000
0010
0010
,
0010
0000
1000
0001
,
1000
1000
0110
0000
,
1000
0100
1000
0100
,
0010
0100
0010
0100
,
0010
0001
0010
0001
,
1000
0001
1000
0001
,
2000
3000
0200
0300
,
0020
0030
0002
0003
,
0200
0300
0020
0030
,
2000
3000
0002
0003
,
1001
0000
0000
0000
;

//---------------dance-single - ----------------
#NOTES:
     dance-single:
     :
     Medium:
     5:
     0.367,0.359,0.120,0.193,0.000,245.000,13.000,21.000,0.000,0.000:
0000
0000
0000
0000
,
0000
0000
0000
0000
,
0000
0000
0000
0000
,
0000
0000
0000
0000
,
1000
0001
1000
0001
,
0100
0010
0100
0010
,
1000
0100
0010
0001
,
1000
1000
0100
0000
,
0010
0001
1000
0100
,
0100
0000
0010
0001
,
1000
0010
0100
0001
,
1000
1000
0110
0000
,
0200
0010
0001
0001
,
0320
1000
0100
0100
,
2030
0100
0100
0010
,
3002
0010
0100
0010
,
0103
0010
1000
0001
,
1001
0000
0100
0010
,
1000
0001
0010
0100
,
1000
0000
0001
0000
0010
0100
1000
0000
,
1001
0000
1000
0000
0100
0000
0010
0001
,
0010
0000
0000
0100
1000
0000
0100
1000
,
0100
0000
1000
0001
1000
0000
0100
0000
,
0010
0010
2002
3003
,
0100
0000
0010
0000
1000
0000
0001
1000
,
0001
0000
0000
0010
0100
0000
0100
1000
,
0100
0000
0100
1000
0100
0000
0010
0000
,
0001
0100
2002
3003
,
0001
0000
1000
0001
1000
0000
0001
1000
,
0001
0000
0000
1000
0001
0000
0010
0000
,
0100
0000
1000
0000
0001
0001
0001
0000
,
0100
0010
1000
0001
,
0100
0000
0010
0000
1000
0000
0001
1000
,
0001
0000
0010
0000
0100
0000
1000
0100
,
1000
0000
0001
1000
0001
0000
0010
0000
,
0100
0100
2002
3003
,
1000
0000
0001
0100
0001
0000
2000
0000
,
3001
0000
1000
0100
1000
0000
0002
0000
,
0013
0000
0100
1000
0100
0000
0010
0000
,
0001
0000
0001
0000
1001
0000
1000
0010
,
0100
0000
0001
0000
1000
0000
0100
0010
,
0100
0000
0000
0010
0001
0000
1000
0001
,
1000
0000
0100
0010
0100
0000
1000
0000
,
0001
0001
2002
3003
,
1000
0000
0001
0000
1000
0000
0010
1000
,
0010
0000
0100
0000
0001
0000
1000
0001
,
1000
0000
0100
0000
1000
0001
1000
0000
,
0100
0100
2002
3003
,
0100
0000
0001
0000
1000
0000
0001
1000
,
0001
1000
0000
0100
0010
0000
0002
0000
,
1003
0000
0100
0010
0001
0000
1000
0000
,
0010
0010
2002
3003
,
1000
0000
0001
0000
1000
0000
0001
0100
,
0001
0000
1000
0000
0100
0000
0010
0100
,
0010
0000
0100
0000
1000
0001
1000
0000
,
0100
0100
1001
0110
,
1000
0000
0001
0000
1000
0001
1000
0000
,
0200
0000
0300
0000
0010
0000
0001
0100
,
0010
0000
1000
0001
0100
0000
0010
0000
,
1000
0001
0020
0030
,
1001
0000
0000
0000
;

//---------------dance-single - ----------------
#NOTES:
     dance-single:
     :
     Hard:
     7:
     0.542,0.497,0.433,0.166,0.023,347.000,47.000,18.000,0.000,0.000:
0000
0000
0000
0000
,
0000
0000
0000
0000
,
0000
0000
0000
0000
,
0000
0000
0000
0000
,
1001
0000
1000
0100
0001
0000
0001
0100
,
1000
0000
1000
0010
0100
0000
0100
0001
,
0010
0000
0010
0001
0100
0010
1000
0000
,
1001
0000
0110
0000
1001
0000
1000
0001
,
0000
0001
0000
1000
0100
0000
0010
0001
,
0100
0000
0000
0010
1000
0000
0001
0100
,
0010
0000
0010
1000
0100
0000
0010
0000
,
1001
0110
2002
3003
,
1001
0000
1000
0100
1100
0000
0010
0100
,
0110
0000
0010
0001
0011
0000
1000
0010
,
1010
0000
0100
0001
0101
0000
1001
0000
,
2000
3020
0230
0301
,
1000
0001
0000
1000
1001
0000
0001
1000
,
0200
0000
0300
0010
0100
0000
1000
0010
,
0100
0000
0001
1000
0100
0000
0010
0000
,
0001
0010
0100
1000
0100
0010
0001
0010
,
1001
0000
1000
0100
0010
0001
0010
0100
,
2000
0000
3000
0100
1000
0100
0010
0001
,
0010
0000
0100
1000
0010
0100
0001
0000
,
1001
0000
0110
0000
1001
0000
0001
1000
,
0000
0000
0100
0000
0000
0000
0010
0000
0001
0000
0000
0100
0010
0000
1000
0000
,
0002
0000
0003
1000
0100
1000
0010
0100
,
0101
0000
0001
1000
0100
0010
0110
0000
,
0011
1100
0220
0330
,
1001
0000
1000
0100
0001
0100
1000
0010
,
0100
0000
0001
1000
0100
1000
0010
0100
,
0101
0000
0001
1000
0100
0010
0100
0000
,
1100
0000
0110
0000
0011
0000
1001
1100
,
0000
0110
0000
0010
0001
0100
0010
1000
,
0001
0000
0001
1000
0100
0001
0100
1000
,
0010
0000
0010
0100
0001
0010
0001
0100
,
0010
0000
0000
0000
1001
0000
0000
0000
1000
0001
1000
0001
1000
0000
0000
0000
,
1000
0100
0010
0100
1000
0100
0010
0001
,
0100
0001
0010
0001
0100
0010
1000
0001
,
0100
0010
1000
0010
0100
0001
0010
0001
,
0200
0000
0302
0000
2003
0000
3001
1000
,
0100
0000
0100
0010
0001
0010
0100
1000
,
1001
0000
1000
0100
0010
0100
1000
0010
,
0100
0000
0001
0010
0001
0100
0010
0000
,
1001
0000
0110
0000
1001
0000
1000
0100
,
0001
0100
1000
0100
0001
0100
1000
0001
,
1000
0100
1000
0010
0100
0001
0010
0001
,
0100
0010
1000
0001
0100
0010
1000
0000
,
0002
0000
2003
0000
3002
0000
1003
0100
,
0010
0000
0010
0001
0100
0010
1000
0001
,
0100
1001
0000
1000
1100
0100
0010
0001
,
0011
0000
0001
0010
0100
0010
0001
0000
,
1001
0110
2002
3003
,
0001
0010
0100
0010
0001
0010
0100
0010
,
0100
1000
0100
1000
0100
0010
0001
0010
,
0100
0010
0100
1000
0100
0010
0001
0100
,
0010
1000
0010
0100
0001
0010
0001
0100
,
0010
0000
1000
0001
0100
0010
1000
0100
,
0110
0000
0000
0010
0001
0010
0100
1000
,
0010
0000
0010
0100
0001
0010
0001
0000
,
1001
0000
0000
0000
0110
0000
0000
0000
1000
0001
1000
0001
1000
0000
0000
0000
,
0110
0000
0000
0000
;

//---------------dance-single - ----------------
#NOTES:
     dance-single:
     :
     Challenge:
     9:
     0.723,0.911,0.746,0.258,0.456,441.000,81.000,28.000,12.000,19.000:
0000
0000
0000
0000
,
0000
0000
0000
0000
,
0000
0000
0000
0000
,
0000
0000
0000
0000
,
1001
0000
0010
0100
1001
0000
0100
0010
,
1001
0000
1000
0100
0011
0000
0001
0100
,
1010
0000
0010
0100
1001
0000
0100
0000
,
2002
0010
0010
3003
,
0010
1001
0000
0100
1001
0000
1000
0100
,
1001
0000
0000
0010
1001
0000
0100
0010
,
1001
0000
0010
0100
1001
0010
1001
0000
,
2200
0000
0001
0000
0010
3300
0000
0000
,
1100
0000
0000
0100
0010
0000
0001
0000
0110
0000
0000
0100
1000
0000
0100
0000
,
0011
0000
0000
0100
0010
0000
1000
0000
1001
0000
0000
0010
0100
0000
0010
0000
,
0011
0000
0010
0100
0011
0000
0101
0000
,
0202
0010
1000
0303
,
0002
0200
0303
0200
0020
0330
0020
2030
,
0002
0000
3003
0010
0100
0000
0100
1000
,
1001
0000
0100
0010
1001
0100
0110
0000
,
2200
0000
0001
0000
0010
0000
0011
3300
,
1001
0000
0000
0000
1000
0000
0100
0010
0001
0000
0100
0010
1000
0000
0100
0000
,
2002
0000
0000
3003
0000
0000
1000
0100
0010
0000
0001
0100
0010
0000
1000
0000
,
1001
0000
0000
0000
1000
0000
0001
0100
0001
0000
0010
0001
0010
0000
0000
0000
,
0202
0000
0010
0000
1000
0303
0101
0110
,
0M0M
0000
1100
0000
0000
0000
0100
0010
0001
0000
0100
0010
1000
0000
0100
0000
,
1001
0000
M00M
0000
0000
0000
0100
0010
0100
0000
0001
1000
0001
0000
0010
0000
,
0100
0000
1100
0010
0101
0010
1001
0000
,
1000
0001
1000
0001
1000
0000
0000
0000
0110
M00M
0MM0
0000
1MM1
M00M
0000
0000
,
1000
0100
1100
0010
0110
0010
0011
1000
,
0101
0010
1001
1000
1100
0010
0101
0010
,
1001
0100
0110
0010
1010
1000
1100
0010
,
2200
0000
0000
0000
0010
0000
0000
0000
0001
0000
3300
1000
0100
0000
0011
0000
,
0000
0000
0001
0100
0010
0000
1000
0100
0010
0000
0001
1000
0100
0000
0010
0000
,
1001
0000
0000
0000
1000
0000
0001
0100
0001
0000
1000
0001
1000
0000
0100
0000
,
1100
0000
0010
0100
1000
0001
0100
0000
,
0010
0100
1000
0000
0010
0000
1001
0000
,
1000
0100
0010
0001
0010
0100
1000
0010
0100
0001
0100
0010
1000
0010
0100
0001
,
0010
0100
1000
0100
0010
0001
0010
0100
0010
0001
0010
0100
1000
0001
0010
0001
,
1000
0010
1000
0010
0100
0001
1000
0010
0100
0001
0100
0010
0100
0001
0010
0000
,
1001
0000
0110
0000
0100
0000
1001
1000
,
1100
0000
0100
1000
1000
0001
0001
0100
,
0100
0000
0000
1000
0001
0100
0100
0010
,
1010
0000
0001
1000
1100
0000
0101
0000
,
0002
0000
0200
0000
1000
0303
0001
1000
,
1000
0000
0001
0010
0100
1000
0001
0010
0100
1000
0001
0010
0100
0010
0001
0010
,
0100
1000
0100
0010
0001
1000
0010
0100
0001
0100
0010
1000
0010
1000
0010
0100
,
0010
0100
0001
0010
0100
0010
0001
0010
0100
1000
0010
1000
0001
0100
0010
1000
,
0001
1000
0100
0010
0001
0010
0100
0000
1001
0000
0000
0000
0100
0000
0010
0000
,
1001
0000
0010
0100
0001
0100
0010
1000
0001
0010
0100
1000
0100
0010
0001
0100
,
0010
1000
0001
0000
0000
0000
1000
0010
0100
0001
0010
0001
1000
0010
1000
0000
,
1001
0000
0000
0000
0100
0010
1000
0000
0001
1000
0100
0000
0010
0100
1000
0000
,
2200
0000
0001
0000
0010
3300
0000
0000
,
1000
0000
0100
0010
0001
0000
0100
0010
1000
0000
0100
1000
0001
0000
1000
0100
,
1000
0000
0001
0010
0001
0000
0100
0010
0100
0000
0010
0000
1000
0000
0100
0000
,
0010
0000
0001
1000
0100
0000
0010
0100
1000
0000
1000
0000
1100
0000
0000
0000
,
1001
0100
1001
0010
1001
0000
0001
0100
,
0110
0000
1010
0100
0110
0010
0011
1000
,
1001
0000
0000
1000
1100
0100
0011
0100
,
1010
0000
0000
0000
1000
0100
0010
0000
0001
1000
0100
0000
0010
0100
1000
0000
,
2002
0100
0200
0003
,
3310
0000
0000
0000
;
