#TITLE:Hanging On;
#SUBTITLE:(Iridium Trance Remix);
#ARTIST:Iridium + Blake Reary;
#TITLETRANSLIT:;
#SUBTITLETRANSLIT:;
#ARTISTTRANSLIT:;
#CREDIT:;
#BANNER:HangingOnBAN.png;
#BACKGROUND:HangingOnBG.png;
#LYRICSPATH:;
#CDTITLE:;
#MUSIC:hanging_on_remix.ogg;
#OFFSET:-0.040;
#SAMPLESTART:49.550;
#SAMPLELENGTH:15.000;
#SELECTABLE:YES;
#DISPLAYBPM:138.000;
#BPMS:0.000=67.800,22.000=138.000,74.000=276.000,78.000=138.000;
#STOPS:74.000=0.060
,74.250=0.060
,74.500=0.100
,75.000=0.060
,75.250=0.060
,75.500=0.100
,76.000=0.100
,76.500=0.060
,76.750=0.100
,77.250=0.060
,77.500=0.060
,77.750=0.060
;
#BGCHANGES:;
// cache tags:
#FIRSTBEAT:4.750;
#LASTBEAT:284.000;
#SONGFILENAME:Songs/Rodd's Revival/Hanging On (Rodd Steps)/Hanging On Remix.sm;
#HASMUSIC:1;
#HASBANNER:1;
#MUSICLENGTH:133.786;
// end cache tags

//---------------dance-single - RODD Steps----------------
#NOTES:
     dance-single:
     RODD Steps:
     Challenge:
     10:
     0.757,0.876,0.022,0.359,1.000,658.000,3.000,48.000,125.000,0.000:

0000
0000
0000
0000
,
0000
0000
0000
0MM0
0000
M00M
0MM0
0000
0000
0000
0000
0000
0000
0000
0000
0000
,
0000
0000
0000
0000
0000
0000
0000
0000
0000
0MM0
0000
0000
MMMM
0000
0000
0000
,
0000
0000
0000
0000
,
0000
0000
0000
0000
0MM0
0000
0MM0
M00M
0000
0000
0000
0000
0000
0000
0000
0000
,
0000
0000
0000
0000
0000
0000
0000
0000
0010
0001
0010
0100
1000
0000
0001
0100
,
0010
1000
0100
0000
0010
0001
1000
0100
1000
0000
0001
0100
0010
0100
0001
0000
,
1000
0100
0010
0100
1000
0000
0001
0100
0010
1000
0100
0010
0001
0000
0100
0010
,
1000
0100
0010
0000
0001
0100
0001
0100
0010
0000
1000
0100
1000
0100
0010
0000
,
0001
0000
0100
0000
0010
0000
1000
0000
0001
0100
0010
1000
0100
0010
0001
0010
,
0100
1000
0001
0100
0010
1000
0100
0010
0001
1000
0001
1000
0001
0100
0010
0100
,
0010
0100
0010
1000
0100
0010
0001
0010
0200
M000
0000
M00M
0000
000M
0320
0000
,
M00M
0000
M000
0000
0M32
0000
M000
0000
00M0
0000
0203
0000
00M0
M00M
0000
0000
,
230M
0000
00MM
0000
3200
0000
0310
0000
1000
0010
0000
1000
0010
0000
1000
0000
,
0100
0000
0001
0000
0100
0000
0010
0000
0001
0100
0000
0001
0010
0000
0100
0000
,
1000
0000
0001
0000
0100
0000
0010
0000
1000
0100
0000
1000
0010
0000
0100
0000
,
0001
0000
1000
0000
0010
0000
0100
0000
0010
1000
0000
0010
0100
0000
0010
0000
,
1000
0100
0010
0001
0100
0010
0001
0010
,
1000
0000
0100
0000
0010
0000
0001
0000
M10M
0010
100M
0000
0100
M010
0001
0000
,
M100
0000
001M
0100
M000
0100
001M
1000
010M
0000
0000
0000
0000
0010
0001
0000
,
0100
0000
0000
0000
0000
0000
0010
0000
0000
1000
0000
0000
0100
0000
1000
0000
0100
0000
1000
0000
0000
0000
0000
0000
0100
0000
0000
0000
0000
0000
0010
0000
0000
0000
0000
0000
0001
0000
0000
0000
0000
0000
0100
0000
0000
0000
0000
0000
,
0010
0100
0010
0000
0100
0000
0001
0000
1000
0000
0100
0010
0001
0000
0100
0000
,
1000
0000
0100
0000
0010
0000
1000
0000
0100
0000
0010
0100
0010
0000
0001
0000
,
0100
0000
0010
0000
0100
0000
0001
0000
1000
0000
0100
1000
0100
0000
0010
0000
,
0100
0000
0010
0000
0001
0000
0100
0000
0010
0000
1000
0100
0010
0000
0001
0000
,
0100
0000
0010
0000
0100
0000
0001
0000
1000
0100
0010
0001
0010
0100
1000
0001
,
0100
0010
1000
0001
0100
0010
1000
0100
0010
0100
1000
0001
0100
0010
0100
0001
,
1000
0100
0010
0100
1000
0001
0100
0010
0100
0001
1000
0100
0010
0100
0010
0001
,
0100
0010
1000
0100
1000
0010
0100
0001
1000
0010
0100
0001
0010
0001
0100
0010
,
1000
0001
0100
0010
1000
0100
0010
0001
0100
0000
0010
1000
0000
1000
0100
0000
,
0000
0010
0000
0000
0001
0100
0010
1000
0100
0000
0010
0001
0000
0001
0100
0000
,
0000
0010
0000
0000
1000
0100
1000
0100
1000
0000
0100
0010
0000
0010
0001
0000
,
0000
1000
0000
0000
0100
0010
0100
0010
0001
0000
0001
0100
0000
0100
0010
0000
,
0000
1000
0000
0100
1000
0100
1000
0001
0100
0000
0010
1000
0000
0010
0100
0000
,
0010
1000
0000
0100
0010
0001
0010
0100
1000
0000
1000
0001
0000
0001
0100
0000
,
0100
0010
0000
0010
1000
0100
0010
0001
0100
0000
0100
0001
0000
0100
1000
0000
,
0100
0001
0000
0010
0100
1000
0100
0010
0001
0000
0010
1000
0000
0010
0001
0000
,
0001
0100
0010
1000
0100
0010
0001
0100
0110
0000
0010
0000
1000
0000
0100
0000
,
0001
0100
0010
0001
0100
0010
1000
0100
,
1000
0000
0001
0000
0100
0000
0010
0000
1000
0000
0100
1000
0000
0100
1000
0000
,
0100
0000
0010
0000
0001
0000
0100
0000
0001
0000
0100
0001
0000
0100
0001
0000
,
0100
0000
0010
0000
1000
0000
0200
00M0
0000
000M
0000
M000
0302
0000
0203
M000
,
0000
000M
0320
0000
0M00
0000
M032
0000
0000
0000
0203
00M0
0000
0000
M000
000M
,
0000
03M0
2100
320M
0000
M320
0000
2M30
,
0000
000M
3200
0000
00M0
0000
00MM
0000
0000
00MM
0000
M000
0300
0000
0010
0000
,
0001
0000
0100
0000
0010
0000
1000
0000
0100
0010
0001
0000
0100
0010
1000
0000
,
0100
0010
0001
0000
0100
0010
0100
0000
0010
1000
0100
0000
0010
0100
0010
0000
,
0001
0010
0001
0000
0100
0010
1000
0000
0100
0010
0001
0000
0100
0001
0100
0000
,
0010
1000
0010
0000
1000
0100
1000
0000
0001
1000
0001
0000
0100
0010
0100
0000
,
0010
1000
0010
0000
1000
0000
0100
0000
0010
0001
0010
0001
0010
0001
0100
0001
,
0100
0001
0100
0010
1000
0010
1000
0100
1000
0100
1000
0100
0010
0100
0010
0100
,
0010
0100
0010
0001
0010
0001
0010
0001
0100
0010
1000
0100
0010
0100
1000
0001
,
0100
0010
1000
0001
0100
0010
1000
0100
1000
0010
0100
0001
1000
0010
0100
0001
,
1000
0010
0100
0001
0010
0100
1000
0001
0200
M00M
0000
M000
0000
000M
0320
0000
,
M000
0000
0000
M000
000M
0000
0000
000M
2030
0000
0M00
0000
3000
0000
02M0
0000
,
0000
M0M0
0000
0000
M302
0000
02M3
0000
0000
M000
0320
0000
0032
0000
0203
0000
,
0320
2030
3200
0320
0000
0030
0000
0MM0
,
0MM0
M00M
0000
0000
0000
0000
0000
0000
1000
0100
0010
0001
0010
0100
1000
0001
,
0100
0010
1000
0001
0100
0010
0100
0001
1000
0100
0010
0100
1000
0001
0100
0010
,
0100
0001
1000
0100
0010
0001
0010
0100
1000
0001
1000
0001
0100
0010
0100
0010
,
1000
0100
0010
0001
0010
0100
1000
0001
0100
0001
0100
0010
0100
0001
1000
0100
,
0010
0001
0100
0010
1000
0100
0010
0001
0200
0000
0000
0320
0000
0000
2030
0000
,
0000
3200
0000
0000
0000
0000
0300
0000
0020
0000
0000
0032
0000
0000
0203
0000
,
0000
0300
0020
0000
0000
0000
2030
0000
3200
0000
0000
0000
0320
0000
0032
0000
,
0000
0000
0000
0003
0200
0000
0320
0000
0000
0000
2030
0000
0000
0000
0000
0000
,
3000
0000
0000
0000
0100
0000
0000
0000
0010
0001
0010
0100
1000
0001
0100
0010
,
1000
0100
0010
0001
0010
0100
1000
0001
0100
0010
0100
0001
1000
0100
0010
0100
,
1000
0001
0100
0010
1000
0100
0010
0001
0100
0010
1000
0100
0010
0100
0010
0100
,
0010
0001
0100
0010
1000
0100
0010
0001
0200
0000
M000
0000
0000
0000
000M
0000
,
0000
0000
M000
000M
0300
0000
M000
0000
022M
0000
M00M
0000
M00M
0000
M00M
0000
,
M00M
0000
0000
M00M
0000
0000
M00M
0000
M00M
0000
M00M
0000
M00M
0000
M00M
0000
M00M
0000
0000
0000
M00M
0000
0000
0000
M00M
0000
0000
0000
0000
0000
M00M
0000
0000
0000
0000
0000
M33M
0000
0000
0000
0000
0000
M00M
0000
0000
0000
0000
0000
,
0MM0
0000
0000
0000
;
