#TITLE:Baby;
#SUBTITLE:Sexuality Violation;
#ARTIST:Justin Bieber feat. Ludacris;
#TITLETRANSLIT:;
#SUBTITLETRANSLIT:;
#ARTISTTRANSLIT:;
#CREDIT:;
#BANNER:Baby-bn.png;
#BACKGROUND:Baby-bg.png;
#LYRICSPATH:;
#CDTITLE:GazeboCD.png;
#MUSIC:Baby.ogg;
#OFFSET:-1.475;
#SAMPLESTART:44.642;
#SAMPLELENGTH:15.925;
#SELECTABLE:YES;
#BPMS:0.000=260.000;
#STOPS:;
#BGCHANGES:;
// cache tags:
#FIRSTBEAT:10.000;
#LASTBEAT:897.500;
#SONGFILENAME:Songs/Sexuality Violation 2/Baby - [Gazebo]/Baby.sm;
#HASMUSIC:1;
#HASBANNER:1;
#MUSICLENGTH:211.853;
// end cache tags

//---------------dance-single - Gazebo----------------
#NOTES:
     dance-single:
     Gazebo:
     Challenge:
     18:
     1.000,1.000,0.099,0.477,1.000,1543.000,21.000,101.000,17.000,0.000:

0000
0000
0000
0000
,
0000
0000
0000
0000
,
0000
0000
2000
3200
,
0320
0230
2300
3002
,
0203
0300
0000
0000
,
0000
0000
0000
0000
,
0000
0000
0002
2003
,
3020
2030
3002
2003
,
3200
0300
0000
0000
,
0000
0000
0000
0000
,
0000
0000
2000
3002
,
0023
0000
0031
1000
0000
0010
0000
0000
,
0020
0000
0130
0002
0000
0000
0000
0000
,
0000
0003
0000
0000
,
0000
0000
0000
0000
,
0000
1000
0010
0100
,
0001
0000
0000
0001
1000
0000
0001
0000
,
0000
0001
0010
0100
,
1000
0000
0000
1000
0001
0000
1000
0000
,
0000
1000
0010
0100
,
0001
0000
0000
0001
1000
0000
0001
0000
,
0000
0001
0010
0100
,
1000
0000
0000
1000
0001
0000
1000
0000
,
0000
0010
0010
0100
,
0001
0000
0000
0001
1000
0000
0001
0000
,
0000
0010
0010
0100
,
1000
0000
0000
1000
0001
0000
1000
0000
,
0000
0001
0001
0100
,
0100
0010
0100
0010
,
0100
0010
0100
0010
,
0100
0000
0000
0100
0001
0000
0000
0000
,
0000
1000
0100
0010
,
0001
0000
0000
0001
1000
0000
0001
0000
,
0000
0001
0100
0010
,
1000
0000
0000
1000
0001
0000
1000
0000
,
0000
1000
0100
0010
,
0001
0000
0000
0001
1000
0000
0001
0000
,
0000
0100
0100
0010
,
1000
0000
0000
1000
0001
0000
1000
0000
,
0000
0100
0100
0010
,
0001
0000
0000
0001
1000
0000
0001
0000
,
0100
0010
0010
0100
,
0001
0000
0000
0001
1000
0000
0001
0000
,
0000
1000
0100
0000
,
0110
0000
0010
0001
,
0001
1000
0001
0200
,
0000
0020
0330
1000
,
1000
0001
2000
0000
,
3001
0100
0001
0100
0010
1000
0010
0100
0001
1000
0001
1000
0010
0100
0010
1000
,
0001
0100
0001
0100
0010
1000
0010
0100
0001
1000
0001
0100
0010
0100
0010
1000
,
0001
1000
0010
0100
0001
0100
0001
1000
0100
1000
0100
1000
0100
1000
0100
1000
,
0100
1000
0100
1000
0100
1000
0100
1000
0002
0000
0003
0000
0000
0000
0000
0000
,
1000
0100
1000
0100
0010
0001
0010
0100
1000
0001
1000
0001
0010
0100
0010
0001
,
1000
0100
1000
0100
0010
0001
0010
0100
1000
0001
1000
0100
0010
0100
0010
0001
,
1000
0001
0010
0100
1000
0100
1000
0001
0100
0001
0100
0001
0100
0001
0100
0001
,
0100
0001
0100
0001
0100
0001
0100
0001
2000
0000
3000
0000
0000
0000
0000
0000
,
0001
0100
0001
0100
0010
1000
0010
0100
0001
1000
0001
1000
0010
0100
0010
1000
,
0001
0100
0001
0100
0010
1000
0010
0100
0001
1000
0001
0100
0010
0100
0010
1000
,
0001
1000
0010
0100
0001
0100
0001
1000
0100
1000
0100
1000
0100
1000
0100
1000
,
0100
1000
0100
1000
0100
1000
0100
1000
0100
0000
0000
0000
0000
0000
0000
0000
,
2000
3002
2003
3000
,
0002
2003
3200
0320
,
0230
0000
0000
2300
,
3002
0000
0000
0000
,
1003
0100
1000
0100
0010
0001
0010
0100
1000
0001
1000
0001
0010
0100
0010
0001
,
1000
0100
1000
0100
0010
0001
0010
0100
1000
0001
1000
0100
0010
0100
0010
0001
,
1000
0001
0010
0100
1000
0100
1000
0001
0100
0001
0100
0001
0100
0001
0100
0001
,
0100
0001
0100
0001
0100
0001
0100
0001
2000
0000
3000
0000
0000
0000
0000
0000
,
0001
0100
0001
0100
0010
1000
0010
0100
0001
1000
0001
1000
0010
0100
0010
1000
,
0001
0100
0001
0100
0010
1000
0010
0100
0001
1000
0001
0100
0010
0100
0010
1000
,
0001
1000
0010
0100
0001
0100
0001
1000
0100
1000
0100
1000
0100
1000
0100
1000
,
0100
1000
0100
1000
0100
1000
0100
1000
0002
0000
0003
0000
0000
0000
0000
0000
,
1000
0100
1000
0100
0010
0001
0010
0100
1000
0001
1000
0001
0010
0100
0010
0001
,
1000
0100
1000
0100
0010
0001
0010
0100
1000
0001
1000
0100
0010
0100
0010
0001
,
1000
0001
0010
0100
1000
0100
1000
0001
0100
0001
0100
0001
0100
0001
0100
0001
,
0100
0001
0100
0001
0100
0001
0100
0001
0100
0000
0000
0000
0000
0000
0000
0000
,
0002
2003
3002
0003
,
2000
3002
0203
0320
,
0230
0000
0000
0302
,
1003
0100
0000
0100
,
1000
0000
0000
1000
0001
0000
0100
0000
,
0001
0001
0010
0100
,
1000
0000
0000
1000
0001
0000
1000
0000
,
0000
1000
0010
0100
,
0001
0000
0000
0001
1000
0000
0001
0000
,
0000
0001
0010
0100
,
1000
0000
0000
1000
0001
0000
1000
0000
,
0000
0000
0010
1000
0010
0000
0100
0000
,
0001
0000
0000
0001
1000
0000
0001
0000
,
0000
0001
0010
0100
,
1000
0000
0000
1000
0001
0000
1000
0000
,
0000
0001
0001
0100
,
0010
0000
0000
0010
1000
0000
0010
0000
,
0000
0010
0100
0001
,
1000
0000
0000
1000
0000
0000
1000
0000
,
0000
0100
0100
0010
,
0001
0000
0000
0001
1000
0000
0001
0000
,
0000
0001
0100
0010
,
1000
0000
0000
1000
0001
0000
1000
0000
,
0000
1000
0100
0010
,
0001
0001
0100
0010
,
1000
1000
0100
0010
,
0001
0000
0000
1000
0001
0000
0010
0000
,
0000
0100
1000
0001
,
1000
0010
0200
0000
,
0000
0000
0300
0200
0000
0000
0000
0000
,
0300
0200
0000
0000
0000
0300
0200
0000
,
0000
0310
1000
1000
,
1001
0000
0000
0000
,
1001
0000
0000
0000
,
1001
0000
1001
0000
,
1001
0000
1001
0000
,
0001
0100
0001
0100
0010
1000
0010
0100
0001
1000
0001
1000
0010
0100
0010
1000
,
0001
0100
0001
0100
0010
1000
0010
0100
0001
1000
0001
0100
0010
0100
0010
1000
,
0001
1000
0010
0100
0001
0100
0001
1000
0100
1000
0100
1000
0100
1000
0100
1000
,
0100
1000
0100
1000
0100
1000
0100
1000
0002
0000
0003
0000
0000
0000
0000
0000
,
1000
0100
1000
0100
0010
0001
0010
0100
1000
0001
1000
0001
0010
0100
0010
0001
,
1000
0100
1000
0100
0010
0001
0010
0100
1000
0001
1000
0100
0010
0100
0010
0001
,
1000
0001
0010
0100
1000
0100
1000
0001
0100
0001
0100
0001
0100
0001
0100
0001
,
0100
0001
0100
0001
0100
0001
0100
0001
2000
0000
3000
0000
0000
0000
0000
0000
,
0001
0100
0001
0100
0010
1000
0010
0100
0001
1000
0001
1000
0010
0100
0010
1000
,
0001
0100
0001
0100
0010
1000
0010
0100
0001
1000
0001
0100
0010
0100
0010
1000
,
0001
1000
0010
0100
0001
0100
0001
1000
0100
1000
0100
1000
0100
1000
0100
1000
,
0100
1000
0100
1000
0100
1000
0100
1000
0100
0000
0000
0000
0000
0000
0000
0000
,
2000
3002
2003
3000
,
0002
2003
3200
0320
,
0230
0000
0000
2300
,
3002
0000
0000
0000
,
1003
0100
1000
0100
0010
0001
0010
0100
1000
0001
1000
0001
0010
0100
0010
0001
,
1000
0100
1000
0100
0010
0001
0010
0100
1000
0001
1000
0100
0010
0100
0010
0001
,
1000
0001
0010
0100
1000
0100
1000
0001
0100
0001
0100
0001
0100
0001
0100
0001
,
0100
0001
0100
0001
0100
0001
0100
0001
2000
0000
3000
0000
0000
0000
0000
0000
,
0001
0100
0001
0100
0010
1000
0010
0100
0001
1000
0001
1000
0010
0100
0010
1000
,
0001
0100
0001
0100
0010
1000
0010
0100
0001
1000
0001
0100
0010
0100
0010
1000
,
0001
1000
0010
0100
0001
0100
0001
1000
0100
1000
0100
1000
0100
1000
0100
1000
,
0100
1000
0100
1000
0100
1000
0100
1000
0002
0000
0003
0000
0000
0000
0000
0000
,
1000
0100
1000
0100
0010
0001
0010
0100
1000
0001
1000
0001
0010
0100
0010
0001
,
1000
0100
1000
0100
0010
0001
0010
0100
1000
0001
1000
0100
0010
0100
0010
0001
,
1000
0001
0010
0100
1000
0100
1000
0001
0100
0001
0100
0001
0100
0001
0100
0001
,
0100
0001
0100
0001
0100
0001
0100
0001
0100
0000
0000
0000
0000
0000
0000
0000
,
0002
2003
3002
0003
,
2000
3002
0203
0320
,
0230
0000
0000
0302
,
2003
0000
0010
3010
,
1000
0001
0010
0001
,
1100
0000
1100
0000
,
1000
0001
0100
0010
,
1010
0000
1001
0000
,
0001
0100
0001
0100
0010
1000
0100
0010
,
0001
0000
0001
0010
0100
1000
0100
1000
,
0001
0100
0010
0100
0001
0010
0100
1000
,
0001
0100
0001
1000
0020
0000
0000
0000
,
1030
0100
0010
0001
,
1000
0000
0001
0000
0100
0000
0000
0010
,
1000
0001
0010
0100
,
1100
0000
1100
0000
,
0001
0100
0001
1000
,
0010
0000
0000
0000
1000
0000
0000
0001
,
0010
0100
0010
0001
,
1100
0000
1001
0000
,
MMMM
0001
0100
0010
,
1001
0000
1001
0000
,
1000
0100
0010
0100
1000
0000
1000
0001
,
0100
0010
0100
0010
1000
0000
0001
0000
,
0100
0000
0001
0000
0010
0000
0100
0010
,
0001
0000
1001
0000
,
1000
0000
0001
0100
0010
0100
0010
0100
,
0001
1000
0100
0010
0001
0000
1000
0000
,
0100
1000
0010
0100
,
0001
0000
0100
0000
0010
0000
0000
1000
,
0001
1000
0100
0010
,
0001
0000
1000
0000
0010
0000
0000
0100
,
0001
0000
0000
0000
,
0000
0000
1010
1001
,
0000
0000
0000
0000
,
M000
0M00
00M0
000M
00M0
0M00
M000
0M00
00M0
000M
00M0
0M00
M000
0000
0000
0000
,
0001
0100
0001
0100
0010
1000
0010
0100
0001
1000
0001
1000
0010
0100
0010
1000
,
0001
0100
0001
0100
0010
1000
0010
0100
0001
1000
0001
0100
0010
0100
0010
1000
,
0001
1000
0010
0100
0001
0100
0001
1000
0100
1000
0100
1000
0100
1000
0100
1000
,
0100
1000
0100
1000
0100
1000
0100
1000
0002
0000
0003
0000
0000
0000
0000
0000
,
1000
0100
1000
0100
0010
0001
0010
0100
1000
0001
1000
0001
0010
0100
0010
0001
,
1000
0100
1000
0100
0010
0001
0010
0100
1000
0001
1000
0100
0010
0100
0010
0001
,
1000
0001
0010
0100
1000
0100
1000
0001
0100
0001
0100
0001
0100
0001
0100
0001
,
0100
0001
0100
0001
0100
0001
0100
0001
2000
0000
3000
0000
0000
0000
0000
0000
,
0001
0100
0001
0100
0010
1000
0010
0100
0001
1000
0001
1000
0010
0100
0010
1000
,
0001
0100
0001
0100
0010
1000
0010
0100
0001
1000
0001
0100
0010
0100
0010
1000
,
0001
1000
0010
0100
0001
0100
0001
1000
0100
1000
0100
1000
0100
1000
0100
1000
,
0100
1000
0100
1000
0100
1000
0100
1000
0100
0000
0000
0000
0000
0000
0000
0000
,
2000
3002
2003
3000
,
0002
2003
3200
0320
,
0230
0000
0000
2300
,
3002
0000
0000
0000
,
1003
0100
1000
0100
0010
0001
0010
0100
1000
0001
1000
0001
0010
0100
0010
0001
,
1000
0100
1000
0100
0010
0001
0010
0100
1000
0001
1000
0100
0010
0100
0010
0001
,
1000
0001
0010
0100
1000
0100
1000
0001
0100
0001
0100
0001
0100
0001
0100
0001
,
0100
0001
0100
0001
0100
0001
0100
0001
2000
0000
3000
0000
0000
0000
0000
0000
,
0001
0100
0001
0100
0010
1000
0010
0100
0001
1000
0001
1000
0010
0100
0010
1000
,
0001
0100
0001
0100
0010
1000
0010
0100
0001
1000
0001
0100
0010
0100
0010
1000
,
0001
1000
0010
0100
0001
0100
0001
1000
0100
1000
0100
1000
0100
1000
0100
1000
,
0100
1000
0100
1000
0100
1000
0100
1000
0002
0000
0003
0000
0000
0000
0000
0000
,
1000
0100
1000
0100
0010
0001
0010
0100
1000
0001
1000
0001
0010
0100
0010
0001
,
1000
0100
1000
0100
0010
0001
0010
0100
1000
0001
1000
0100
0010
0100
0010
0001
,
1000
0001
0010
0100
1000
0100
1000
0001
0100
0001
0100
0001
0100
0001
0100
0001
,
0100
0001
0100
0001
0100
0001
0100
0001
0100
0000
0000
0000
0000
0000
0000
0000
,
0002
2003
3002
0003
,
2000
3002
0203
0320
,
0230
0000
0000
0302
,
2003
0000
3000
2000
,
3001
0010
0001
0010
0001
1000
0010
0100
,
0010
0100
0001
1000
0100
0000
1000
0000
,
0001
0010
0001
0010
0001
1000
0010
0100
,
0010
0100
0001
1000
0100
0000
1000
0000
,
0001
0100
0001
0100
0001
1000
0100
0010
,
0100
0010
0001
1000
0010
0000
1000
0000
,
0001
0100
0001
0100
0001
1000
0100
0010
,
0100
0010
0001
1000
0010
0000
1000
0000
,
0100
0010
0100
0010
0100
1000
0001
0100
,
0001
0100
0010
1000
0001
0000
1000
0000
,
0100
0010
0100
0010
0100
1000
0001
0100
,
0001
0100
0010
1000
0001
0000
0100
0000
,
0110
0000
0000
0010
,
0100
0000
0000
0010
,
0100
0000
0000
0002
,
0000
0000
0000
2000
,
0000
0000
0000
3003
0000
0000
0000
0000
;

//---------------dance-single - Gazebo----------------
#NOTES:
     dance-single:
     Gazebo:
     Hard:
     15:
     1.000,1.000,0.099,0.132,1.000,1604.000,21.000,28.000,17.000,0.000:
0000
0000
0000
0000
,
0000
0000
0000
0000
,
0000
0000
2000
3200
,
0320
0230
2300
3002
,
0203
0300
0000
0000
,
0000
0000
0000
0000
,
0000
0000
0002
2003
,
3020
2030
3002
2003
,
3200
0300
0000
0000
,
0000
0000
0000
0000
,
0000
0000
2000
3002
,
0023
0000
0031
1000
0000
0010
0000
0000
,
0020
0000
0130
0002
0000
0000
0000
0000
,
0000
0003
0000
0000
,
0000
0000
0000
0000
,
0000
1000
0010
0100
,
0001
0000
0000
0001
1000
0000
0001
0000
,
0000
0001
0010
0100
,
1000
0000
0000
1000
0001
0000
1000
0000
,
0000
1000
0010
0100
,
0001
0000
0000
0001
1000
0000
0001
0000
,
0000
0001
0010
0100
,
1000
0000
0000
1000
0001
0000
1000
0000
,
0000
0010
0010
0100
,
0001
0000
0000
0001
1000
0000
0001
0000
,
0000
0010
0010
0100
,
1000
0000
0000
1000
0001
0000
1000
0000
,
0000
0001
0001
0100
,
0100
0010
0100
0010
,
0100
0010
0100
0010
,
0100
0000
0000
0100
0001
0000
0000
0000
,
0000
1000
0100
0010
,
0001
0000
0000
0001
1000
0000
0001
0000
,
0000
0001
0100
0010
,
1000
0000
0000
1000
0001
0000
1000
0000
,
0000
1000
0100
0010
,
0001
0000
0000
0001
1000
0000
0001
0000
,
0000
0100
0100
0010
,
1000
0000
0000
1000
0001
0000
1000
0000
,
0000
0100
0100
0010
,
0001
0000
0000
0001
1000
0000
0001
0000
,
0100
0010
0010
0100
,
0001
0000
0000
0001
1000
0000
0001
0000
,
0000
1000
0100
0000
,
0110
0000
0010
0001
,
0001
1000
0001
0200
,
0000
0010
0000
0301
,
0001
1000
0002
0000
,
1003
0100
1000
0100
0010
0001
1000
0010
1000
0001
0100
0001
,
1000
0100
1000
0100
0010
0001
1000
0010
1000
0100
1000
0100
,
0010
0001
1000
0100
1000
0010
0100
0001
1000
0001
1000
0010
,
1000
0001
0100
0001
1000
0001
0010
0100
0010
0100
0010
0001
,
1000
0010
1000
0010
0100
0001
1000
0100
1000
0001
0010
0001
,
1000
0010
1000
0010
0100
0001
1000
0100
1000
0010
1000
0010
,
0100
0001
1000
0010
1000
0100
0010
0100
1000
0100
0010
0100
,
1000
0100
0010
0001
1000
0001
0100
0010
0100
0010
0100
0001
,
1000
0100
1000
0100
0010
0001
1000
0010
1000
0001
0100
0001
,
1000
0100
1000
0100
0010
0001
1000
0010
1000
0100
1000
0100
,
0010
0001
1000
0100
1000
0010
0100
0001
1000
0001
1000
0010
,
1000
0001
0100
0001
1000
0001
0010
0001
1000
0100
1000
0001
,
1000
0010
1000
0001
0010
0001
1000
0010
1000
0010
0100
0001
,
1000
0100
1000
0001
0010
0001
0010
0100
1000
0001
1000
0001
,
0100
0010
0100
0010
1000
0001
0100
0001
1000
0001
1000
0100
,
0010
0001
0010
0001
1000
0100
1000
0001
0010
0001
1000
0001
,
1000
0010
1000
0010
0100
0001
1000
0100
1000
0001
0010
0001
,
1000
0010
1000
0010
0100
0001
1000
0100
1000
0010
1000
0010
,
0100
0001
1000
0010
1000
0100
0010
0001
1000
0001
1000
0100
,
1000
0001
0010
0001
1000
0001
0100
0010
0100
0010
0100
0001
,
1000
0100
1000
0100
0010
0001
1000
0010
1000
0001
0100
0001
,
1000
0100
1000
0100
0010
0001
1000
0010
1000
0100
1000
0100
,
0010
0001
1000
0100
1000
0010
0100
0010
1000
0010
0100
0010
,
1000
0010
0100
0001
1000
0001
0010
0100
0010
0100
0010
0001
,
1000
0010
1000
0010
0100
0001
1000
0100
1000
0001
0010
0001
,
1000
0010
1000
0010
0100
0001
1000
0100
1000
0010
1000
0010
,
0100
0001
1000
0010
1000
0100
0010
0001
1000
0001
1000
0100
,
1000
0001
0010
0001
1000
0001
0100
0001
1000
0010
1000
0001
,
1000
0100
1000
0001
0100
0001
1000
0100
1000
0100
0010
0001
,
1000
0010
1000
0001
0100
0001
0100
0010
1000
0001
1000
0001
,
0010
0100
0010
0100
1000
0001
0010
0001
1000
0001
1000
0010
,
0100
0001
1000
0001
0010
0001
0010
0100
1000
0100
1000
0001
,
1000
0000
0000
1000
0001
0000
0100
0000
,
0001
0001
0010
0100
,
1000
0000
0000
1000
0001
0000
1000
0000
,
0000
1000
0010
0100
,
0001
0000
0000
0001
1000
0000
0001
0000
,
0000
0001
0010
0100
,
1000
0000
0000
1000
0001
0000
1000
0000
,
0000
0000
0010
1000
0010
0000
0100
0000
,
0001
0000
0000
0001
1000
0000
0001
0000
,
0000
0001
0010
0100
,
1000
0000
0000
1000
0001
0000
1000
0000
,
0000
0001
0001
0100
,
0010
0000
0000
0010
1000
0000
0010
0000
,
0000
0010
0100
0001
,
1000
0000
0000
1000
0000
0000
1000
0000
,
0000
0100
0100
0010
,
0001
0000
0000
0001
1000
0000
0001
0000
,
0000
0001
0100
0010
,
1000
0000
0000
1000
0001
0000
1000
0000
,
0000
1000
0100
0010
,
0001
0001
0100
0010
,
1000
1000
0100
0010
,
0001
0000
0000
1000
0001
0000
0010
0000
,
0000
0100
1000
0001
,
1000
0010
0200
0000
,
0000
0000
0300
0200
0000
0000
0000
0000
,
0300
0200
0000
0000
0000
0300
0200
0000
,
0000
0310
1000
1000
,
1001
0000
0000
0000
,
1001
0000
0000
0000
,
1001
0000
1001
0000
,
1001
0000
1001
0000
,
1000
0100
1000
0100
0010
0001
1000
0010
1000
0001
0100
0001
,
1000
0100
1000
0100
0010
0001
1000
0010
1000
0100
1000
0100
,
0010
0001
1000
0100
1000
0010
0100
0001
1000
0001
1000
0010
,
1000
0001
0100
0001
1000
0001
0010
0100
0010
0100
0010
0001
,
1000
0010
1000
0010
0100
0001
1000
0100
1000
0001
0010
0001
,
1000
0010
1000
0010
0100
0001
1000
0100
1000
0010
1000
0010
,
0100
0001
1000
0010
1000
0100
0010
0100
1000
0100
0010
0100
,
1000
0100
0010
0001
1000
0001
0100
0010
0100
0010
0100
0001
,
1000
0100
1000
0100
0010
0001
1000
0010
1000
0001
0100
0001
,
1000
0100
1000
0100
0010
0001
1000
0010
1000
0100
1000
0100
,
0010
0001
1000
0100
1000
0010
0100
0001
1000
0001
1000
0010
,
1000
0001
0100
0001
1000
0001
0010
0001
1000
0100
1000
0001
,
1000
0010
1000
0001
0010
0001
1000
0010
1000
0010
0100
0001
,
1000
0100
1000
0001
0010
0001
0010
0100
1000
0001
1000
0001
,
0100
0010
0100
0010
1000
0001
0100
0001
1000
0001
1000
0100
,
0010
0001
0010
0001
1000
0100
1000
0001
0010
0001
1000
0001
,
1000
0010
1000
0010
0100
0001
1000
0100
1000
0001
0010
0001
,
1000
0010
1000
0010
0100
0001
1000
0100
1000
0010
1000
0010
,
0100
0001
1000
0010
1000
0100
0010
0001
1000
0001
1000
0100
,
1000
0001
0010
0001
1000
0001
0100
0010
0100
0010
0100
0001
,
1000
0100
1000
0100
0010
0001
1000
0010
1000
0001
0100
0001
,
1000
0100
1000
0100
0010
0001
1000
0010
1000
0100
1000
0100
,
0010
0001
1000
0100
1000
0010
0100
0010
1000
0010
0100
0010
,
1000
0010
0100
0001
1000
0001
0010
0100
0010
0100
0010
0001
,
1000
0010
1000
0010
0100
0001
1000
0100
1000
0001
0010
0001
,
1000
0010
1000
0010
0100
0001
1000
0100
1000
0010
1000
0010
,
0100
0001
1000
0010
1000
0100
0010
0001
1000
0001
1000
0100
,
1000
0001
0010
0001
1000
0001
0100
0001
1000
0010
1000
0001
,
1000
0100
1000
0001
0100
0001
1000
0100
1000
0100
0010
0001
,
1000
0010
1000
0001
0100
0001
0100
0010
1000
0001
1000
0001
,
0010
0100
0010
0100
1000
0001
0010
0001
1000
0001
1000
0010
,
0100
0001
1000
0001
0010
0001
0010
0100
1000
0100
1000
0001
,
1000
0001
0010
0001
,
1100
0000
1100
0000
,
1000
0001
0100
0010
,
1010
0000
1001
0000
,
0001
0100
0001
0100
0010
1000
0100
0010
,
0001
0000
0001
0010
0100
1000
0100
1000
,
0001
0100
0010
0100
0001
0010
0100
1000
,
0001
0100
0001
1000
0020
0000
0000
0000
,
1030
0100
0010
0001
,
1000
0000
0001
0000
0100
0000
0000
0010
,
1000
0001
0010
0100
,
1100
0000
1100
0000
,
0001
0100
0001
1000
,
0010
0000
0000
0000
1000
0000
0000
0001
,
0010
0100
0010
0001
,
1100
0000
1001
0000
,
MMMM
0001
0100
0010
,
1001
0000
1001
0000
,
1000
0100
0010
0100
1000
0000
1000
0001
,
0100
0010
0100
0010
1000
0000
0001
0000
,
0100
0000
0001
0000
0010
0000
0100
0010
,
0001
0000
1001
0000
,
1000
0000
0001
0100
0010
0100
0010
0100
,
0001
1000
0100
0010
0001
0000
1000
0000
,
0100
1000
0010
0100
,
0001
0000
0100
0000
0010
0000
0000
1000
,
0001
1000
0100
0010
,
0001
0000
1000
0000
0010
0000
0000
0100
,
0001
0000
0000
0000
,
0000
0000
1010
1001
,
0000
0000
0000
0000
,
M000
0M00
00M0
000M
00M0
0M00
M000
0M00
00M0
000M
00M0
0M00
M000
0000
0000
0000
,
0001
0100
0001
0100
0010
1000
0001
0010
0001
1000
0100
1000
,
0001
0100
0001
0100
0010
1000
0001
0010
0001
0100
0001
0100
,
0010
1000
0001
0100
0001
0010
0100
1000
0001
1000
0001
0010
,
0001
1000
0100
1000
0001
1000
0010
0100
0010
0100
0010
1000
,
0001
0010
0001
0010
0100
1000
0001
0100
0001
1000
0010
1000
,
0001
0010
0001
0010
0100
1000
0001
0100
0001
0010
0001
0010
,
0100
1000
0001
0010
0001
0100
0010
0100
0001
0100
0010
0100
,
0001
0100
0010
1000
0001
1000
0100
0010
0100
0010
0100
1000
,
0001
0100
0001
0100
0010
1000
0001
0010
0001
1000
0100
1000
,
0001
0100
0001
0100
0010
1000
0001
0010
0001
0100
0001
0100
,
0010
1000
0001
0100
0001
0010
0100
1000
0001
1000
0001
0010
,
0001
1000
0100
1000
0001
1000
0010
1000
0001
0100
0001
1000
,
0001
0010
0001
1000
0010
1000
0001
0010
0001
0010
0100
1000
,
0001
0100
0001
1000
0010
1000
0010
0100
0001
1000
0001
1000
,
0100
0010
0100
0010
0001
1000
0100
1000
0001
1000
0001
0100
,
0010
1000
0010
1000
0001
0100
0001
1000
0010
1000
0001
1000
,
0001
0010
0001
0010
0100
1000
0001
0100
0001
1000
0010
1000
,
0001
0010
0001
0010
0100
1000
0001
0100
0001
0010
0001
0010
,
0100
1000
0001
0010
0001
0100
0010
1000
0001
1000
0001
0100
,
0001
1000
0010
1000
0001
1000
0100
0010
0100
0010
0100
1000
,
0001
0100
0001
0100
0010
1000
0001
0010
0001
1000
0100
1000
,
0001
0100
0001
0100
0010
1000
0001
0010
0001
0100
0001
0100
,
0010
1000
0001
0100
0001
0010
0100
0010
0001
0010
0100
0010
,
0001
0010
0100
1000
0001
1000
0010
0100
0010
0100
0010
1000
,
0001
0010
0001
0010
0100
1000
0001
0100
0001
1000
0010
1000
,
0001
0010
0001
0010
0100
1000
0001
0100
0001
0010
0001
0010
,
0100
1000
0001
0010
0001
0100
0010
1000
0001
1000
0001
0100
,
0001
1000
0010
1000
0001
1000
0100
1000
0001
0010
0001
1000
,
0001
0100
0001
1000
0100
1000
0001
0100
0001
0100
0010
1000
,
0001
0010
0001
1000
0100
1000
0100
0010
0001
1000
0001
1000
,
0010
0100
0010
0100
0001
1000
0010
1000
0001
1000
0001
0010
,
0100
1000
0001
1000
0010
1000
0010
0100
0001
0100
0001
1000
,
0001
0010
0001
0010
0001
1000
0010
0100
,
0010
0100
0001
1000
0100
0000
1000
0000
,
0001
0010
0001
0010
0001
1000
0010
0100
,
0010
0100
0001
1000
0100
0000
1000
0000
,
0001
0100
0001
0100
0001
1000
0100
0010
,
0100
0010
0001
1000
0010
0000
1000
0000
,
0001
0100
0001
0100
0001
1000
0100
0010
,
0100
0010
0001
1000
0010
0000
1000
0000
,
0100
0010
0100
0010
0100
1000
0001
0100
,
0001
0100
0010
1000
0001
0000
1000
0000
,
0100
0010
0100
0010
0100
1000
0001
0100
,
0001
0100
0010
1000
0001
0000
0100
0000
,
0110
0000
0000
0010
,
0100
0000
0000
0010
,
0100
0000
0000
0002
,
0000
0000
0000
2000
,
0000
0000
0000
3003
0000
0000
0000
0000
;

//---------------dance-single - Gazebo----------------
#NOTES:
     dance-single:
     Gazebo:
     Medium:
     13:
     0.922,1.000,0.099,0.274,1.000,1289.000,21.000,58.000,17.000,0.000:
0000
0000
0000
0000
,
0000
0000
0000
0000
,
0000
0000
2000
3200
,
0320
0230
2300
3002
,
0203
0300
0000
0000
,
0000
0000
0000
0000
,
0000
0000
0002
2003
,
3020
2030
3002
2003
,
3200
0300
0000
0000
,
0000
0000
0000
0000
,
0000
0000
2000
3002
,
0023
0000
0031
1000
0000
0010
0000
0000
,
0020
0000
0130
0002
0000
0000
0000
0000
,
0000
0003
0000
0000
,
0000
0000
0000
0000
,
0000
1000
0010
0100
,
0001
0000
0000
0001
1000
0000
0001
0000
,
0000
0001
0010
0100
,
1000
0000
0000
1000
0001
0000
1000
0000
,
0000
1000
0010
0100
,
0001
0000
0000
0001
1000
0000
0001
0000
,
0000
0001
0010
0100
,
1000
0000
0000
1000
0001
0000
1000
0000
,
0000
0010
0010
0100
,
0001
0000
0000
0001
1000
0000
0001
0000
,
0000
0010
0010
0100
,
1000
0000
0000
1000
0001
0000
1000
0000
,
0000
0001
0001
0100
,
0100
0010
0100
0010
,
0100
0010
0100
0010
,
0100
0000
0000
0100
0001
0000
0000
0000
,
0000
1000
0100
0010
,
0001
0000
0000
0001
1000
0000
0001
0000
,
0000
0001
0100
0010
,
1000
0000
0000
1000
0001
0000
1000
0000
,
0000
1000
0100
0010
,
0001
0000
0000
0001
1000
0000
0001
0000
,
0000
0100
0100
0010
,
1000
0000
0000
1000
0001
0000
1000
0000
,
0000
0100
0100
0010
,
0001
0000
0000
0001
1000
0000
0001
0000
,
0100
0010
0010
0100
,
0001
0000
0000
0001
1000
0000
0001
0000
,
0000
1000
0100
0000
,
0110
0000
0010
0001
,
0001
1000
0001
0200
,
0000
0010
0000
0301
,
0001
1000
0002
0000
,
1003
0100
1000
0100
0010
0001
1000
0010
1000
0001
0100
0001
,
1000
0100
1000
0100
0010
0001
1000
0010
1000
0100
1000
0100
,
0010
0001
1000
0100
1000
0001
0100
0001
1000
0001
1000
0010
,
1000
0001
0100
0001
1000
0001
2000
0000
0000
0000
0000
0000
,
3001
0010
0001
0010
0100
1000
0001
0100
0001
1000
0010
1000
,
0001
0010
0001
0010
0100
1000
0001
0100
0001
0010
0001
0010
,
0100
1000
0001
0010
0001
0100
0010
1000
0001
1000
0001
0100
,
0001
1000
0010
1000
0001
1000
0002
0000
0000
0000
0000
0000
,
1003
0100
1000
0100
0010
0001
1000
0010
1000
0001
0100
0001
,
1000
0100
1000
0100
0010
0001
1000
0010
1000
0100
1000
0100
,
0010
0001
1000
0100
1000
0001
0100
0001
1000
0001
1000
0010
,
1000
0001
0100
0001
1000
0001
1000
0000
0000
0000
0000
0000
,
0001
0010
0002
0000
,
1003
1000
0001
1000
,
0020
0000
0000
0130
,
0002
0000
0003
0000
,
1000
0010
1000
0010
0100
0001
1000
0100
1000
0001
0010
0001
,
1000
0010
1000
0010
0100
0001
1000
0100
1000
0010
1000
0010
,
0100
0001
1000
0010
1000
0001
0010
0001
1000
0001
1000
0100
,
1000
0001
0010
0001
1000
0001
2000
0000
0000
0000
0000
0000
,
3001
0100
0001
0100
0010
1000
0001
0010
0001
1000
0100
1000
,
0001
0100
0001
0100
0010
1000
0001
0010
0001
0100
0001
0100
,
0010
1000
0001
0100
0001
0010
0100
1000
0001
1000
0001
0010
,
0001
1000
0100
1000
0001
1000
0002
0000
0000
0000
0000
0000
,
1003
0010
1000
0010
0100
0001
1000
0100
1000
0001
0010
0001
,
1000
0010
1000
0010
0100
0001
1000
0100
1000
0010
1000
0010
,
0100
0001
1000
0010
1000
0001
0010
0001
1000
0001
1000
0100
,
1000
0001
0010
0001
1000
0001
1000
0000
0000
0000
0000
0000
,
0001
0100
0002
0000
,
1003
1000
0001
1000
,
0200
0000
0000
0310
,
0002
1000
0003
0001
,
1000
0000
0000
1000
0001
0000
0100
0000
,
0001
0001
0010
0100
,
1000
0000
0000
1000
0001
0000
1000
0000
,
0000
1000
0010
0100
,
0001
0000
0000
0001
1000
0000
0001
0000
,
0000
0001
0010
0100
,
1000
0000
0000
1000
0001
0000
1000
0000
,
0000
0000
0010
1000
0010
0000
0100
0000
,
0001
0000
0000
0001
1000
0000
0001
0000
,
0000
0001
0010
0100
,
1000
0000
0000
1000
0001
0000
1000
0000
,
0000
0001
0001
0100
,
0010
0000
0000
0010
1000
0000
0010
0000
,
0000
0010
0100
0001
,
1000
0000
0000
1000
0000
0000
1000
0000
,
0000
0100
0100
0010
,
0001
0000
0000
0001
1000
0000
0001
0000
,
0000
0001
0100
0010
,
1000
0000
0000
1000
0001
0000
1000
0000
,
0000
1000
0100
0010
,
0001
0001
0100
0010
,
1000
1000
0100
0010
,
0001
0000
0000
1000
0001
0000
0010
0000
,
0000
0100
1000
0001
,
1000
0010
0200
0000
,
0000
0000
0300
0200
0000
0000
0000
0000
,
0300
0200
0000
0000
0000
0300
0200
0000
,
0000
0310
1000
1000
,
1001
0000
0000
0000
,
1001
0000
0000
0000
,
1001
0000
1001
0000
,
1001
0000
1001
0000
,
1000
0100
1000
0100
0010
0001
1000
0010
1000
0001
0100
0001
,
1000
0100
1000
0100
0010
0001
1000
0010
1000
0100
1000
0100
,
0010
0001
1000
0100
1000
0001
0100
0001
1000
0001
1000
0010
,
1000
0001
0100
0001
1000
0001
2000
0000
0000
0000
0000
0000
,
3001
0010
0001
0010
0100
1000
0001
0100
0001
1000
0010
1000
,
0001
0010
0001
0010
0100
1000
0001
0100
0001
0010
0001
0010
,
0100
1000
0001
0010
0001
0100
0010
1000
0001
1000
0001
0100
,
0001
1000
0010
1000
0001
1000
0002
0000
0000
0000
0000
0000
,
1003
0100
1000
0100
0010
0001
1000
0010
1000
0001
0100
0001
,
1000
0100
1000
0100
0010
0001
1000
0010
1000
0100
1000
0100
,
0010
0001
1000
0100
1000
0001
0100
0001
1000
0001
1000
0010
,
1000
0001
0100
0001
1000
0001
1000
0000
0000
0000
0000
0000
,
0001
0010
0002
0000
,
1003
1000
0001
1000
,
0020
0000
0000
0130
,
0002
0000
0003
0000
,
1000
0010
1000
0010
0100
0001
1000
0100
1000
0001
0010
0001
,
1000
0010
1000
0010
0100
0001
1000
0100
1000
0010
1000
0010
,
0100
0001
1000
0010
1000
0001
0010
0001
1000
0001
1000
0100
,
1000
0001
0010
0001
1000
0001
2000
0000
0000
0000
0000
0000
,
3001
0100
0001
0100
0010
1000
0001
0010
0001
1000
0100
1000
,
0001
0100
0001
0100
0010
1000
0001
0010
0001
0100
0001
0100
,
0010
1000
0001
0100
0001
0010
0100
1000
0001
1000
0001
0010
,
0001
1000
0100
1000
0001
1000
0002
0000
0000
0000
0000
0000
,
1003
0010
1000
0010
0100
0001
1000
0100
1000
0001
0010
0001
,
1000
0010
1000
0010
0100
0001
1000
0100
1000
0010
1000
0010
,
0100
0001
1000
0010
1000
0001
0010
0001
1000
0001
1000
0100
,
1000
0001
0010
0001
1000
0001
1000
0000
0000
0000
0000
0000
,
0001
0100
0002
0000
,
1003
1000
0001
1000
,
0200
0000
0000
0310
,
0002
0000
1003
1000
,
0000
0001
0010
0001
,
1100
0000
1100
0000
,
1000
0001
0100
0010
,
1010
0000
1001
0000
,
0001
0100
0001
0100
0010
1000
0100
0010
,
0001
0000
0001
0010
0100
1000
0100
1000
,
0001
0100
0010
0100
0001
0010
0100
1000
,
0001
0100
0001
1000
0020
0000
0000
0000
,
1030
0100
0010
0001
,
1000
0000
0001
0000
0100
0000
0000
0010
,
1000
0001
0010
0100
,
1100
0000
1100
0000
,
0001
0100
0001
1000
,
0010
0000
0000
0000
1000
0000
0000
0001
,
0010
0100
0010
0001
,
1100
0000
1001
0000
,
MMMM
0001
0100
0010
,
1001
0000
1001
0000
,
1000
0100
0010
0100
1000
0000
1000
0001
,
0100
0010
0100
0010
1000
0000
0001
0000
,
0100
0000
0001
0000
0010
0000
0100
0010
,
0001
0000
1001
0000
,
1000
0000
0001
0100
0010
0100
0010
0100
,
0001
1000
0100
0010
0001
0000
1000
0000
,
0100
1000
0010
0100
,
0001
0000
0100
0000
0010
0000
0000
1000
,
0001
1000
0100
0010
,
0001
0000
1000
0000
0010
0000
0000
0100
,
0001
0000
0000
0000
,
0000
0000
1010
1001
,
0000
0000
0000
0000
,
M000
0M00
00M0
000M
00M0
0M00
M000
0M00
00M0
000M
00M0
0M00
M000
0000
0000
0000
,
0001
0100
0001
0100
0010
1000
0001
0010
0001
1000
0100
1000
,
0001
0100
0001
0100
0010
1000
0001
0010
0001
0100
0001
0100
,
0010
1000
0001
0100
0001
1000
0100
1000
0001
1000
0001
0010
,
0001
1000
0100
1000
0001
1000
0002
0000
0000
0000
0000
0000
,
1003
0010
1000
0010
0100
0001
1000
0100
1000
0001
0010
0001
,
1000
0010
1000
0010
0100
0001
1000
0100
1000
0010
1000
0010
,
0100
0001
1000
0010
1000
0100
0010
0001
1000
0001
1000
0100
,
1000
0001
0010
0001
1000
0001
2000
0000
0000
0000
0000
0000
,
3001
0100
0001
0100
0010
1000
0001
0010
0001
1000
0100
1000
,
0001
0100
0001
0100
0010
1000
0001
0010
0001
0100
0001
0100
,
0010
1000
0001
0100
0001
1000
0100
1000
0001
1000
0001
0010
,
0001
1000
0100
1000
0001
1000
0001
0000
0000
0000
0000
0000
,
1000
0010
2000
0000
,
3001
0001
1000
0001
,
0020
0000
0000
0130
,
2000
0000
3000
0000
,
0001
0010
0001
0010
0100
1000
0001
0100
0001
1000
0010
1000
,
0001
0010
0001
0010
0100
1000
0001
0100
0001
0010
0001
0010
,
0100
1000
0001
0010
0001
1000
0010
1000
0001
1000
0001
0100
,
0001
1000
0010
1000
0001
1000
0002
0000
0000
0000
0000
0000
,
1003
0100
1000
0100
0010
0001
1000
0010
1000
0001
0100
0001
,
1000
0100
1000
0100
0010
0001
1000
0010
1000
0100
1000
0100
,
0010
0001
1000
0100
1000
0010
0100
0001
1000
0001
1000
0010
,
1000
0001
0100
0001
1000
0001
2000
0000
0000
0000
0000
0000
,
3001
0010
0001
0010
0100
1000
0001
0100
0001
1000
0010
1000
,
0001
0010
0001
0010
0100
1000
0001
0100
0001
0010
0001
0010
,
0100
1000
0001
0010
0001
1000
0010
1000
0001
1000
0001
0100
,
0001
1000
0010
1000
0001
1000
0001
0000
0000
0000
0000
0000
,
1000
0100
2000
0000
,
3001
0001
1000
0001
,
0200
0000
0000
0320
,
0000
0000
0000
1030
,
0001
0010
0001
0010
0001
1000
0010
0100
,
0010
0100
0001
1000
0100
0000
1000
0000
,
0001
0010
0001
0010
0001
1000
0010
0100
,
0010
0100
0001
1000
0100
0000
1000
0000
,
0001
0100
0001
0100
0001
1000
0100
0010
,
0100
0010
0001
1000
0010
0000
1000
0000
,
0001
0100
0001
0100
0001
1000
0100
0010
,
0100
0010
0001
1000
0010
0000
1000
0000
,
0100
0010
0100
0010
0100
1000
0001
0100
,
0001
0100
0010
1000
0001
0000
1000
0000
,
0100
0010
0100
0010
0100
1000
0001
0100
,
0001
0100
0010
1000
0001
0000
0100
0000
,
0110
0000
0000
0010
,
0100
0000
0000
0010
,
0100
0000
0000
0002
,
0000
0000
0000
2000
,
0000
0000
0000
3003
0000
0000
0000
0000
;

//---------------dance-single - Gazebo----------------
#NOTES:
     dance-single:
     Gazebo:
     Easy:
     10:
     0.744,0.900,0.099,0.217,0.014,1037.000,21.000,46.000,17.000,0.000:
0000
0000
0000
0000
,
0000
0000
0000
0000
,
0000
0000
2000
3200
,
0320
0230
2300
3002
,
0203
0300
0000
0000
,
0000
0000
0000
0000
,
0000
0000
0002
2003
,
3020
2030
3002
2003
,
3200
0300
0000
0000
,
0000
0000
0000
0000
,
0000
0000
2000
3002
,
0023
0000
0031
1000
0000
0010
0000
0000
,
0020
0000
0130
0002
0000
0000
0000
0000
,
0000
0003
0000
0000
,
0000
0000
0000
0000
,
0000
1000
0010
0100
,
0001
0000
0000
0001
1000
0000
0001
0000
,
0000
0001
0010
0100
,
1000
0000
0000
1000
0001
0000
1000
0000
,
0000
1000
0010
0100
,
0001
0000
0000
0001
1000
0000
0001
0000
,
0000
0001
0010
0100
,
1000
0000
0000
1000
0001
0000
1000
0000
,
0000
0010
0010
0100
,
0001
0000
0000
0001
1000
0000
0001
0000
,
0000
0010
0010
0100
,
1000
0000
0000
1000
0001
0000
1000
0000
,
0000
0001
0001
0100
,
0100
0010
0100
0010
,
0100
0010
0100
0010
,
0100
0000
0000
0100
0001
0000
0000
0000
,
0000
1000
0100
0010
,
0001
0000
0000
0001
1000
0000
0001
0000
,
0000
0001
0100
0010
,
1000
0000
0000
1000
0001
0000
1000
0000
,
0000
1000
0100
0010
,
0001
0000
0000
0001
1000
0000
0001
0000
,
0000
0100
0100
0010
,
1000
0000
0000
1000
0001
0000
1000
0000
,
0000
0100
0100
0010
,
0001
0000
0000
0001
1000
0000
0001
0000
,
0100
0010
0010
0100
,
0001
0000
0000
0001
1000
0000
0001
0000
,
0000
1000
0100
0000
,
0110
0000
0010
0001
,
0001
1000
0001
0200
,
0000
0010
0000
0301
,
0001
1000
0002
0000
,
1003
0100
1000
0001
1000
0010
0100
0001
,
1000
0100
1000
0001
0100
0001
0010
0100
,
0010
0001
1000
0001
0100
0010
0100
0001
,
0100
0010
1000
0001
1000
0000
0000
0000
,
0001
0010
0001
1000
0001
0100
0010
1000
,
0001
0010
0001
1000
0010
1000
0100
0010
,
0100
1000
0001
1000
0010
0100
0010
1000
,
0010
0100
0001
1000
0001
0000
0000
0000
,
1000
0100
1000
0001
1000
0010
0100
0001
,
1000
0100
1000
0001
0100
0001
0010
0100
,
0010
0001
1000
0001
0100
0010
0100
0001
,
0100
0010
1000
0001
1000
0000
0000
0000
,
0001
0010
0002
0000
,
1003
1000
0001
1000
,
0020
0000
0000
0130
,
0002
0000
0003
0000
,
1000
0100
1000
0001
1000
0010
0100
0001
,
1000
0100
1000
0001
0100
0001
0010
0100
,
0010
0001
1000
0001
0100
0010
0100
0001
,
0100
0010
1000
0001
1000
0000
0000
0000
,
0001
0010
0001
1000
0001
0100
0010
1000
,
0001
0010
0001
1000
0010
1000
0100
0010
,
0100
1000
0001
1000
0010
0100
0010
1000
,
0010
0100
0001
1000
0001
0000
0000
0000
,
1000
0100
1000
0001
1000
0010
0100
0001
,
1000
0100
1000
0001
0100
0001
0010
0100
,
0010
0001
1000
0001
0100
0010
0100
0001
,
0100
0010
1000
0001
1000
0000
0000
0000
,
0001
0010
0002
0000
,
1003
1000
0001
1000
,
0020
0000
0000
0130
,
0002
1000
0003
0001
,
1000
0000
0000
1000
0001
0000
0100
0000
,
0001
0001
0010
0100
,
1000
0000
0000
1000
0001
0000
1000
0000
,
0000
1000
0010
0100
,
0001
0000
0000
0001
1000
0000
0001
0000
,
0000
0001
0010
0100
,
1000
0000
0000
1000
0001
0000
1000
0000
,
0000
0000
0010
1000
0010
0000
0100
0000
,
0001
0000
0000
0001
1000
0000
0001
0000
,
0000
0001
0010
0100
,
1000
0000
0000
1000
0001
0000
1000
0000
,
0000
0001
0001
0100
,
0010
0000
0000
0010
1000
0000
0010
0000
,
0000
0010
0100
0001
,
1000
0000
0000
1000
0000
0000
1000
0000
,
0000
0100
0100
0010
,
0001
0000
0000
0001
1000
0000
0001
0000
,
0000
0001
0100
0010
,
1000
0000
0000
1000
0001
0000
1000
0000
,
0000
1000
0100
0010
,
0001
0001
0100
0010
,
1000
1000
0100
0010
,
0001
0000
0000
1000
0001
0000
0010
0000
,
0000
0100
1000
0001
,
1000
0010
0200
0000
,
0000
0000
0300
0200
0000
0000
0000
0000
,
0300
0200
0000
0000
0000
0300
0200
0000
,
0000
0310
1000
1000
,
1001
0000
0000
0000
,
1001
0000
0000
0000
,
1001
0000
1001
0000
,
1001
0000
1001
0000
,
1000
0100
1000
0001
1000
0010
0100
0001
,
1000
0100
1000
0001
0100
0001
0010
0100
,
0010
0001
1000
0001
0100
0010
0100
0001
,
0100
0010
1000
0001
1000
0000
0000
0000
,
0001
0010
0001
1000
0001
0100
0010
1000
,
0001
0010
0001
1000
0010
1000
0100
0010
,
0100
1000
0001
1000
0010
0100
0010
1000
,
0010
0100
0001
1000
0001
0000
0000
0000
,
1000
0100
1000
0001
1000
0010
0100
0001
,
1000
0100
1000
0001
0100
0001
0010
0100
,
0010
0001
1000
0001
0100
0010
0100
0001
,
0100
0010
1000
0001
1000
0000
0000
0000
,
0001
0010
0002
0000
,
1003
1000
0001
1000
,
0020
0000
0000
0130
,
0002
0000
0003
0000
,
1000
0100
1000
0001
1000
0010
0100
0001
,
1000
0100
1000
0001
0100
0001
0010
0100
,
0010
0001
1000
0001
0100
0010
0100
0001
,
0100
0010
1000
0001
1000
0000
0000
0000
,
0001
0010
0001
1000
0001
0100
0010
1000
,
0001
0010
0001
1000
0010
1000
0100
0010
,
0100
1000
0001
1000
0010
0100
0010
1000
,
0010
0100
0001
1000
0001
0000
0000
0000
,
1000
0100
1000
0001
1000
0010
0100
0001
,
1000
0100
1000
0001
0100
0001
0010
0100
,
0010
0001
1000
0001
0100
0010
0100
0001
,
0100
0010
1000
0001
1000
0000
0000
0000
,
0001
0010
0002
0000
,
1003
1000
0001
1000
,
0020
0000
0000
0130
,
0002
0000
1003
1000
,
0000
0001
0010
0001
,
1100
0000
1100
0000
,
1000
0001
0100
0010
,
1010
0000
1001
0000
,
0001
0100
0001
0100
0010
1000
0100
0010
,
0001
0000
0001
0010
0100
1000
0100
1000
,
0001
0100
0010
0100
0001
0010
0100
1000
,
0001
0100
0001
1000
0020
0000
0000
0000
,
1030
0100
0010
0001
,
1000
0000
0001
0000
0100
0000
0000
0010
,
1000
0001
0010
0100
,
1100
0000
1100
0000
,
0001
0100
0001
1000
,
0010
0000
0000
0000
1000
0000
0000
0001
,
0010
0100
0010
0001
,
1100
0000
1001
0000
,
MMMM
0001
0100
0010
,
1001
0000
1001
0000
,
1000
0100
0010
0100
1000
0000
1000
0001
,
0100
0010
0100
0010
1000
0000
0001
0000
,
0100
0000
0001
0000
0010
0000
0100
0010
,
0001
0000
1001
0000
,
1000
0000
0001
0100
0010
0100
0010
0100
,
0001
1000
0100
0010
0001
0000
1000
0000
,
0100
1000
0010
0100
,
0001
0000
0100
0000
0010
0000
0000
1000
,
0001
1000
0100
0010
,
0001
0000
1000
0000
0010
0000
0000
0100
,
0001
0000
0000
0000
,
0000
0000
1010
1001
,
0000
0000
0000
0000
,
M000
0M00
00M0
000M
00M0
0M00
M000
0M00
00M0
000M
00M0
0M00
M000
0000
0000
0000
,
0001
0100
0001
1000
0001
0010
0100
1000
,
0001
0100
0001
1000
0100
1000
0010
0100
,
0010
1000
0001
1000
0100
0010
0100
1000
,
0100
0010
0001
1000
0001
0000
0000
0000
,
1000
0010
1000
0001
1000
0100
0010
0001
,
1000
0010
1000
0001
0010
0001
0100
0010
,
0100
0001
1000
0001
0010
0100
0010
0001
,
0010
0100
1000
0001
1000
0000
0000
0000
,
0001
0100
0001
1000
0001
0010
0100
1000
,
0001
0100
0001
1000
0100
1000
0010
0100
,
0010
1000
0001
1000
0100
0010
0100
1000
,
0100
0010
0001
1000
0001
0000
0000
0000
,
1000
0010
2000
0000
,
3001
0001
1000
0001
,
0020
0000
0000
0130
,
2000
0000
3000
0000
,
0001
0100
0001
1000
0001
0010
0100
1000
,
0001
0100
0001
1000
0100
1000
0010
0100
,
0010
1000
0001
1000
0100
0010
0100
1000
,
0100
0010
0001
1000
0001
0000
0000
0000
,
1000
0010
1000
0001
1000
0100
0010
0001
,
1000
0010
1000
0001
0010
0001
0100
0010
,
0100
0001
1000
0001
0010
0100
0010
0001
,
0010
0100
1000
0001
1000
0000
0000
0000
,
0001
0100
0001
1000
0001
0010
0100
1000
,
0001
0100
0001
1000
0100
1000
0010
0100
,
0010
1000
0001
1000
0100
0010
0100
1000
,
0100
0010
0001
1000
0001
0000
0000
0000
,
1000
0010
2000
0000
,
3001
0001
1000
0001
,
0020
0000
0000
0230
,
0000
0000
0000
1300
,
0001
0010
0001
0010
0001
1000
0010
0100
,
0010
0100
0001
1000
0100
0000
1000
0000
,
0001
0010
0001
0010
0001
1000
0010
0100
,
0010
0100
0001
1000
0100
0000
1000
0000
,
0001
0100
0001
0100
0001
1000
0100
0010
,
0100
0010
0001
1000
0010
0000
1000
0000
,
0001
0100
0001
0100
0001
1000
0100
0010
,
0100
0010
0001
1000
0010
0000
1000
0000
,
0100
0010
0100
0010
0100
1000
0001
0100
,
0001
0100
0010
1000
0001
0000
1000
0000
,
0100
0010
0100
0010
0100
1000
0001
0100
,
0001
0100
0010
1000
0001
0000
0100
0000
,
0110
0000
0000
0010
,
0100
0000
0000
0010
,
0100
0000
0000
0002
,
0000
0000
0000
2000
,
0000
0000
0000
3003
0000
0000
0000
0000
;
