#TITLE:Gravity;
#SUBTITLE:(v2);
#ARTIST:TaQ;
#TITLETRANSLIT:;
#SUBTITLETRANSLIT:;
#ARTISTTRANSLIT:;
#CREDIT:;
#BANNER:Gravity-BN.jpg;
#BACKGROUND:Gravity-BG.jpg;
#LYRICSPATH:;
#CDTITLE:wmagetitle.png;
#MUSIC:gravity.mp3;
#OFFSET:-0.101;
#SAMPLESTART:38.400;
#SAMPLELENGTH:12.000;
#SELECTABLE:YES;
#DISPLAYBPM:125.000:250.000;
#BPMS:0.000=125.000,15.000=250.000,208.000=125.000,272.000=250.000,334.000=125.000,335.000=250.000;
#STOPS:14.750=0.240
;
#BGCHANGES:;
// cache tags:
#FIRSTBEAT:0.000;
#LASTBEAT:397.000;
#SONGFILENAME:Songs/StepmaniaFreak's Favorites/Gravityv2/Gravityv2.sm;
#HASMUSIC:1;
#HASBANNER:1;
#MUSICLENGTH:116.299;
// end cache tags

//---------------dance-single - ----------------
#NOTES:
     dance-single:
     :
     Hard:
     11:
     1.000,1.000,1.000,0.000,0.752,927.000,129.000,0.000,0.000,0.000:
0101
0000
0010
0000
1000
0000
0100
0000
1000
0000
0010
0000
0100
0000
0001
0000
0010
0000
0100
0000
1000
0000
0100
0000
1000
0000
0010
0000
0100
0000
0001
0100
,
0010
0000
1000
0000
0001
0000
0100
0000
0001
0000
0010
0000
0100
0000
1000
0000
0100
0000
1000
0000
0010
0000
0100
0000
0001
0000
0010
0000
0100
0000
1000
0001
,
0100
0000
0010
0000
1000
0000
0001
0000
0010
0000
0001
0000
0100
0000
0010
0000
1000
0000
0100
0000
0010
0000
0001
0000
1000
0000
0010
0000
0100
0000
0001
1000
,
0100
0000
0100
0000
0100
0000
0100
0000
0100
0011
0110
0110
1001
0000
0000
0000
,
1001
0100
0010
1000
0101
0010
1000
0100
,
1000
0000
0010
0000
0100
0000
0001
0000
1010
0000
0100
0000
0010
0000
1000
0100
,
1000
0100
1000
0010
0101
0010
1000
0001
,
0010
0000
0100
0000
0010
0000
0001
0000
0110
0000
1000
0000
0010
0000
0100
0001
,
0100
0010
1000
0100
1001
0010
0100
1000
,
0010
0000
0100
0000
0001
0000
1000
0000
0101
0000
1000
0000
0010
0000
1000
0001
,
1000
0100
0010
0001
1100
0010
0001
1000
,
0100
0000
0010
0000
0001
0000
1000
0000
0110
0000
0001
0000
1000
0000
0010
0100
,
0010
1100
0001
0010
0100
1000
0001
0110
,
0000
0000
0011
0000
0000
0000
1100
0000
0001
0000
0100
0000
0010
0000
1000
0100
,
1000
0011
1000
0010
0100
0001
0010
1100
,
0000
0000
0011
0000
0000
0000
0101
0000
1000
0000
0010
0000
0100
0000
0001
1000
,
0001
1010
0100
0010
1000
0100
0010
0101
,
0000
0000
1010
0000
0000
0000
1100
0000
0001
0000
0100
0000
0010
0000
1000
0010
,
1000
0101
0010
1000
0010
0001
1000
0001
,
1000
0000
0001
0000
1000
0000
0001
1000
0001
0000
0100
0000
0100
0000
0100
0000
,
1001
0010
0100
0001
0010
0100
0010
0001
,
1000
0000
0010
0000
0100
0000
0001
0000
0010
0000
0100
0000
1000
0000
0001
0100
,
0001
0010
0100
1000
0010
0100
0010
1000
,
0001
0000
0010
0000
0100
0000
1000
0000
0010
0000
0100
0000
0011
0000
1000
0100
,
1000
0001
0100
0010
1000
0100
1000
0010
,
0100
0000
0001
0000
0010
0000
0100
0000
1000
0000
0001
0000
0100
0000
0001
0010
,
0001
1000
0010
0100
0001
0010
0100
0010
,
0001
0000
0100
0000
0010
0000
1000
0000
0100
0000
1000
0000
0010
0000
1000
0010
,
1000
0110
1000
0001
0100
0010
1000
1100
,
0000
0000
0011
0000
0000
0000
0101
0000
1000
0000
0010
0000
0100
0000
0001
1000
,
0001
0110
1000
0010
0100
0001
0010
1100
,
0000
0000
1001
0000
0000
0000
0011
0000
0100
0000
1000
0000
0010
0000
0100
0001
,
0100
1010
0100
0001
0010
0100
1000
0101
,
0000
0000
1001
0000
0000
0000
1100
0000
0010
0000
0001
0000
0100
0000
0010
0100
,
0010
0000
0010
1000
0000
1000
0100
0100
,
0010
0000
0100
0000
1000
0001
1000
0001
1000
0000
1000
0000
0100
0000
0000
0000
,
0011
1000
0010
0100
1001
0010
0100
0001
,
0010
0000
0100
0000
1000
0000
0001
0000
0110
0000
1000
0000
0010
0000
0100
0001
,
0100
0010
1000
0100
0011
1000
0001
0100
,
0010
0000
1000
0000
0100
0000
1000
0000
0101
0000
0010
0000
1000
0000
0001
0010
,
0001
0100
0010
1000
0101
1000
0100
0010
,
0001
0000
0100
0000
0010
0000
1000
0000
0110
0000
0001
0000
0100
0000
0010
0100
,
0010
1000
0100
1000
0101
0010
1000
0100
,
1000
0000
0100
0010
0100
0000
0010
0000
0011
0000
0000
0000
1001
0000
0000
0000
,
1001
0100
0010
1000
0101
0010
1000
0100
,
1000
0000
0001
0000
0100
0000
0010
0000
1100
0000
0001
0000
0100
0000
0010
1000
,
0010
0100
0001
0010
1001
0100
0010
0001
,
0100
0000
0010
0000
1000
0000
0001
0000
0110
0000
1000
0000
0010
0000
0100
0001
,
0100
0010
1000
0100
1001
0010
0001
0100
,
0001
0000
0010
0000
0100
0000
1000
0000
0011
0000
0100
0000
1000
0000
0010
0100
,
0010
1000
0001
0010
1001
0100
1000
0010
,
0100
0000
0001
0000
0010
0100
0010
0100
0010
0000
0010
0000
0010
0000
0010
0000
,
0001
0000
0001
1000
0000
1000
0001
0001
0010
0001
0000
0001
1000
0000
1000
0010
,
0100
0000
0100
0001
0000
0001
0100
0100
0010
0100
0000
0100
0001
0000
0001
1000
,
0100
0000
0100
0010
0000
0010
0100
0100
0010
0100
0000
0100
1000
0000
1000
0001
,
0100
0000
0100
0010
0000
0010
0100
0100
0001
0100
0000
0100
0010
0000
1000
0100
,
1000
0000
1000
0001
0000
0001
0100
0100
0001
0100
0000
0100
0001
0000
0001
1000
,
0100
0000
0100
1000
0000
1000
0100
0100
0010
0100
0000
0100
1000
0000
1000
0001
,
0100
0000
0100
0010
0000
0010
0100
0100
0001
0100
0000
0100
0001
0000
0001
1000
,
0100
0000
0100
0010
0000
0010
0100
0100
1000
0100
0000
0100
1000
0000
1000
0010
,
0100
0001
1001
0000
1001
0100
0010
1000
0100
1000
0010
0100
0001
0010
0100
1000
,
0001
0100
1010
0000
1010
0100
0001
0010
0100
1000
0001
0100
0010
1000
0100
0010
,
0001
1000
0110
0000
0110
1000
0001
0100
0010
1000
0100
1000
0010
0100
0001
1000
,
0100
0010
1100
0000
1100
0010
0001
1000
0001
0100
0010
0100
1001
0010
0100
0001
,
1100
0010
0101
0000
0101
0010
1000
0100
1000
0010
0100
0001
0010
0100
1000
0001
,
0010
0100
0011
0000
0011
0100
1000
0010
0100
0001
0010
0100
0010
0001
0100
0010
,
1000
0001
1000
0001
1000
0001
1000
0001
1000
0001
1000
0001
1000
0001
1000
0001
,
1000
0000
0001
0000
1000
0000
0001
0000
1000
0000
0001
0000
1000
0000
0001
1000
0001
0000
1000
0000
0001
0000
1000
0000
0100
0000
0010
0000
0001
0000
0100
0000
,
1001
0100
0001
0010
1100
0001
0100
0010
,
1000
0000
0001
0000
0100
0000
0010
0000
1100
0000
0001
0000
0100
0000
0001
1000
,
0001
0010
0001
1000
0101
0010
1000
0100
,
1000
0000
0001
0000
0100
0000
0010
0000
1100
0000
0001
0000
0100
0000
0010
1000
,
0010
0100
0010
1000
0101
0010
1000
0100
,
0010
0000
0001
0000
1000
0000
0010
0000
0101
0000
1000
0000
0010
0000
0100
0001
,
0100
0010
1000
0010
0101
0010
1000
0100
,
0010
0001
1000
0001
1100
0000
0110
0000
,
0011
0100
1000
0100
0011
1000
0010
0100
,
1001
0000
0100
0000
0010
0000
1000
0000
0101
0000
0010
0000
1000
0000
0100
1000
,
1100
0010
0001
0100
1010
0001
0100
0010
,
1100
0000
0001
0000
0100
0000
0010
0000
1001
0000
0100
0000
0010
0000
1000
0001
,
1001
0100
0010
1000
0101
0010
1000
0100
,
1001
0000
0010
0000
0001
0000
1000
0000
0110
0000
0001
0000
1000
0000
0010
1000
,
1010
0000
0100
0000
0001
0000
0010
0000
1100
0000
0001
0000
1000
0000
0001
0010
,
1100
0011
1100
0011
1001
0000
1001
0100
,
0010
1000
0101
0010
1000
0100
0010
0001
,
1000
0000
0010
0000
0101
0000
0010
0000
1000
0000
0001
0010
0001
0000
1000
0000
,
0010
0100
1001
0010
0100
0001
1000
0100
,
0010
0000
0001
0000
1100
0000
0010
0000
0001
0000
1000
0010
1000
0000
0100
0000
,
0010
0001
1100
0010
0001
1000
0010
0100
,
0001
0000
1000
0000
0110
0000
0001
0000
1000
0000
0001
0010
0001
0000
1000
0000
,
0100
0010
1001
0100
0010
0001
1000
0010
,
0100
0001
1100
0000
1001
0000
0101
0010
,
1100
0010
1100
0010
0001
0110
0000
1010
,
0000
0000
0101
0000
0010
0000
1000
0000
0100
0000
1000
0001
1000
0000
0010
0000
,
0101
0010
0101
0010
1000
0110
0000
0011
,
0000
0000
1100
0000
0001
0000
0010
0000
0100
0000
0010
0001
0010
0000
0100
0000
,
1010
0100
1010
0001
0010
0100
1000
0001
,
0100
0000
0010
0000
1001
0000
0100
0000
0010
0000
1000
0010
1000
0000
0100
0000
,
0011
0100
0011
1000
0010
0100
0010
1000
,
0100
0010
1001
0000
0000
0000
0000
0000
;
