#TITLE:[4-1] Transparent World;
#SUBTITLE:;
#ARTIST:The RiGEL (Ft. Hatsune Miku);
#TITLETRANSLIT:;
#SUBTITLETRANSLIT:;
#ARTISTTRANSLIT:;
#CREDIT:;
#BANNER:../Beast 4 - bn.png;
#BACKGROUND:../Beast 4 - bg.png;
#LYRICSPATH:;
#CDTITLE:;
#MUSIC:Transparent World.ogg;
#OFFSET:-1.082;
#SAMPLESTART:86.203;
#SAMPLELENGTH:18.000;
#SELECTABLE:YES;
#DISPLAYBPM:220.000;
#BPMS:0.000=220.000;
#STOPS:;
#BGCHANGES:;
// cache tags:
#FIRSTBEAT:0.000;
#LASTBEAT:508.000;
#SONGFILENAME:Songs/Beast Aoreo BEAST! 4/Transparent World - [Aoreo]/Transparent World.sm;
#HASMUSIC:1;
#HASBANNER:1;
#MUSICLENGTH:139.636;
// end cache tags

//---------------dance-single - J. Nero----------------
#NOTES:
     dance-single:
     J. Nero:
     Challenge:
     17:
     1.000,1.000,0.236,0.895,1.000,1459.000,33.000,125.000,4.000,0.000:
00M0
00M0
00M0
00M0
,
2002
3000
0000
0000
1000
0000
0000
0000
1000
0000
0000
0000
1000
0000
0000
0000
,
1000
0000
0000
0000
1000
0000
0000
0000
1003
0000
0000
0000
2002
3003
0000
0000
,
2200
0300
0000
0000
0100
0000
0000
0000
0100
0000
0000
0000
3100
0000
0000
0000
,
2200
0000
3300
0000
0000
0000
2000
3000
0002
0003
0000
0000
0202
0303
0000
0000
,
0220
0030
0000
0000
0010
0000
0000
0000
0010
0000
0000
0000
0010
0000
0000
0000
,
0010
0000
0000
0000
0010
0000
0000
0000
0310
0000
0000
0000
2020
3030
0000
0000
,
2002
3000
0000
0000
1000
0000
0000
0000
1000
0000
0000
0000
1003
0000
0000
0000
,
1100
0000
0000
0110
0000
0000
0011
0000
0001
1000
0001
0100
0010
0100
0001
1000
,
0001
0100
0010
0100
0001
1000
0100
1000
0001
0010
0100
1000
0001
1000
0010
0100
,
0010
1000
0001
0100
0001
1000
0010
0100
0010
1000
0001
0010
0100
0010
0001
1000
,
0001
0100
0010
0100
0001
1000
0100
1000
0001
0100
0010
0100
0001
1000
0001
0010
,
0100
1000
0001
1000
0010
0100
0001
0100
0010
1000
0001
0100
0001
1000
0100
1000
,
0001
0010
0100
1000
0001
0100
0001
1000
0010
0100
0010
1000
0001
0100
0010
0100
,
0001
1000
0100
1000
0001
0010
0100
1000
0001
1000
0010
0100
0010
1000
0001
0100
,
0001
1000
0010
0100
0010
1000
0001
0010
0100
1000
0001
0100
0001
1000
0100
0010
,
0100
1000
0001
0100
0010
0100
0001
1000
0001
0100
0010
1000
0001
1000
0100
0010
,
0001
1000
0001
1000
0010
0100
0010
1000
0001
0100
0001
1000
0100
0010
0100
1000
,
0001
0100
0001
1000
0010
0100
0010
1000
0001
0100
0001
1000
0100
0010
0001
1000
,
0100
1000
0001
0100
0010
0100
0001
1000
0001
0100
0010
0100
0001
1000
0100
1000
,
0001
1000
0010
0100
0001
1000
0001
0010
0200
0000
0000
0000
1300
0001
1000
0010
,
0100
0001
1000
0100
0010
0100
1000
0001
0100
0001
1000
0010
0100
0010
1000
0001
,
1000
0100
0010
0001
1000
0100
1000
0001
0010
0100
1000
0001
0100
0010
0100
0001
,
1000
0100
1000
0001
1000
0100
0010
0001
1000
0100
1000
0001
0100
0010
1000
0001
,
1000
0100
0010
0001
1000
0100
1000
0010
0200
0300
0020
0030
0200
0300
0020
0030
,
1000
0001
0010
0100
0010
0100
1000
0001
0100
0010
0100
0010
1000
0001
0010
0100
,
1000
0001
0100
0001
1000
0010
0100
0010
1000
0001
0100
0001
1000
0100
0010
0100
,
1000
0001
0100
0001
1000
0010
0100
0010
1000
0001
0100
0001
1000
0010
0100
0010
,
1000
0001
0100
0001
0100
0010
1000
0001
0100
0001
1000
0100
1000
0001
1000
0010
,
0100
0010
1000
0001
0100
0001
1000
0100
0010
0100
0010
0001
1000
0100
1000
0001
,
0100
0001
1000
0100
0010
0001
1000
0001
0100
0010
0100
0001
1000
0001
0100
0001
,
1000
0010
1000
0010
0100
0001
1000
0100
0010
0001
1000
0100
1000
0100
0010
0001
,
1000
0001
0010
0100
0010
0001
1000
0001
0100
0001
1000
0100
0010
0100
1000
0001
,
0010
0001
1000
0100
0010
0001
1000
0001
0100
0010
0100
0001
1000
0100
1000
0100
,
0010
0001
1000
0100
1000
0001
0100
0010
0100
0001
1000
0001
0100
0010
0100
0001
,
1000
0100
1000
0001
0100
0010
0100
0001
1000
0001
0100
0010
0100
0001
1000
0100
,
1000
0001
0010
0100
1000
0001
1000
0010
0100
0001
0100
0001
1000
0100
0010
0001
,
1000
0100
1000
0001
0100
0010
0100
0001
1000
0001
0010
0100
0010
0100
1000
0001
,
1000
0010
0100
0001
1000
0100
1000
0001
1000
0010
0100
0010
1000
0001
0100
0001
,
1000
0001
0010
0100
1000
0001
1000
0010
0100
0010
1000
0001
0100
0001
1000
0100
,
0010
0100
1000
0001
1000
0010
0100
0010
1000
0001
0100
0001
1000
0100
0010
0001
,
1000
0001
0100
0010
0100
0001
1000
0001
0010
0100
1000
0010
0100
0001
1000
0001
,
0200
0000
0000
0300
0001
1000
0001
1000
0010
0100
0010
0100
0001
1000
0002
0000
,
0003
0000
1000
0001
1000
0001
0010
0100
0010
0100
1000
0001
0100
0001
0100
0010
,
2000
3000
0000
0000
2020
3030
0000
0000
0220
0330
0000
0000
0200
0000
0000
0000
,
0301
0000
0000
0000
0010
0000
0000
0000
0100
0000
0000
0000
1000
0000
0000
0000
0000
0000
0002
0000
0000
0003
0000
0000
,
1000
0000
0100
0000
1000
0001
1000
0000
0001
0000
0100
0000
0001
0010
0100
0000
,
1000
0000
0010
0000
0100
0001
1000
0000
0001
0000
0010
0000
0100
1000
0100
0000
,
1000
0000
0001
0000
0100
0010
0100
0000
0001
0000
0010
0000
0100
1000
0001
0000
,
0100
0000
0001
0000
1000
0100
1000
0000
0001
0000
0100
0000
0001
1000
0010
0000
,
0100
0000
0001
0000
1000
0100
0010
0000
0001
0000
1000
0000
0010
1000
0010
0000
,
0100
0000
0001
0000
1000
0001
0010
0000
0100
0000
1000
0000
0001
0100
0001
0000
,
0100
0000
0010
0000
1000
0001
0100
0000
0001
0000
0010
0000
0100
1000
0001
0000
,
1000
0100
1000
0001
0100
0010
0100
0001
1000
0100
0010
0001
1000
0010
0100
0001
,
1000
0000
0001
0000
0100
0001
0100
0000
0010
0000
1000
0000
0001
0010
0100
0000
,
1000
0000
0001
0000
0100
0010
0100
0000
0001
0000
1000
0000
0100
1000
0001
0000
,
0100
0000
0001
0000
0010
0100
1000
0000
0001
0000
0100
0000
0010
1000
0001
0000
,
0100
0000
0001
0000
1000
0100
0010
0000
0001
0000
0100
0000
0001
1000
0001
0000
,
0100
0000
0010
0000
1000
0001
1000
0000
0001
0000
0010
0000
0100
1000
0001
0000
,
0100
0000
0010
0000
1000
0001
0100
0000
0001
0000
0010
0000
0100
1000
0001
0000
,
2002
3003
0000
0000
2002
3003
0000
0000
2002
3003
0000
0000
2002
3003
0000
0000
,
1000
0010
0100
0001
1000
0100
0010
0001
1000
0010
0100
0001
1000
0000
0000
0000
,
2002
3003
0000
0000
0002
0003
0000
0000
0002
0003
0000
0000
0002
0003
0000
0000
,
0002
0003
0000
0000
0002
0003
0000
0000
0002
0003
0000
0000
0002
0003
0000
0000
,
0202
0000
0303
0000
0200
0300
0000
0000
0200
0300
0000
0000
0200
0300
0000
0000
,
0200
0300
0000
0000
0200
0300
0000
0000
0200
0300
0000
0000
0200
0300
0000
0000
,
2020
0000
3030
0000
0020
0030
0000
0000
0020
0030
0000
0000
0020
0030
0000
0000
,
0020
0030
0000
0000
0020
0030
0000
0000
0020
0030
0000
0000
0020
0030
0000
0000
,
2002
0000
3003
0000
2000
3000
0000
0000
2000
3000
0000
0000
2000
3000
0000
0000
,
0001
0100
0010
0100
0001
1000
0100
0010
0002
0003
0000
0000
0000
0000
0000
0000
,
1000
0000
0100
0000
1000
0000
0001
0000
0100
0000
0001
0000
1000
0100
0020
0030
,
0100
0000
1000
0000
0001
0000
0010
0000
0100
0000
1000
0000
0010
0100
0002
0003
,
0100
0000
0010
0000
1000
0100
0020
0030
0100
0000
1000
0000
0001
0100
0020
0030
,
0100
0000
0001
0010
0100
1000
0002
0003
1000
0100
1000
0100
1000
0100
0010
0001
,
1000
0000
0001
0000
0100
0000
0010
0000
0100
0000
0001
0000
1000
0010
0200
0300
,
0001
0000
1000
0000
0100
0000
1000
0000
0010
0000
0100
0000
0001
0010
0200
0300
,
1000
0000
0010
0000
0100
0001
2000
3000
0010
0000
1000
0000
0001
0010
0200
0300
,
1000
0000
0010
0000
0100
0000
0001
0000
2000
3000
0020
0030
2000
3000
0020
0030
,
1000
0001
1000
0010
0100
0001
1000
0001
0100
0010
0100
0001
1000
0001
1000
0010
,
0100
0001
1000
0100
1000
0001
0010
0100
0010
0100
1000
0001
1000
0010
0100
0010
,
1000
0001
0100
0001
1000
0010
0100
0010
1000
0001
1000
0100
1000
0100
0010
0001
,
1000
0001
0100
0010
0100
0001
1000
0001
0100
0010
0100
0001
1000
0100
1000
0001
,
0010
0100
1000
0001
0100
0001
0100
0010
1000
0010
0100
0001
1000
0100
1000
0001
,
0010
0100
0010
0100
1000
0001
1000
0010
0100
0010
1000
0001
0100
0001
0100
0010
,
1000
0001
1000
0100
0010
0001
1000
0100
1000
0001
0100
0010
0100
0001
1000
0100
,
1000
0000
0001
0000
0100
0000
0010
0000
2000
3000
0002
0003
2000
3000
0002
0003
2000
3000
0002
0003
2000
3000
0002
0003
2000
3000
0002
0003
2000
3000
0002
0003
,
2000
3000
0001
0000
0010
0000
0100
0000
1000
0000
1000
0000
0010
0000
0100
0000
,
0001
0100
0100
0010
1000
0100
1000
0100
,
0020
0031
0001
1000
0100
0010
0100
1000
,
0001
0100
0010
1000
0001
0010
0100
1000
,
2002
0000
3003
0000
0000
0000
0000
0000
0040
0030
0000
0000
0000
0000
0000
0000
2002
0000
3003
0000
0000
0000
0000
0000
0040
0030
0000
0000
0000
0000
0000
0000
,
2002
0000
3003
0000
0000
0000
0000
0000
0400
0300
0000
0000
0000
0000
0000
0000
2002
0000
3003
0000
0000
0000
0000
0000
0400
0300
0000
0000
0000
0000
0000
0000
,
2002
3003
0000
0000
0001
1000
0001
0100
0010
0100
0001
1000
0100
0010
0001
1000
,
0001
0000
0000
1001
0000
0000
1010
0000
0102
0000
0000
0000
0000
0000
0003
0000
,
1000
0000
0100
0000
1000
0001
1000
0000
0001
0000
0100
0000
0001
0010
0100
0000
,
1000
0000
0010
0000
0100
0001
1000
0000
0001
0000
0010
0000
0100
1000
0100
0000
,
1000
0000
0001
0000
0100
0010
0100
0000
0001
0000
0010
0000
0100
1000
0001
0000
,
0100
0000
0001
0000
1000
0100
1000
0000
0001
0000
0100
0000
0001
1000
0010
0000
,
0100
0000
0001
0000
1000
0100
0010
0000
0001
0000
1000
0000
0010
1000
0010
0000
,
0100
0000
0001
0000
1000
0001
0010
0000
0100
0000
1000
0000
0001
0100
0001
0000
,
0100
0000
0010
0000
1000
0001
0100
0000
0001
0000
0010
0000
0100
1000
0001
0000
,
1000
0100
1000
0001
0100
0010
0100
0001
1000
0100
0010
0001
1000
0010
0100
0001
,
1000
0000
0001
0000
0100
0001
0100
0000
0010
0000
1000
0000
0001
0010
0100
0000
,
1000
0000
0001
0000
0100
0010
0100
0000
0001
0000
1000
0000
0100
1000
0001
0000
,
0100
0000
0001
0000
0010
0100
1000
0000
0001
0000
0100
0000
0010
1000
0001
0000
,
0100
0000
0001
0000
1000
0100
0010
0000
0001
0000
0100
0000
0001
1000
0001
0000
,
0100
0000
0010
0000
1000
0001
1000
0000
0001
0000
0010
0000
0100
1000
0001
0000
,
0100
0000
0010
0000
1000
0001
0100
0000
0001
0000
0010
0000
0100
1000
0001
0000
,
2002
3003
0000
0000
2002
3003
0000
0000
2002
3003
0000
0000
2002
3003
0000
0000
,
1000
0010
0100
0001
1000
0100
0010
0001
1000
0010
0100
0001
1000
0000
0000
0000
,
0002
0000
0003
0000
1000
0100
1000
0001
0100
0010
0100
0001
1000
0001
0010
0100
,
1000
0001
1000
0010
0100
0010
1000
0001
0010
0100
0010
0001
1000
0100
1000
0001
,
0100
0010
0100
0001
1000
0100
0010
0100
1000
0001
0100
0001
0100
0010
1000
0001
,
0010
0100
1000
0001
1000
0010
0100
0001
1000
0001
0010
0100
1000
0001
0100
0001
,
2000
0000
3000
0000
0001
0100
0010
0100
0001
1000
0100
0010
0001
1000
0100
1000
,
0001
0100
0010
0100
0001
1000
0100
0010
0100
1000
0001
0100
0010
0100
0001
1000
,
0001
0010
0100
1000
0001
0100
0010
0100
0001
1000
0100
0010
0001
1000
0001
0100
,
0001
1000
0100
0010
0100
0010
0001
1000
0010
0100
0001
1000
0002
0000
0003
0000
,
2000
0000
3000
0000
0001
0100
0001
1000
0100
0010
0001
1000
0001
0100
0010
0100
,
0001
1000
0001
0010
0100
1000
0001
0100
0001
1000
0100
0010
0100
1000
0001
0100
,
0010
0100
0001
1000
0100
0010
0001
1000
0001
0100
0010
0100
0001
1000
0001
0010
,
0100
1000
0001
0100
0010
0100
0001
1000
0100
0010
0100
1000
0001
0100
0010
0100
,
0002
0000
0003
0000
1000
0100
0010
0001
1000
0001
0100
0010
0100
0001
1000
0100
,
0010
0001
1000
0100
1000
0001
0100
0010
0100
0001
1000
0001
0010
0100
1000
0001
,
0100
0010
0100
0001
1000
0100
0010
0100
1000
0001
0100
0010
0100
0001
1000
0100
,
0010
0001
1000
0010
0100
0001
1000
0100
1000
0001
0100
0010
1000
0001
0010
0100
,
2000
0000
0000
0000
,
3000
0000
0000
0000
;
