#TITLE:Acid Ted VS The Pranksterz;
#SUBTITLE:(Havok 013);
#ARTIST:Respec';
#TITLETRANSLIT:;
#SUBTITLETRANSLIT:;
#ARTISTTRANSLIT:;
#CREDIT:Owem;
#BANNER:../banner.png;
#BACKGROUND:../bg.png;
#LYRICSPATH:;
#CDTITLE:../cdtitleowem.png;
#MUSIC:Respec - Acid Ted VS The Pranksterz (Havok 013).ogg;
#OFFSET:-0.485;
#SAMPLESTART:264.311;
#SAMPLELENGTH:29.999;
#SELECTABLE:YES;
#DISPLAYBPM:160.000;
#BPMS:0.000=160.048,152.000=160.077,352.000=160.233,447.000=160.165,512.000=160.097,768.000=159.923;
#STOPS:;
#BGCHANGES:;
// cache tags:
#FIRSTBEAT:0.000;
#LASTBEAT:963.500;
#SONGFILENAME:Songs/Owem's Simfiles 08 - 1.2/Acid Ted VS The Pranksterz - [Owem] v1.0.7/Acid Ted VS The Pranksterz.sm;
#HASMUSIC:1;
#HASBANNER:1;
#MUSICLENGTH:364.650;
// end cache tags

//---------------dance-single - 1- (Owem)----------------
#NOTES:
     dance-single:
     1- (Owem):
     Beginner:
     1:
     0.054,0.099,0.047,0.000,0.000,121.000,17.000,0.000,0.000,0.000:
1000
0000
0000
0000
,
0000
0000
0000
0000
,
0100
0000
0000
0000
,
0000
0000
0000
0000
,
0010
0000
0000
0000
,
0000
0000
0000
0000
,
0001
0000
0000
0000
,
0000
0000
0000
0000
,
1001
0000
0000
0000
,
0000
0000
0000
0000
,
1000
0000
0000
0000
,
0000
0000
0000
0000
,
0100
0000
0000
0000
,
0000
0000
0000
0000
,
0010
0000
0000
0000
,
0000
0000
0000
0000
,
1001
0000
0000
0000
,
0000
0000
0000
0000
,
0001
0000
0000
0000
,
0000
0000
0000
0000
,
1000
0000
0000
0000
,
0000
0000
0000
0000
,
0010
0000
0000
0000
,
0000
0000
0000
0000
,
0110
0000
0000
0000
,
0000
0000
0000
0000
,
0100
0000
0000
0000
,
0000
0000
0000
0000
,
0001
0000
0000
0000
,
0000
0000
0000
1000
,
0000
0000
0000
0000
,
0000
0000
0000
0000
,
1001
0000
0000
0000
,
0000
0000
0000
0000
,
0001
0000
0000
0000
,
0000
0000
0000
0000
,
0010
0000
0000
0000
,
0000
0000
0000
0000
,
0100
0000
0000
0000
,
0000
0000
0000
0000
,
0110
0000
0000
0000
,
0000
0000
0000
0000
,
0010
0000
0000
0000
,
0000
0000
0000
0000
,
0001
0000
0000
0000
,
0000
0000
0000
0000
,
1000
0000
0000
0000
,
0000
0000
0000
0000
,
1001
0000
0000
0000
,
0000
0000
0000
0000
,
0001
0000
0000
0000
,
0000
0000
0000
0000
,
1000
0000
0000
0000
,
0000
0000
0000
0000
,
0010
0000
0000
0000
,
0000
0000
0000
0000
,
0110
0000
0000
0000
,
0000
0000
0000
0000
,
0100
0000
0000
0000
,
0000
0000
0000
0000
,
0001
0000
0000
0000
,
0000
0000
0000
0000
,
1000
0000
0000
0000
,
0000
0000
0000
0000
,
1001
0000
0000
0000
,
0000
0000
0000
0001
,
0000
0000
0000
0000
,
0000
0000
0000
0010
,
0000
0000
0000
0000
,
0000
0000
0000
0100
,
0000
0000
0000
0000
,
0000
0000
0000
1000
,
0000
0000
0000
0000
,
0000
0000
0000
0001
,
0000
0000
0000
0000
,
0000
0000
0000
0010
,
0000
0000
0000
0000
,
0000
0000
0000
0100
,
0000
0000
0000
0000
,
0000
0000
0000
1000
,
0000
0000
0000
0000
,
0000
0000
0000
0001
,
0000
0000
0000
0000
,
0000
0000
0000
1000
,
0000
0000
0000
0000
,
0000
0000
0000
0100
,
0000
0000
0000
0000
,
0000
0000
0000
0010
,
0000
0000
0000
0000
,
0000
0000
0000
0001
,
0000
0000
0000
0000
,
0000
0000
0000
1000
,
0000
0000
0000
0000
,
0000
0000
0000
0100
,
0000
0000
0000
0000
,
0000
0000
0000
0010
,
0000
0000
0000
0000
,
0000
0000
0000
0001
,
0000
0000
0000
0000
,
0000
0000
0000
1000
,
0000
0000
0000
0000
,
0000
0000
0000
0010
,
0000
0000
0000
0000
,
0000
0000
0000
0000
,
1001
0000
0000
0000
,
0000
0000
0000
1000
,
0000
0000
0000
0000
,
0000
0000
0000
0100
,
0000
0000
0000
0000
,
0000
0000
0000
0001
,
0000
0000
0000
0000
,
0000
0000
0000
0000
,
1001
0000
0000
0000
,
0000
0000
0000
1000
,
0000
0000
0000
0000
,
0000
0000
0000
0100
,
0000
0000
0000
0000
,
0000
0000
0000
0010
,
0000
0000
0000
0000
,
0000
0000
0000
0001
,
0000
0000
0000
0000
,
0000
0000
0000
0001
,
0000
0000
0000
0000
,
0000
0000
0000
0010
,
0000
0000
0000
0000
,
0000
0000
0000
0100
,
0000
0000
0000
0000
,
0000
0000
0000
1000
,
0000
0000
0000
0000
,
0000
0000
0000
0001
,
0000
0000
0000
0000
,
0000
0000
0000
0010
,
0000
0000
0000
0000
,
0000
0000
0000
0100
,
0000
0000
0000
0000
,
0000
0000
0000
1000
,
0000
0000
0000
0000
,
0000
0000
0000
0001
,
0000
0000
0000
0000
,
0000
0000
0000
1000
,
0000
0000
0000
0000
,
0000
0000
0000
0100
,
0000
0000
0000
0000
,
0000
0000
0000
0010
,
0000
0000
0000
0000
,
0000
0000
0000
0001
,
0000
0000
0000
0000
,
0000
0000
0000
1000
,
0000
0000
0000
0000
,
0000
0000
0000
0100
,
0000
0000
0000
0000
,
0000
0000
0000
0010
,
0000
0000
0000
0000
,
0000
0000
0000
0001
,
0000
0000
0000
0000
,
0000
0000
0000
1000
,
0000
0000
0000
0000
,
0000
0000
0000
0001
,
0000
0000
0000
0000
,
0000
0000
0000
0010
,
0000
0000
0000
0000
,
0000
0000
0000
0100
,
0000
0000
0000
0000
,
0000
0000
0000
1000
,
0000
0000
0000
0000
,
0000
0000
0000
0001
,
0000
0000
0000
0000
,
0000
0000
0000
0010
,
0000
0000
0000
0000
,
0000
0000
0000
0100
,
0000
0000
0000
0000
,
0000
0000
0000
1000
,
0000
0000
0000
0000
,
0000
0000
0000
0001
,
0000
0000
0000
0000
,
0000
0000
0000
1000
,
0000
0000
0000
0000
,
0000
0000
0000
0100
,
0000
0000
0000
0000
,
0000
0000
0000
0010
,
0000
0000
0000
0000
,
0000
0000
0000
0001
,
0000
0000
0000
0000
,
0000
0000
0000
1000
,
0000
0000
0000
0000
,
0000
0000
0000
0100
,
0000
0000
0000
0000
,
0000
0000
0000
0010
,
0000
0000
0000
0000
,
0000
0000
0000
0001
,
0000
0000
0000
0000
,
0000
0000
0000
0000
,
1001
0000
0000
0000
,
0000
0000
0000
0000
,
0001
0000
0000
0000
,
0000
0000
0000
0000
,
0010
0000
0000
0000
,
0000
0000
0000
0000
,
0100
0000
0000
0000
,
0000
0000
0000
0000
,
1001
0000
0000
0000
,
0000
0000
0000
0000
,
1000
0000
0000
0000
,
0000
0000
0000
0000
,
0010
0000
0000
0000
,
0000
0000
0000
0000
,
0100
0000
0000
0000
,
0000
0000
0000
0000
,
1001
0000
0000
0000
,
0000
0000
0000
0000
,
0001
0000
0000
0000
,
0000
0000
0000
0000
,
0010
0000
0000
0000
,
0000
0000
0000
0000
,
0100
0000
0000
0000
,
0000
0000
0000
0000
,
0110
0000
0000
0000
,
0000
0000
0000
0000
,
0010
0000
0000
0000
,
0000
0000
0000
0000
,
0001
0000
0000
0000
,
0000
0000
0000
0000
,
1000
0000
0000
0000
,
0000
0000
0000
0000
,
1001
0000
0000
0000
,
0000
0000
0000
0000
,
0001
0000
0000
0000
,
0000
0000
0000
0000
,
1000
0000
0000
0000
,
0000
0000
0000
0000
,
0100
0000
0000
0000
,
0000
0000
0000
0000
,
0110
0000
0000
0000
,
0000
0000
0000
0000
0000
0000
0000
0010
,
0000
0000
0000
0000
,
0000
0000
0000
0000
0000
0000
0000
0001
,
0000
0000
0000
0000
,
0000
0000
0000
0000
0000
0000
0000
1000
,
0000
0000
0000
0000
,
0000
0000
0000
0000
,
1001
0000
0000
0000
;

//---------------dance-single - 6- (Owem)----------------
#NOTES:
     dance-single:
     6- (Owem):
     Easy:
     6:
     0.389,0.396,0.069,0.063,0.000,946.000,25.000,23.000,0.000,0.000:
1000
0100
0010
0001
,
1000
0001
0100
0010
,
1000
0001
0100
0001
,
1000
0100
0010
0001
,
1000
0010
0100
0001
,
1000
0100
1000
0001
,
0010
0100
1000
0001
,
0010
0000
0001
0000
1000
0000
0001
0100
,
0002
1003
0100
0010
,
0001
1000
0010
1000
,
0001
0100
0010
1000
,
0001
0100
0001
0010
,
0100
1000
0001
0010
,
0001
1000
0100
0010
,
0001
1000
0010
0100
,
0001
0100
0010
1000
,
1001
0001
0100
0010
,
1000
0001
0100
0001
,
1000
0100
0010
0001
,
1000
0010
0100
0001
,
0100
0010
1000
0001
,
0010
0001
1000
0100
,
0010
0001
1000
0010
,
0100
0001
1000
0001
,
1001
1000
0100
0010
,
0001
1000
0010
0100
,
0001
0100
0010
1000
,
0001
0010
0001
1000
,
0100
0010
0001
1000
,
0010
0100
0001
0100
,
0000
0000
0000
0000
,
0000
0000
0000
0000
,
0110
0010
1000
0001
,
0100
0001
0010
0100
,
1000
0001
0010
0001
,
1000
0010
0100
0001
,
0100
0010
1000
0001
,
0010
0001
1000
0100
,
0010
0001
1000
0100
,
1000
0010
0100
0001
,
1001
1000
0100
0010
,
0001
1000
0010
0100
,
0001
0100
0010
1000
,
0001
0010
0001
1000
,
0100
0010
0001
1000
,
0010
0100
0001
0100
,
0010
1000
0001
0010
,
0001
1000
0100
0010
,
0110
0100
1000
0001
,
0100
0001
1000
0100
,
0010
0001
1000
0010
,
0100
0001
0100
0010
,
1000
0001
0010
0001
,
1000
0100
0010
0001
,
1000
0010
0100
0001
,
0100
0010
1000
0001
,
1001
1000
0100
0010
,
0001
1000
0010
0100
,
0001
0100
0010
1000
,
0001
0010
0001
1000
,
0100
0010
0001
1000
,
0010
0100
0001
0100
,
0010
1000
0001
0010
,
0001
1000
0010
1000
,
1001
0001
0100
0010
,
1000
0001
0100
0001
,
1000
0100
0010
0001
,
1000
0010
0100
0001
,
0100
0010
1000
0001
,
0010
0001
1000
0100
,
0010
0001
1000
0010
,
0100
0001
1000
0100
,
0110
0010
0001
1000
,
0001
0100
0010
1000
,
0001
0010
0001
1000
,
0100
0010
0001
1000
,
0010
1000
0001
0100
,
0001
1000
0100
0010
,
0001
1000
0010
1000
,
0001
0100
0010
1000
,
1001
0001
0010
0100
,
1000
0001
0010
0001
,
1000
0100
1000
0001
,
0100
0010
1000
0001
,
0100
0001
1000
0100
,
0010
0001
1000
0010
,
1000
0001
0100
0001
,
1000
0100
0010
0001
,
1001
1000
0010
0100
,
0001
0100
0010
1000
,
0001
0100
0001
1000
,
0100
0010
0001
1000
,
0010
1000
0001
0100
,
0001
1000
0100
0010
,
0001
1000
0010
1000
,
0001
0010
0100
1000
,
1000
0001
0000
0010
0000
0100
0000
1000
,
0000
0001
0000
1000
0000
0010
0000
0100
,
0000
0001
0000
0100
0000
0010
0000
1000
,
0000
0001
0000
1000
0000
0100
0000
0010
,
0000
0001
0000
1000
0000
0100
0000
1000
,
0000
0010
0000
0100
0000
0001
0000
0100
,
0000
0010
0000
0100
0000
0001
0000
1000
,
0000
0100
0000
0010
0000
0001
0000
1000
,
0010
2000
0000
3000
0200
0000
0300
0020
,
0000
0030
0002
0000
0003
2000
0000
3000
,
0020
0000
0030
0200
0000
0300
0002
0000
,
0003
2000
0000
3000
0200
0000
0300
2000
,
0000
3000
0020
0000
0030
0200
0000
0300
,
0002
0000
0003
2000
0000
3000
0200
0000
,
0300
0020
0000
0030
0002
0000
0003
2000
,
0000
3000
0020
0000
0030
0200
0000
0300
,
0110
0010
1000
0001
,
0100
0001
0010
0100
,
1000
0001
0010
0001
,
1000
0010
0100
0001
,
0100
0010
1000
0001
,
0010
0001
1000
0100
,
0010
0001
1000
0100
,
1000
0010
0100
0001
,
1001
1000
0100
0010
,
0001
1000
0010
0100
,
0001
0100
0010
1000
,
0001
0010
0001
1000
,
0100
0010
0001
1000
,
0010
0100
0001
0100
,
0010
1000
0001
0010
,
0001
1000
0100
0010
,
0110
0100
1000
0001
,
0100
0001
1000
0100
,
0010
0001
1000
0010
,
0100
0001
0100
0010
,
1000
0001
0010
0001
,
1000
0100
0010
0001
,
1000
0010
0100
0001
,
0100
0010
1000
0001
,
1001
1000
0100
0010
,
0001
1000
0010
0100
,
0001
0100
0010
1000
,
0001
0010
0001
1000
,
0100
0010
0001
1000
,
0010
0100
0001
0100
,
0010
1000
0001
0010
,
0001
1000
0010
1000
,
1001
0001
0100
0010
,
1000
0001
0100
0001
,
1000
0100
0010
0001
,
1000
0010
0100
0001
,
0100
0010
1000
0001
,
0010
0001
1000
0100
,
0010
0001
1000
0010
,
0100
0001
1000
0100
,
0110
0010
0001
1000
,
0001
0100
0010
1000
,
0001
0010
0001
1000
,
0100
0010
0001
1000
,
0010
1000
0001
0100
,
0001
1000
0100
0010
,
0001
1000
0010
1000
,
0001
0100
0010
1000
,
1001
0001
0010
0100
,
1000
0001
0010
0001
,
1000
0100
1000
0001
,
0100
0010
1000
0001
,
0100
0001
1000
0100
,
0010
0001
1000
0010
,
1000
0001
0100
0001
,
1000
0100
0010
0001
,
1001
1000
0010
0100
,
0001
0100
0010
1000
,
0001
0100
0001
1000
,
0100
0010
0001
1000
,
0010
1000
0001
0100
,
0001
1000
0100
0010
,
0001
1000
0010
1000
,
0001
0010
0100
1000
,
1001
0001
1000
0001
,
0100
0001
0010
0100
,
1000
0001
0010
0001
,
1000
0010
0100
0001
,
0100
0010
1000
0001
,
0010
0001
1000
0100
,
0010
0001
1000
0100
,
1000
0010
0100
0001
,
1001
1000
0100
0010
,
0001
1000
0010
0100
,
0001
0100
0010
1000
,
0001
0010
0001
1000
,
0100
0010
0001
1000
,
0010
0100
0001
0100
,
0010
1000
0001
0010
,
0001
1000
0100
0010
,
0110
0100
1000
0001
,
0100
0001
1000
0100
,
0010
0001
1000
0010
,
0100
0001
0100
0010
,
1000
0001
0010
0001
,
1000
0100
0010
0001
,
1000
0010
0100
0001
,
0100
0010
1000
0001
,
1001
1000
0100
0010
,
0001
1000
0010
0100
,
0001
0100
0010
1000
,
0001
0010
0001
1000
,
0100
0010
0001
1000
,
0010
0100
0001
0100
,
0010
1000
0001
0010
,
0001
1000
0010
1000
,
1001
0001
0100
0010
,
1000
0001
0100
0001
,
1000
0100
0010
0001
,
1000
0010
0100
0001
,
0100
0010
1000
0001
,
0010
0001
1000
0100
,
0010
0001
1000
0010
,
0100
0001
1000
0100
,
0110
0010
0001
1000
,
0001
0100
0010
1000
,
0001
0010
0001
1000
,
0100
0010
0001
1000
,
0010
1000
0001
0100
,
0001
1000
0100
0010
,
0001
1000
0010
1000
,
0001
0100
0010
1000
,
1001
0001
0010
0100
,
1000
0001
0010
0001
,
1000
0100
1000
0001
,
0100
0010
1000
0001
,
0100
0001
1000
0100
,
0010
0001
1000
0010
,
1000
0001
0100
0001
,
1000
0100
0010
0001
,
1000
0010
0000
0100
0000
0001
0000
0100
,
0000
0010
0000
1000
0000
0001
0000
0100
,
0000
0001
0000
1000
0000
0100
0000
0010
,
0000
0001
0000
1000
0000
0010
0000
1000
,
0000
0001
0000
0100
0000
0001
0000
1000
,
0000
0100
0000
0010
0000
0001
0000
1000
,
0000
0010
0000
1000
0000
0001
0000
0010
,
0000
0100
0000
1000
0000
0010
0000
0100
,
0002
0000
0000
0000
0000
0000
0000
0003
;

//---------------dance-single - 10- (Owem)----------------
#NOTES:
     dance-single:
     10- (Owem):
     Medium:
     10:
     0.772,0.925,0.077,0.132,0.088,1894.000,28.000,48.000,23.000,2.000:
1000
0100
0010
0001
1000
0001
0100
0010
,
0100
0001
1000
0100
0010
0100
1000
0001
,
1000
0010
1000
0001
0100
0010
0100
0001
,
1000
0001
0100
0001
0010
0100
0010
0001
,
1000
0010
1000
0001
0100
0010
0100
0001
,
1000
0100
0010
0001
1000
0001
1000
0010
,
0100
0001
1000
0100
0010
0001
1000
0100
,
1000
0001
0100
0010
0100
0001
1000
1000
,
1M1M
0010
0100
0001
1000
0100
0010
0100
,
1000
0100
0010
0001
1000
0100
1000
0001
,
0100
0010
0100
0001
1000
0100
0010
0100
,
1000
0001
0100
0001
0010
0100
1000
0001
,
0010
0001
1000
0100
0010
0100
1000
0001
,
1000
0010
0100
0001
1000
0010
1000
0100
,
0010
0001
1000
0100
1000
0001
0100
0010
,
0100
0000
0001
0000
1000
0000
0100
0000
0010
0000
0001
0000
1000
0010
1000
0001
,
02M0
0310
1000
0001
0010
0001
0100
0010
,
1000
0010
0100
0001
1000
0100
0010
0001
,
1000
0100
1000
0001
0100
0010
0100
0001
,
0010
0001
1000
0100
0010
0100
1000
0001
,
1000
0010
0100
0001
1000
0001
0100
0010
,
0100
0001
1000
0010
1000
0001
0100
0001
,
1000
0100
0010
0100
1000
0001
0010
0001
,
1000
0010
1000
0001
0010
0100
0010
0001
,
1MM1
1000
0100
1000
0010
0100
0001
1000
,
0100
1000
0001
0010
0001
0100
0010
1000
,
0001
0010
0100
1000
0001
0010
0001
1000
,
0100
1000
0001
0100
0010
1000
0010
0100
,
0001
1000
0100
0010
0100
1000
0001
0010
,
0001
0000
0100
0000
0010
0000
1000
0000
0001
0000
1000
0000
0100
0000
0000
0M00
,
0000
0000
0000
00M0
0000
0000
0000
0000
000M
000M
000M
000M
000M
0000
0000
0000
,
0000
0000
0000
M000
M000
0000
00M0
0000
0000
00M0
0000
0000
00M0
0000
0000
0000
,
1000
0100
0010
0001
1000
0001
0100
0010
,
1000
0001
0100
0001
0010
0100
1000
0001
,
0010
0001
0100
0010
0100
0001
1000
0100
,
0010
0001
1000
0010
0100
0001
0100
0010
,
1000
0001
0010
0001
1000
0100
0010
0001
,
1000
0010
0100
0001
1000
0100
0010
0001
,
1000
0010
0100
0001
1000
0100
1000
0001
,
0010
0001
0100
0010
0100
0001
1000
0100
,
0010
0001
1000
0010
0100
0001
1000
0010
,
1000
0001
0100
0010
0100
0001
1000
0100
,
0010
0001
1000
0100
1000
0001
0100
0010
,
1000
0010
0100
0001
1000
0001
0010
0100
,
0010
0001
1000
0010
1000
0010
0100
0001
,
0100
0010
1000
0001
1000
0100
0010
0001
,
1000
0010
0100
0001
1000
0100
0010
0001
,
1000
0010
0100
0001
1000
0100
1000
0001
,
0010
0001
0100
0010
0100
0001
1000
0100
,
0010
0001
1000
0010
0100
0001
0100
0010
,
1000
0001
0100
0001
0010
0100
1000
0001
,
0010
0001
1000
0100
1000
0001
1000
0010
,
0100
0001
1000
0100
0010
0001
0010
0100
,
1000
0001
0010
0001
1000
0010
0100
0001
,
1000
0100
0010
0001
1000
0010
1000
0001
,
0100
0001
1000
0100
0010
0100
1000
0001
,
0010
0001
1000
0100
0010
0100
1000
0001
,
1000
0010
0100
0001
0100
0010
1000
0001
,
0100
0001
0010
0100
1000
0001
0010
0001
,
0100
0010
0100
0001
1000
0100
0010
0001
,
1000
0010
0100
0001
1000
0100
1000
0001
,
0010
0001
1000
0100
0010
0001
1000
0001
,
0100
0010
0100
0001
1000
0100
0010
0001
,
1000
0000
0010
0000
0100
0000
0001
0000
0100
0000
0010
0000
1000
0000
0010
0100
,
0001
1000
0100
1000
0010
0100
0001
1000
,
0100
0000
1000
0000
0001
0000
0010
0000
0100
0000
1000
0000
0010
0100
0010
0100
,
0010
1000
0001
0100
0001
1000
0100
0010
,
0001
0000
1000
0000
0010
0000
0100
0000
0001
0000
0100
0000
0010
1000
0010
1000
,
0010
0100
0001
1000
0100
1000
0001
0010
,
0100
0000
1000
0000
0001
0000
0010
0000
0001
0000
0100
0000
0010
1000
0010
1000
,
0010
0100
0001
1000
0100
1000
0001
0010
,
0100
0000
1000
0000
0001
0000
0010
0000
0001
0000
0100
0000
0001
1000
0001
1000
,
0001
0010
0100
1000
0001
0010
0001
0100
,
0010
0000
0100
0000
0001
0000
1000
0000
0100
0000
0010
0000
0001
0010
0001
0010
,
0001
1000
0010
0100
0001
1000
0100
1000
,
0001
0000
0100
0000
0001
0000
1000
0000
0100
0000
0010
0000
0001
1000
0001
1000
,
0001
0100
0010
0100
0001
1000
0100
1000
,
0010
0000
0100
0000
0001
0000
1000
0000
0100
0000
1000
0000
0010
0100
0010
0100
,
0010
1000
0001
0100
0001
1000
0100
0010
,
0001
0000
1000
0000
0010
0000
0100
0000
0001
0000
0100
0000
0010
1000
0010
1000
,
0010
0100
0001
1000
0100
1000
0001
0010
,
0001
0000
1000
0000
0100
0000
0010
0000
0001
0000
1000
0000
0001
0100
0001
0100
,
0001
0010
0100
1000
0001
0100
0010
0100
,
0001
0000
1000
0000
0100
0000
1000
0000
0010
0000
0100
0000
0001
0010
0001
0010
,
0001
1000
0100
1000
0010
0100
0001
0100
,
0010
0000
1000
0000
0001
0000
0010
0000
0001
0000
1000
0000
0100
0010
0100
0010
,
0100
1000
0001
0100
0001
1000
0010
0100
,
0001
0000
0100
0000
0010
0000
1000
0000
0001
0000
0010
0000
0100
1000
0100
1000
,
0100
0010
0001
1000
0100
1000
0001
0010
,
0100
0000
1000
0000
0001
0000
0010
0000
0001
0000
0100
0000
0010
1000
0010
1000
,
0010
0100
0001
1000
0100
1000
0001
0010
,
0100
0000
1000
0000
0001
0000
0010
0000
0001
0000
0100
0000
0001
1000
0001
1000
,
0001
0010
0100
1000
0001
0010
0001
0100
,
0010
0000
0100
0000
0001
0000
1000
0000
0100
0000
0010
0000
0001
0010
0001
0010
,
0001
1000
0010
0100
0001
1000
0100
1000
,
0001
0000
0100
0000
0001
0000
1000
0000
0100
0000
0010
0000
0001
1000
0001
1000
,
0001
0100
0010
0100
0001
1000
0100
1000
,
0010
0000
0100
0000
0001
0000
1000
0000
0100
0000
1000
0000
0010
0100
0010
0100
,
0010
1000
0001
0100
0001
1000
0100
0010
,
0001
0000
1000
0000
0010
0000
0100
0000
0001
0000
0100
0000
0010
1000
0010
1000
,
0010
0100
0001
1000
0100
1000
0001
0010
,
0001
0000
1000
0000
0100
0000
0010
0000
0001
0000
1000
0000
0001
0100
0001
0100
,
0001
0010
0100
1000
0001
0100
0010
0100
,
0001
0000
1000
0000
0100
0000
1000
0000
0010
0000
0100
0000
0001
1000
0001
1000
,
0001
2002
3003
0000
2020
3030
0000
0202
,
0303
0000
0000
0000
2002
0000
3003
0000
0000
0000
2200
3300
1000
0001
1000
0002
,
2000
0003
300M
M000
0000
0000
2020
0000
3030
0000
0000
0000
0220
0000
0330
0000
,
0000
0000
0202
0000
0303
0000
0000
0000
0022
0000
0033
0000
0001
1000
0002
2003
,
0002
3000
M003
000M
2020
0000
3030
0000
0000
0000
0220
0000
0330
0000
0000
0000
,
0202
0000
0303
0000
0000
0000
2200
0000
3300
0000
0000
0000
2000
3010
1000
0020
,
2000
0030
32M2
M000
0303
0000
0000
0000
0022
0000
0033
0000
0000
0000
0220
0000
,
0330
0000
0000
0000
2200
0000
3300
0000
0000
0000
2002
0000
3103
0001
0100
0002
,
1003
0001
0010
0001
1000
0100
0010
0001
,
1000
0010
0100
0001
1000
0100
0010
0001
,
1000
0010
0100
0001
1000
0100
1000
0001
,
0010
0001
0100
0010
0100
0001
1000
0100
,
0010
0001
1000
0010
0100
0001
1000
0010
,
1000
0001
0100
0010
0100
0001
1000
0100
,
0010
0001
1000
0100
1000
0001
0100
0010
,
1000
0010
0100
0001
1000
0001
0010
0100
,
1100
0100
1000
0001
1000
0010
0100
0001
,
0100
0010
1000
0001
1000
0100
0010
0001
,
1000
0010
0100
0001
1000
0100
0010
0001
,
1000
0010
0100
0001
1000
0100
1000
0001
,
0010
0001
0100
0010
0100
0001
1000
0100
,
0010
0001
1000
0010
0100
0001
0100
0010
,
1000
0001
0100
0001
0010
0100
1000
0001
,
0010
0001
1000
0100
1000
0001
1000
0010
,
0110
0010
1000
0100
0010
0001
0010
0100
,
1000
0001
0010
0001
1000
0010
0100
0001
,
1000
0100
0010
0001
1000
0010
1000
0001
,
0100
0001
1000
0100
0010
0100
1000
0001
,
0010
0001
1000
0100
0010
0100
1000
0001
,
1000
0010
0100
0001
0100
0010
1000
0001
,
0100
0001
0010
0100
1000
0001
0010
0001
,
0100
0010
0100
0001
1000
0100
0010
0001
,
1000
0010
0100
0001
1000
0100
1000
0001
,
0010
0001
1000
0100
0010
0001
1000
0001
,
0100
0010
0100
0001
1000
0100
0010
0001
,
1000
0010
0100
0001
0100
0010
1000
0001
,
0010
0001
1000
0100
0010
0001
1000
0010
,
0100
0001
1000
0100
0010
0001
1000
0010
,
0100
0001
1000
0100
1000
0001
0010
0001
,
0100
0010
0100
0001
1000
0100
0010
0001
,
1000
0010
0100
0001
1000
0010
1000
0001
,
0100
0010
0100
0001
1000
0100
0010
0001
,
1000
0100
1000
0001
0100
0010
1000
0010
,
0100
0001
1000
0001
0010
0100
0010
0001
,
1000
0010
1000
0010
0100
0001
0100
0010
,
1000
0001
1000
0100
0010
0001
1000
0010
,
0100
0001
1000
0100
0010
0001
1000
0010
,
0100
0001
1000
0100
1000
0001
0010
0001
,
0101
0001
0100
0010
1000
0100
0010
0001
,
1000
0010
0100
0001
0100
0010
1000
0001
,
0100
0001
0010
0100
1000
0001
0010
0001
,
1000
0100
1000
0001
1000
0010
0100
0001
,
1000
0100
0010
0001
0010
0100
1000
0001
,
0010
0001
1000
0010
0100
0001
1000
0100
,
0010
0001
1000
0010
1000
0001
0100
0001
,
1000
0100
0010
0100
1000
0001
0010
0001
,
1000
0100
0010
0100
1000
0001
1000
0010
,
0100
0001
0100
0010
1000
0001
0100
0001
,
0010
0100
1000
0001
0010
0001
0100
0010
,
0100
0001
1000
0100
0010
0001
1000
0010
,
0100
0001
1000
0100
1000
0001
0010
0001
,
1000
0100
0010
0001
1000
0001
0100
0010
,
0100
0001
1000
0100
0010
0001
1000
0010
,
0100
0001
0100
0010
1000
0001
0010
0001
,
1001
0001
0100
0001
1000
0010
0100
0001
,
1000
0100
0010
0001
1000
0010
0100
0001
,
1000
0100
1000
0001
0010
0001
0100
0010
,
0100
0001
1000
0100
0010
0001
1000
0010
,
0100
0001
1000
0010
1000
0001
0100
0010
,
0100
0001
1000
0100
0010
0001
1000
0100
,
1000
0001
0100
0010
1000
0010
0100
0001
,
1000
0000
0001
0000
0010
0000
0100
0000
0010
0000
0001
0000
1000
0001
1000
0001
,
0100
0010
1000
0001
0100
0010
1000
0001
,
1000
0100
0010
0001
1000
0010
0100
0001
,
1000
0100
0010
0001
1000
0010
0100
0001
,
1000
0100
1000
0001
0010
0001
0100
0010
,
0100
0001
1000
0100
0010
0001
1000
0010
,
0100
0001
0100
0010
1000
0001
0100
0001
,
0010
0100
1000
0001
0010
0001
1000
0100
,
1000
0001
1000
0010
0100
0001
1000
0100
,
0010
0001
0010
0100
1000
0001
0010
0001
,
1000
0010
0100
0001
1000
0100
0010
0001
,
1000
0010
1000
0001
0100
0001
1000
0100
,
0010
0100
1000
0001
0010
0001
1000
0100
,
0010
0100
1000
0001
1000
0010
0100
0001
,
0100
0010
1000
0001
0100
0001
0010
0100
,
1000
0001
0010
0001
0100
0010
0100
0001
,
1000
0000
0100
0000
0010
0000
0001
0000
1000
0000
0010
0000
0100
0001
0100
0010
,
1000
0100
1000
0001
0010
0001
1000
0100
,
0010
0001
1000
0001
0100
0010
0100
0001
,
1000
0100
0010
0001
1000
0010
0100
0001
,
0100
0010
1000
0001
0010
0001
1000
0100
,
0010
0001
1000
0010
0100
0001
1000
0100
,
0010
0001
1000
0010
0100
0001
1000
0100
,
1000
0001
0010
0001
0100
0010
0100
0001
,
1000
0100
0010
0001
1000
0010
0100
0001
,
1000
0010
1000
0001
0100
0010
0100
0001
,
1000
0100
0010
0001
1000
0100
1000
0001
,
0100
0010
1000
0010
0100
0001
1000
0001
,
0010
0100
0010
0001
1000
0100
1000
0010
,
0100
0001
0100
0010
1000
0001
1000
0100
,
0010
0001
1000
0010
0100
0001
1000
0100
,
0010
0001
1000
0010
0100
0001
1000
0100
,
1000
0001
0010
0001
0100
0010
0100
0001
,
1001
0001
0010
0001
1000
0010
0100
0001
,
0100
0010
1000
0001
0100
0001
0010
0100
,
1000
0001
0010
0001
1000
0100
1000
0001
,
1000
0010
0100
0001
1000
0100
0010
0001
,
0010
0100
1000
0001
0010
0001
1000
0010
,
0100
0001
1000
0100
0010
0001
1000
0010
,
1000
0001
0100
0001
1000
0100
0010
0100
,
1000
0001
0010
0001
1000
0100
0010
0100
,
1100
0100
1000
0010
0100
0001
0100
0010
,
1000
0001
0100
0001
0010
0100
1000
0001
,
0010
0001
0100
0010
0100
0001
1000
0100
,
0010
0001
1000
0010
0100
0001
1000
0100
,
1000
0001
0010
0001
1000
0100
0010
0001
,
1000
0001
0100
0010
0100
0001
1000
0100
,
0010
0001
1000
0001
0010
0001
1000
0100
,
0010
0001
1000
0010
0100
0001
1000
0001
,
1001
0001
1000
0010
0100
0001
1000
0100
,
1000
0001
0010
0001
0100
0010
0100
0001
,
1000
0100
0010
0001
1000
0010
0100
0001
,
1000
0010
1000
0001
0100
0010
0100
0001
,
1000
0100
0010
0001
1000
0100
1000
0001
,
0100
0010
1000
0010
0100
0001
1000
0001
,
0010
0100
0010
0001
1000
0010
1000
0010
,
0100
0001
0100
0010
1000
0001
1000
0100
,
0010
0001
0000
1000
0000
0010
0000
0100
,
0000
0010
0000
1000
0000
0001
0000
0100
,
0000
0010
0000
1000
0000
0001
0000
0010
,
0000
0100
0000
1000
0000
0001
0000
0100
,
0000
0010
0000
0100
0000
0001
0000
1000
,
0000
0100
0000
0010
0000
0001
0000
1000
,
0000
0010
0000
0100
0000
0001
0000
0100
,
0000
0010
0000
1000
0000
0001
0000
1000
,
2002
0000
0000
0000
0000
0000
0000
0000
0000
0000
0000
0000
0000
3003
0000
0000
;

//---------------dance-single - 15- (Owem)----------------
#NOTES:
     dance-single:
     15- (Owem):
     Hard:
     15:
     1.000,1.000,0.058,0.176,1.000,3410.000,21.000,64.000,43.000,2.000:
1000
0100
0010
0001
1000
0001
0100
0010
,
0100
0001
1000
0100
0010
0100
1000
0001
,
1000
0010
1000
0001
0100
0010
0100
0001
,
1000
0001
0100
0001
0010
0100
0010
0001
,
1000
0010
1000
0001
0100
0010
0100
0001
,
1000
0100
0010
0001
1000
0001
1000
0010
,
0100
0001
1000
0100
0010
0001
1000
0100
,
1000
0001
0100
0010
0100
0001
1000
1000
,
1M1M
0010
0100
0001
1000
0100
0010
0100
,
1000
0100
0010
0001
1000
0100
1000
0001
,
0100
0010
0100
0001
1000
0100
0010
0100
,
1000
0001
0100
0001
0010
0100
1000
0001
,
0010
0001
1000
0100
0010
0100
1000
0001
,
1000
0010
0100
0001
1000
0010
1000
0100
,
0010
0001
1000
0100
1000
0001
0100
0010
,
0100
0000
0001
0000
1000
0000
0100
0000
0010
0000
0001
0000
1000
0010
1000
0001
,
02M0
0310
1000
0001
0010
0001
0100
0010
,
1000
0010
0100
0001
1000
0100
0010
0001
,
1000
0100
1000
0001
0100
0010
0100
0001
,
0010
0001
1000
0100
0010
0100
1000
0001
,
1000
0010
0100
0001
1000
0001
0100
0010
,
0100
0001
1000
0010
1000
0001
0100
0001
,
1000
0100
0010
0100
1000
0001
0010
0001
,
1000
0010
1000
0001
0010
0100
0010
0001
,
1MM1
1000
0100
1000
0010
0100
0001
1000
,
0100
1000
0001
0010
0001
0100
0010
1000
,
0001
0010
0100
1000
0001
0010
0001
1000
,
0100
1000
0001
0100
0010
1000
0010
0100
,
0001
1000
0100
0010
0100
1000
0001
0010
,
0001
0000
0100
0000
0010
0000
1000
0000
0001
0000
1000
0000
0100
0000
0000
0M00
,
0000
0000
0000
00M0
0000
0000
0000
0000
000M
000M
000M
000M
000M
0000
0000
0000
,
0000
0000
0000
M000
M000
0000
00M0
0000
0000
00M0
0000
0000
00M0
0000
0000
0000
,
1000
0100
0010
0001
1000
0001
0100
0010
1000
0001
0100
0001
0010
0100
1000
0001
,
0010
0001
0100
0010
1000
0001
1000
0100
0010
0100
1000
0001
0100
0001
1000
0010
,
0100
0001
0100
0010
1000
0001
0100
0001
0010
0100
1000
0001
0010
0001
1000
0100
,
0010
0100
1000
0001
1000
0010
0100
0001
1000
0100
1000
0001
0100
0001
1000
0100
,
0010
0001
1000
0100
1000
0001
0100
0010
1000
0001
0100
0001
0010
0100
1000
0001
,
0100
0001
1000
0100
1000
0001
0100
0010
0100
0001
1000
0100
1000
0001
0010
0001
,
0100
0010
1000
0001
1000
0100
0010
0100
1000
0001
0010
0001
0100
0010
1000
0001
,
1000
0100
0010
0100
1000
0001
0100
0001
1000
0010
0100
0001
1000
0100
1000
0001
,
0100
0010
0100
0001
1000
0010
0100
0001
0100
0010
1000
0001
0010
0001
1000
0100
,
1000
0001
0100
0010
1000
0001
0100
0001
0010
0100
1000
0001
0010
0001
1000
0100
,
1000
0010
0100
0001
0100
0010
1000
0100
1000
0001
0010
0100
1000
0001
0100
0001
,
0010
0100
1000
0001
0100
0001
1000
0010
0100
0001
1000
0100
1000
0001
0100
0010
,
0100
0001
1000
0100
0010
0100
1000
0001
0010
0001
1000
0100
1000
0001
0100
0001
,
1000
0010
1000
0001
0100
0010
0100
0001
1000
0100
0010
0001
1000
0100
1000
0001
,
0100
0010
0100
0001
1000
0100
0010
0100
1000
0001
1000
0010
0100
0001
1000
0100
,
0010
0001
1000
0001
0100
0010
0100
0001
0010
0100
1000
0100
0010
0001
1000
0100
,
1000
0001
0100
0010
0100
0001
1000
0010
1000
0001
0100
0001
1000
0100
0010
0001
,
0100
0010
0100
0001
1000
0100
1000
0001
0100
0010
0100
0001
1000
0100
0010
0100
,
1000
0001
0100
0001
0010
0100
1000
0001
0100
0010
0100
0001
1000
0100
1000
0001
,
0010
0001
1000
0100
0010
0001
1000
0001
0100
0010
0100
0001
1000
0010
1000
0001
,
0100
0001
0010
0100
1000
0001
0010
0001
1000
0100
0010
0100
1000
0001
0100
0010
,
0100
0001
1000
0100
1000
0010
0100
0001
1000
0001
0100
0010
1000
0001
0100
0001
,
0010
0100
1000
0001
0010
0001
0100
0010
1000
0001
1000
0100
0010
0100
1000
0001
,
0100
0001
1000
0010
0100
0001
0100
0010
1000
0001
0100
0001
0010
0100
1000
0001
,
0010
0001
1000
0100
0010
0100
1000
0001
1000
0010
0100
0001
1000
0100
1000
0001
,
0100
0001
1000
0100
0010
0001
1000
0100
1000
0001
0100
0010
1000
0001
0100
0001
,
0010
0100
1000
0001
0100
0001
1000
0100
1000
0001
0100
0010
0100
0001
1000
0100
,
1000
0001
0010
0001
0100
0010
1000
0001
1000
0100
0010
0100
1000
0001
0010
0001
,
0100
0010
1000
0001
1000
0100
0010
0100
1000
0001
0100
0001
1000
0010
0100
0001
,
1000
0100
1000
0001
0100
0010
0100
0001
1000
0010
0100
0001
0100
0010
1000
0001
,
0010
0001
1000
0100
1000
0001
0100
0010
1000
0001
0100
0001
0010
0100
1000
0001
,
0010
0001
1000
0100
1000
0010
0100
0001
0100
0010
1000
0100
1000
0001
0010
0100
,
1000
0001
0100
0001
0010
0100
1000
0001
0100
0001
1000
0010
0100
0001
1000
0100
,
1000
0001
0100
0010
0100
0001
1000
0100
0010
0100
1000
0001
0010
0001
1000
0100
,
1000
0001
0100
0001
1000
0010
1000
0001
0100
0010
0100
0001
1000
0100
0010
0001
,
1000
0100
1000
0001
0100
0010
0100
0001
1000
0100
0010
0100
1000
0001
1000
0010
,
0100
0001
1000
0100
0010
0001
1000
0001
0100
0010
0100
0001
0010
0100
1000
0100
,
0010
0001
1000
0100
1000
0001
0100
0010
0100
0001
1000
0010
1000
0001
0100
0001
,
1000
0100
0010
0001
0100
0010
0100
0001
1000
0100
1000
0001
0100
0010
0100
0001
,
1000
0100
0010
0100
1000
0001
0100
0001
0010
0100
1000
0001
0100
0010
0100
0001
,
1000
0100
1000
0001
0010
0001
1000
0100
0010
0001
1000
0001
0100
0010
0100
0001
,
1000
0010
1000
0001
0100
0001
0010
0100
1000
0001
0010
0001
1000
0100
0010
0100
,
1000
0001
0100
0010
0100
0001
1000
0100
1000
0010
0100
0001
1000
0001
0100
0010
,
1000
0001
0100
0001
0010
0100
1000
0001
0010
0001
0100
0010
1000
0001
1000
0100
,
0010
0100
1000
0001
0100
0001
1000
0010
0100
0001
0100
0010
1000
0001
0100
0001
,
0010
0100
1000
0001
0010
0001
1000
0100
0010
0100
1000
0001
1000
0010
0100
0001
,
1000
0100
1000
0001
0100
0001
1000
0100
0010
0001
1000
0100
1000
0001
0100
0010
,
1000
0001
0100
0001
0010
0100
1000
0001
0100
0001
1000
0100
1000
0001
0100
0010
,
0100
0001
1000
0100
1000
0001
0010
0001
0100
0010
1000
0001
1000
0100
0010
0100
,
1000
0001
0010
0001
0100
0010
1000
0001
1000
0100
0010
0100
1000
0001
0100
0001
,
1000
0010
0100
0001
1000
0100
1000
0001
0100
0010
0100
0001
1000
0010
0100
0001
,
0100
0010
1000
0001
0010
0001
1000
0100
1000
0001
0100
0010
1000
0001
0100
0001
,
0010
0100
1000
0001
0010
0001
1000
0100
1000
0010
0100
0001
0100
0010
1000
0100
,
1000
0001
0010
0100
1000
0001
0100
0001
0010
0100
1000
0001
0100
0001
1000
0010
,
0100
0001
1000
0100
1000
0001
0100
0010
0100
0001
1000
0100
0010
0100
1000
0001
,
0010
0001
1000
0100
1000
0001
0100
0001
1000
0010
1000
0001
0100
0010
0100
0001
,
1000
0100
0010
0001
1000
0100
1000
0001
0100
0010
0100
0001
1000
0100
0010
0100
,
1000
0001
1000
0010
0100
0001
1000
0100
0010
0001
1000
0001
0100
0010
0100
0001
,
0010
0100
1000
0100
0010
0001
1000
0100
1000
0001
0100
0010
0100
0001
1000
0010
,
1000
0001
0100
0001
1000
0100
0010
0001
0100
0010
0100
0001
1000
0100
1000
0001
,
0100
0010
0100
0001
1000
0100
0010
0100
1000
0001
0100
0001
0010
0100
1000
0001
,
0100
0010
0100
0001
1000
0100
1000
0001
0010
0001
1000
0100
0010
0001
1000
0001
,
0100
0010
0100
0001
1000
0010
1000
0001
0100
0001
0010
0100
1000
0001
0010
0001
,
1000
0100
0010
0100
1000
0001
0100
0010
0100
0001
1000
0100
1000
0010
0100
0001
,
01M0
0001
1000
0100
0010
0100
1000
0001
0100
0010
0100
0001
1000
0010
1000
0001
,
1000
0000
0100
0000
0010
0000
0001
0000
1000
0000
0100
0000
1000
0000
0001
0000
0100
0000
0010
0000
0100
0000
0001
0000
2000
3000
0020
0030
2000
3000
0020
0000
,
1030
0001
0100
0001
0010
0100
1000
0001
0010
0001
0100
0010
1000
0001
1000
0100
,
0010
0000
0100
0000
1000
0000
0001
0000
0010
0000
0001
0000
M100
0000
0010
0000
1M00
0000
0001
0000
0010
0000
0100
0000
20M0
3000
0002
0003
2000
3000
00M2
0000
,
1003
010M
0010
0100
1000
0001
01M0
0001
M010
0100
1000
0001
0010
0M01
1000
01M0
,
1000
0000
0001
0000
0100
0000
0010
0000
100M
0000
0010
0000
0100
0000
00M1
0000
1000
0000
0100
0000
0010
0000
0001
0000
M200
0300
0020
0030
0200
0300
0020
0000
,
0130
0001
1000
0010
1000
0100
10M0
0001
0010
0001
M100
0010
1000
0001
1000
0100
,
0010
0000
0100
0000
10M0
0000
0001
0000
0100
0000
M001
0000
0010
0000
0100
0000
1000
0000
0001
0000
1000
0000
0010
0000
0200
0300
0002
0003
0200
0300
0002
0000
,
M1M3
0220
0330
0000
2020
3030
0000
0202
,
0303
0000
0000
0000
2002
0000
3003
0000
0000
0000
2200
3300
1000
0001
1000
0002
,
2000
0003
300M
M000
0000
0000
2020
0000
3030
0000
0000
0000
0220
0000
0330
0000
,
0000
0000
0202
0000
0303
0000
0000
0000
0022
0000
0033
0000
0001
1000
0002
2003
,
0002
3000
M003
000M
2020
0000
3030
0000
0000
0000
0220
0000
0330
0000
0000
0000
,
0202
0000
0303
0000
0000
0000
2200
0000
3300
0000
0000
0000
2000
3010
1000
0020
,
2000
0030
32M2
M000
0303
0000
0000
0000
0022
0000
0033
0000
0000
0000
0220
0000
,
0330
0000
0000
0000
2200
0000
3300
0000
0000
0000
2002
0000
3103
0001
0100
0002
,
M103
0010
1000
0001
0100
0001
0010
0100
1000
0001
0100
0001
1000
0100
0010
0100
,
1000
0001
0100
0001
1000
0010
0100
0001
1000
0100
1000
0001
0100
0010
0100
0001
,
1000
0100
1000
0001
0010
0100
1000
0001
0100
0010
0100
0001
1000
0100
0010
0100
,
1000
0001
0100
0001
0100
0010
1000
0001
0100
0001
1000
0010
0100
0001
1000
0100
,
1000
0001
0100
0001
0010
0100
1000
0001
0010
0001
1000
0100
1000
0010
0100
0001
,
1000
0010
0100
0010
1000
0001
0010
0001
0100
0010
1000
0001
0100
0010
0100
0001
,
1000
0010
0100
0001
0100
0001
0010
0100
1000
0001
0100
0001
0010
0100
1000
0001
,
0010
0001
0100
0010
1000
0001
1000
0100
0010
0100
1000
0001
0100
0001
1000
0010
,
0100
0001
0100
0010
1000
0001
0100
0001
0010
0100
1000
0001
0010
0001
1000
0100
,
0010
0100
1000
0001
1000
0010
0100
0001
1000
0100
1000
0001
0100
0001
1000
0100
,
0010
0001
1000
0100
1000
0001
0100
0010
1000
0001
0100
0001
0010
0100
1000
0001
,
0100
0001
1000
0100
1000
0001
0100
0010
0100
0001
1000
0100
1000
0001
0010
0001
,
0100
0010
1000
0001
1000
0100
0010
0100
1000
0001
0010
0001
0100
0010
1000
0001
,
1000
0100
0010
0100
1000
0001
0100
0001
1000
0010
0100
0001
1000
0100
1000
0001
,
0100
0010
0100
0001
1000
0010
0100
0001
0100
0010
1000
0001
0010
0001
1000
0100
,
1000
0001
0100
0010
1000
0001
0100
0001
0010
0100
1000
0001
0010
0001
1000
0100
,
1000
0010
0100
0001
0100
0010
1000
0100
1000
0001
0010
0100
1000
0001
0100
0001
,
0010
0100
1000
0001
0100
0001
1000
0010
0100
0001
1000
0100
1000
0001
0100
0010
,
0100
0001
1000
0100
0010
0100
1000
0001
0010
0001
1000
0100
1000
0001
0100
0001
,
1000
0010
1000
0001
0100
0010
0100
0001
1000
0100
0010
0001
1000
0100
1000
0001
,
0100
0010
0100
0001
1000
0100
0010
0100
1000
0001
1000
0010
0100
0001
1000
0100
,
0010
0001
1000
0001
0100
0010
0100
0001
0010
0100
1000
0100
0010
0001
1000
0100
,
1000
0001
0100
0010
0100
0001
1000
0010
1000
0001
0100
0001
1000
0100
0010
0001
,
0100
0010
0100
0001
1000
0100
1000
0001
0100
0010
0100
0001
1000
0100
0010
0100
,
1000
0001
0100
0001
0010
0100
1000
0001
0100
0010
0100
0001
1000
0100
1000
0001
,
0010
0001
1000
0100
0010
0001
1000
0001
0100
0010
0100
0001
1000
0010
1000
0001
,
0100
0001
0010
0100
1000
0001
0010
0001
1000
0100
0010
0100
1000
0001
0100
0010
,
0100
0001
1000
0100
1000
0010
0100
0001
1000
0001
0100
0010
1000
0001
0100
0001
,
0010
0100
1000
0001
0010
0001
0100
0010
1000
0001
1000
0100
0010
0100
1000
0001
,
0100
0001
1000
0010
0100
0001
0100
0010
1000
0001
0100
0001
0010
0100
1000
0001
,
0010
0001
1000
0100
0010
0100
1000
0001
1000
0010
0100
0001
1000
0100
1000
0001
,
0100
0001
1000
0100
0010
0001
1000
0100
1000
0001
0100
0010
1000
0001
0100
0001
,
0010
0100
1000
0001
0100
0001
1000
0100
1000
0001
0100
0010
0100
0001
1000
0100
,
1000
0001
0010
0001
0100
0010
1000
0001
1000
0100
0010
0100
1000
0001
0010
0001
,
0100
0010
1000
0001
1000
0100
0010
0100
1000
0001
0100
0001
1000
0010
0100
0001
,
1000
0100
1000
0001
0100
0010
0100
0001
1000
0010
0100
0001
0100
0010
1000
0001
,
0010
0001
1000
0100
1000
0001
0100
0010
1000
0001
0100
0001
0010
0100
1000
0001
,
0010
0001
1000
0100
1000
0010
0100
0001
0100
0010
1000
0100
1000
0001
0010
0100
,
1000
0001
0100
0001
0010
0100
1000
0001
0100
0001
1000
0010
0100
0001
1000
0100
,
1000
0001
0100
0010
0100
0001
1000
0100
0010
0100
1000
0001
0010
0001
1000
0100
,
1000
0001
0100
0001
1000
0010
1000
0001
0100
0010
0100
0001
1000
0100
0010
0001
,
1000
0100
1000
0001
0100
0010
0100
0001
1000
0100
0010
0100
1000
0001
1000
0010
,
0100
0001
1000
0100
0010
0001
1000
0001
0100
0010
0100
0001
0010
0100
1000
0100
,
0010
0001
1000
0100
1000
0001
0100
0010
0100
0001
1000
0010
1000
0001
0100
0001
,
1000
0100
0010
0001
0100
0010
0100
0001
1000
0100
1000
0001
0100
0010
0100
0001
,
1000
0100
0010
0100
1000
0001
0100
0001
0010
0100
1000
0001
0100
0010
0100
0001
,
1000
0100
1000
0001
0010
0001
1000
0100
0010
0001
1000
0001
0100
0010
0100
0001
,
1000
0010
1000
0001
0100
0001
0010
0100
1000
0001
0010
0001
1000
0100
0010
0100
,
1000
0001
0100
0010
0100
0001
1000
0100
1000
0010
0100
0001
1000
0001
0100
0010
,
1000
0001
0100
0001
0010
0100
1000
0001
0010
0001
0100
0010
1000
0001
1000
0100
,
0010
0100
1000
0001
0100
0001
1000
0010
0100
0001
0100
0010
1000
0001
0100
0001
,
0010
0100
1000
0001
0010
0001
1000
0100
0010
0100
1000
0001
1000
0010
0100
0001
,
1000
0100
1000
0001
0100
0001
1000
0100
0010
0001
1000
0100
1000
0001
0100
0010
,
1000
0001
0100
0001
0010
0100
1000
0001
0100
0001
1000
0100
1000
0001
0100
0010
,
0100
0001
1000
0100
1000
0001
0010
0001
0100
0010
1000
0001
1000
0100
0010
0100
,
1000
0001
0010
0001
0100
0010
1000
0001
1000
0100
0010
0100
1000
0001
0100
0001
,
1000
0010
0100
0001
1000
0100
1000
0001
0100
0010
0100
0001
1000
0010
0100
0001
,
0100
0010
1000
0001
0010
0001
1000
0100
1000
0001
0100
0010
1000
0001
0100
0001
,
0010
0100
1000
0001
0010
0001
1000
0100
1000
0010
0100
0001
0100
0010
1000
0100
,
1000
0001
0010
0100
1000
0001
0100
0001
0010
0100
1000
0001
0100
0001
1000
0010
,
0100
0001
1000
0100
1000
0001
0100
0010
0100
0001
1000
0100
0010
0100
1000
0001
,
0010
0001
1000
0100
1000
0001
0100
0001
1000
0010
1000
0001
0100
0010
0100
0001
,
1000
0100
0010
0001
1000
0100
1000
0001
0100
0010
0100
0001
1000
0100
0010
0100
,
1000
0001
1000
0010
0100
0001
1000
0100
0010
0001
1000
0001
0100
0010
0100
0001
,
0010
0100
1000
0100
0010
0001
1000
0100
1000
0001
0100
0010
0100
0001
1000
0010
,
1000
0001
0100
0001
1000
0100
0010
0001
0100
0010
0100
0001
1000
0100
1000
0001
,
0100
0010
0100
0001
1000
0100
0010
0100
1000
0001
0100
0001
0010
0100
1000
0001
,
0100
0010
0100
0001
1000
0100
1000
0001
0010
0001
1000
0100
0010
0001
1000
0001
,
0100
0010
0100
0001
1000
0010
1000
0001
0100
0001
0010
0100
1000
0100
0010
0001
,
1000
0001
0100
0010
1000
0001
0100
0001
0010
0100
1000
0001
0010
0001
0100
0010
,
1000
0001
1000
0100
0010
0100
1000
0001
0100
0001
1000
0010
0100
0001
0100
0010
,
1000
0001
0100
0001
0010
0100
1000
0001
0010
0001
1000
0100
0010
0100
1000
0001
,
1000
0010
0100
0001
1000
0100
1000
0001
0100
0001
1000
0100
0010
0001
1000
0100
,
1000
0001
0100
0010
1000
0001
0100
0001
0010
0100
1000
0001
0100
0001
1000
0100
,
1000
0001
0100
0010
0100
0001
1000
0100
1000
0001
0010
0001
0100
0010
1000
0001
,
1000
0100
0010
0100
1000
0001
0010
0001
0100
0010
1000
0001
1000
0100
0010
0100
,
1000
0001
0100
0001
1000
0010
0100
0001
1000
0100
1000
0001
0100
0010
0100
0001
,
1000
0010
0100
0001
0100
0010
1000
0001
0010
0001
1000
0100
1000
0001
0100
0010
,
1000
0001
0100
0001
0010
0100
1000
0001
0010
0001
1000
0100
1000
0010
0100
0001
,
0100
0010
1000
0100
1000
0001
0010
0100
1000
0001
0100
0001
0010
0100
1000
0001
,
0100
0001
1000
0010
0100
0001
1000
0100
1000
0001
0100
0010
0100
0001
1000
0100
,
0010
0100
1000
0001
0010
0001
1000
0100
1000
0001
0100
0001
1000
0010
1000
0001
,
0100
0010
0100
0001
1000
0100
0010
0001
1000
0100
1000
0001
0100
0010
0100
0001
,
1000
0100
0010
0100
1000
0001
1000
0010
0100
0001
1000
0100
0010
0001
1000
0001
,
0100
0010
0100
0001
0010
0100
1000
0100
0010
0001
1000
0100
1000
0001
0100
0010
,
0100
0001
1000
0010
1000
0001
0100
0001
1000
0100
0010
0001
0100
0010
0100
0001
,
1000
0100
1000
0001
0100
0010
0100
0001
1000
0100
0010
0100
1000
0001
0100
0001
,
0010
0100
1000
0001
0100
0010
0100
0001
1000
0100
1000
0001
0010
0001
1000
0100
,
0010
0001
1000
0001
0100
0010
0100
0001
1000
0010
1000
0001
0100
0001
0010
0100
,
1000
0001
0010
0001
1000
0100
0010
0100
1000
0001
0100
0010
0100
0001
1000
0100
,
1000
0010
0100
0001
1000
0001
0100
0010
1000
0001
0100
0001
0010
0100
1000
0001
,
0010
0001
0100
0010
1000
0001
1000
0100
0010
0100
1000
0001
0100
0001
1000
0010
,
0100
0001
0100
0010
1000
0001
0100
0001
0010
0100
1000
0001
0010
0001
1000
0100
,
0010
0100
1000
0001
1000
0010
0100
0001
1000
0100
1000
0001
0100
0001
1000
0100
,
0010
0001
1000
0100
1000
0001
0100
0010
1000
0001
0100
0001
0010
0100
1000
0001
,
0100
0001
1000
0100
1000
0001
0100
0010
0100
0001
1000
0100
1000
0001
0010
0001
,
0100
0010
1000
0001
1000
0100
0010
0100
1000
0001
0010
0001
0100
0010
1000
0001
,
1000
0100
0010
0100
1000
0001
0100
0001
1000
0010
0100
0001
1000
0100
1000
0001
,
0100
0010
0100
0001
1000
0010
0100
0001
0100
0010
1000
0001
0010
0001
1000
0100
,
1000
0001
0100
0010
1000
0001
0100
0001
0010
0100
1000
0001
0010
0001
1000
0100
,
1000
0010
0100
0001
0100
0010
1000
0100
1000
0001
0010
0100
1000
0001
0100
0001
,
0010
0100
1000
0001
0100
0001
1000
0010
0100
0001
1000
0100
1000
0001
0100
0010
,
0100
0001
1000
0100
0010
0100
1000
0001
0010
0001
1000
0100
1000
0001
0100
0001
,
1000
0010
1000
0001
0100
0010
0100
0001
1000
0100
0010
0001
1000
0100
1000
0001
,
0100
0010
0100
0001
1000
0100
0010
0100
1000
0001
1000
0010
0100
0001
1000
0100
,
0010
0001
1000
0001
0100
0010
0100
0001
0010
0100
1000
0100
0010
0001
1000
0100
,
1000
0001
0100
0010
0100
0001
1000
0010
1000
0001
0100
0001
1000
0100
0010
0001
,
0100
0010
0100
0001
1000
0100
1000
0001
0100
0010
0100
0001
1000
0100
0010
0100
,
1000
0001
0100
0001
0010
0100
1000
0001
0100
0010
0100
0001
1000
0100
1000
0001
,
0010
0001
1000
0100
0010
0001
1000
0001
0100
0010
0100
0001
1000
0010
1000
0001
,
0100
0001
0010
0100
1000
0001
0010
0001
1000
0100
0010
0100
1000
0001
0100
0010
,
0100
0001
1000
0100
1000
0010
0100
0001
1000
0001
0100
0010
1000
0001
0010
0100
,
1000
0010
0100
0001
1000
0010
0000
0100
0001
0000
0100
0000
0010
0100
0000
0010
,
1000
0001
0010
0000
0001
1000
0001
0010
0100
0000
1000
0000
0010
0100
0000
0001
,
1000
0001
0010
0000
0100
1000
0000
0010
1000
0000
0001
0000
0010
0100
0000
1000
,
0010
1000
0010
0000
0100
0001
0000
1000
0100
0000
0010
0000
0001
0100
0000
0010
,
1000
0001
1000
0000
0100
0010
0000
0010
0001
0000
1000
0000
0010
1000
0000
0001
,
0100
0010
1000
0000
0001
1000
0000
0100
0010
0000
0001
0000
1000
0100
0000
1000
,
0001
1000
0010
0000
0100
0001
0000
0100
0010
0000
1000
0000
0001
0010
0000
0100
,
1000
0001
1000
0000
0010
0100
0000
0001
1000
0000
0100
0000
0010
0001
0000
1000
,
0010
0100
0001
0000
1000
0100
0010
0000
0001
1000
0010
0000
0100
0001
1000
0000
,
0100
0010
0001
0000
0010
0100
1000
0000
0001
1000
0010
0000
0100
0001
1000
0000
,
0100
0010
0001
0000
1000
0100
1000
0000
0010
0100
0010
0000
0100
0001
0100
0000
,
0010
1000
0001
0000
1000
0010
0100
0000
0001
0100
0010
0000
1000
0100
1000
0000
,
0001
0010
0100
0000
1000
0100
0010
0000
0001
1000
0010
0000
0100
0001
1000
0000
,
0001
1000
0001
0000
0100
0001
0100
0000
0010
1000
0010
0000
0100
0001
0010
0000
,
0001
0100
0010
0000
1000
0010
1000
0000
0001
0100
0001
0000
1000
0100
0010
0000
,
0001
1000
0010
0000
0100
0001
0100
0000
0010
1000
0001
0000
0010
0100
1000
0000
,
2002
0000
0000
0000
0000
0000
0000
0000
0000
0000
0000
0000
0000
3003
0000
0000
;

//---------------dance-single - Owem----------------
#NOTES:
     dance-single:
     Owem:
     Challenge:
     25:
     1.000,1.000,0.063,0.090,1.000,4791.000,23.000,33.000,38.000,0.000:
1000
0100
0010
0001
1000
0001
0100
0010
,
0100
0001
1000
0100
0010
0100
1000
0001
,
1000
0010
1000
0001
0100
0010
0100
0001
,
1000
0001
0100
0001
0010
0100
0010
0001
,
1000
0010
1000
0001
0100
0010
0100
0001
,
1000
0100
0010
0001
1000
0001
1000
0010
,
0100
0001
1000
0100
0010
0001
1000
0100
,
1000
0001
0100
0010
0100
0001
1000
1000
,
1M1M
0010
0100
0001
1000
0100
0010
0100
,
1000
0100
0010
0001
1000
0100
1000
0001
,
0100
0010
0100
0001
1000
0100
0010
0100
,
1000
0001
0100
0001
0010
0100
1000
0001
,
0010
0001
1000
0100
0010
0100
1000
0001
,
1000
0010
0100
0001
1000
0010
1000
0100
,
0010
0001
1000
0100
1000
0001
0100
0010
,
0100
0000
0001
0000
1000
0000
0100
0000
0010
0000
0001
0000
1000
0010
1000
0001
,
02M0
0310
1000
0001
0010
0001
0100
0010
,
1000
0010
0100
0001
1000
0100
0010
0001
,
1000
0100
1000
0001
0100
0010
0100
0001
,
0010
0001
1000
0100
0010
0100
1000
0001
,
1000
0010
0100
0001
1000
0001
0100
0010
,
0100
0001
1000
0010
1000
0001
0100
0001
,
1000
0100
0010
0100
1000
0001
0010
0001
,
1000
0010
1000
0001
0010
0100
0010
0001
,
1MM1
1000
0100
1000
0010
0100
0001
1000
,
0100
1000
0001
0010
0001
0100
0010
1000
,
0001
0010
0100
1000
0001
0010
0001
1000
,
0100
1000
0001
0100
0010
1000
0010
0100
,
0001
1000
0100
0010
0100
1000
0001
0010
,
0001
0000
0100
0000
0010
0000
1000
0000
0001
0000
1000
0000
0100
0000
0000
0M00
,
0000
0000
0000
00M0
0000
0000
0000
0000
000M
000M
000M
000M
000M
0000
0000
0000
,
0000
0000
0000
M000
M000
0000
00M0
0000
0000
00M0
0000
0000
00M0
0000
0000
0000
,
1000
0100
0010
0001
1000
0001
0100
0010
1000
0001
0100
0001
0010
0100
1000
0001
0100
0001
0010
0100
1000
0001
1000
0010
,
0100
0001
1000
0100
1000
0010
0100
0001
1000
0100
1000
0010
0100
0001
0100
0010
1000
0001
1000
0100
0010
0100
1000
0001
,
0100
0001
1000
0010
0100
0001
1000
0010
0100
0001
0100
0010
1000
0001
1000
0100
0010
0001
0100
0001
1000
0010
0100
0001
,
1000
0010
1000
0100
0010
0001
1000
0100
1000
0001
0100
0010
1000
0001
0010
0001
0100
0010
1000
0001
1000
0100
0010
0100
,
1000
0001
0100
0001
1000
0010
0100
0001
0100
0001
1000
0010
0100
0001
1000
0100
1000
0010
0100
0001
1000
0100
0010
0100
,
1000
0001
0100
0010
0100
0001
1000
0010
1000
0001
0100
0010
0100
0001
1000
0100
1000
0001
0010
0100
1000
0001
0100
0001
,
0010
0100
1000
0001
1000
0010
0100
0001
1000
0010
1000
0001
0100
0001
1000
0100
1000
0010
0100
0001
1000
0100
1000
0010
,
0100
0001
1000
0001
0010
0100
1000
0001
0010
0001
0100
0010
1000
0001
0100
0001
1000
0100
0010
0001
1000
0100
1000
0010
,
0100
0001
1000
0100
1000
0001
0010
0100
0010
0001
1000
0100
1000
0001
0100
0010
1000
0001
0100
0001
1000
0100
0010
0100
,
1000
0001
0100
0001
1000
0010
0100
0001
1000
0010
1000
0001
0100
0001
1000
0100
0010
0100
1000
0001
0010
0001
1000
0100
,
1000
0001
0100
0001
1000
0010
0100
0001
1000
0100
1000
0001
0100
0010
1000
0001
0100
0001
0010
0100
1000
0001
1000
0010
,
0100
0001
1000
0010
1000
0001
0100
0001
1000
0100
1000
0001
0010
0100
1000
0100
0010
0001
1000
0100
1000
0001
0100
0010
,
1000
0001
0100
0001
0010
0100
1000
0001
1000
0010
0100
0001
1000
0100
1000
0100
0010
0001
1000
0100
1000
0001
0100
0010
,
1000
0001
0100
0001
1000
0001
0100
0010
0100
0001
1000
0010
0100
0001
1000
0001
0010
0100
1000
0001
1000
0010
0100
0001
,
1000
0100
0010
0001
1000
0100
1000
0001
0100
0010
1000
0001
0100
0001
0010
0100
1000
0001
0010
0001
1000
0100
1000
0001
,
0100
0010
1000
0010
0100
0001
1000
0100
0010
0001
1000
0100
1000
0001
0010
0001
0100
0010
1000
0010
0100
0001
1000
0001
,
0010
0100
1000
0001
0100
0010
1000
0100
0010
0001
1000
0001
0100
0010
1000
0001
0100
0001
0010
0100
1000
0001
0100
0001
,
0010
0100
1000
0001
1000
0010
0100
0001
1000
0100
1000
0010
0100
0001
1000
0100
1000
0010
0100
0001
0100
0010
1000
0001
,
1000
0100
0010
0100
1000
0001
0100
0001
1000
0010
0100
0001
1000
0010
0100
0001
0100
0010
1000
0001
1000
0100
0010
0001
,
0100
0001
1000
0010
0100
0001
1000
0010
1000
0100
0010
0001
1000
0100
1000
0001
0100
0010
1000
0001
0010
0001
0100
0010
,
1000
0001
1000
0100
0010
0100
1000
0001
0100
0001
1000
0010
0100
0001
0100
0001
1000
0010
0100
0001
1000
0100
1000
0010
,
0100
0001
1000
0100
0010
0100
1000
0001
0100
0010
0100
0001
1000
0010
1000
0001
0100
0010
0100
0001
1000
0100
1000
0001
,
0010
0100
1000
0001
0100
0001
0010
0100
1000
0001
1000
0010
0100
0001
1000
0010
1000
0001
0100
0001
1000
0100
1000
0010
,
0100
0001
1000
0100
1000
0010
0100
0001
1000
0001
0010
0100
1000
0001
0010
0001
0100
0010
1000
0001
0100
0001
1000
0100
,
0010
0001
1000
0100
1000
0010
0100
0001
1000
0100
1000
0001
0010
0100
0010
0001
1000
0100
1000
0001
0100
0010
1000
0001
,
0100
0001
1000
0100
0010
0100
1000
0001
0100
0001
1000
0010
0100
0001
1000
0010
1000
0001
0100
0001
1000
0100
0010
0100
,
1000
0001
0010
0001
1000
0100
1000
0001
0100
0001
1000
0010
0100
0001
1000
0100
1000
0001
0100
0010
1000
0001
0100
0001
,
0010
0100
1000
0001
1000
0010
0100
0001
1000
0010
1000
0001
0100
0001
1000
0100
1000
0001
0010
0100
1000
0100
0010
0001
,
1000
0100
1000
0001
0100
0010
1000
0001
0100
0001
0010
0100
1000
0001
1000
0010
0100
0001
1000
0100
1000
0100
0010
0001
,
1000
0100
1000
0001
0100
0010
1000
0001
0100
0001
1000
0001
0100
0010
0100
0001
1000
0010
0100
0001
1000
0001
0010
0100
,
1000
0001
1000
0010
0100
0001
1000
0100
0010
0001
1000
0100
1000
0001
0100
0010
1000
0001
0100
0001
0010
0100
1000
0001
,
0010
0001
1000
0100
1000
0001
0100
0010
1000
0010
0100
0001
1000
0100
0010
0001
1000
0100
1000
0001
0010
0001
0100
0010
,
1000
0010
0100
0001
1000
0001
0010
0100
1000
0001
0100
0010
1000
0100
0010
0001
1000
0001
0100
0010
1000
0001
0100
0001
,
0010
0100
1000
0001
0100
0001
0010
0100
1000
0001
1000
0010
0100
0001
1000
0100
1000
0010
0100
0001
1000
0100
1000
0010
,
0100
0001
0100
0010
1000
0001
1000
0100
0010
0100
1000
0001
0100
0001
1000
0010
0100
0001
1000
0010
0100
0001
0100
0010
,
1000
0001
1000
0100
0010
0001
0100
0001
1000
0010
0100
0001
1000
0010
1000
0100
0010
0001
1000
0100
1000
0001
0100
0010
,
1000
0001
0010
0001
0100
0010
1000
0001
1000
0100
0010
0100
1000
0001
0100
0001
1000
0010
0100
0001
0100
0001
1000
0010
,
0100
0001
1000
0100
1000
0010
0100
0001
1000
0100
0010
0100
1000
0001
0100
0010
0100
0001
1000
0010
1000
0001
0100
0010
,
0100
0001
1000
0100
1000
0001
0010
0100
1000
0001
0100
0001
0010
0100
1000
0001
1000
0010
0100
0001
1000
0010
1000
0001
,
0100
0001
1000
0100
1000
0010
0100
0001
1000
0100
1000
0010
0100
0001
1000
0001
0010
0100
1000
0001
0010
0001
0100
0010
,
1000
0001
0100
0001
1000
0100
0010
0001
1000
0100
1000
0010
0100
0001
1000
0100
1000
0001
0010
0100
0010
0001
1000
0100
,
1000
0001
0100
0010
1000
0001
0100
0001
1000
0100
0010
0100
1000
0001
0100
0001
1000
0010
0100
0001
1000
0010
1000
0001
,
0100
0001
1000
0100
0010
0100
1000
0001
0010
0001
1000
0100
1000
0001
0100
0001
1000
0010
0100
0001
1000
0100
1000
0001
,
0100
0010
1000
0001
0100
0001
0010
0100
1000
0001
1000
0010
0100
0001
1000
0010
1000
0001
0100
0001
1000
0100
1000
0001
,
0010
0100
1000
0100
0010
0001
1000
0100
1000
0001
0100
0010
1000
0001
0100
0001
0010
0100
1000
0001
1000
0010
0100
0001
,
1000
0100
1000
0100
0010
0001
1000
0100
1000
0001
0100
0010
1000
0001
0100
0001
1000
0001
0100
0010
0100
0001
1000
0010
,
0100
0001
1000
0001
0010
0100
1000
0001
1000
0010
0100
0001
1000
0100
0010
0001
1000
0010
1000
0100
0010
0001
1000
0001
,
0100
0010
1000
0001
0100
0001
0010
0100
1000
0001
0100
0001
0010
0100
1000
0001
1000
0010
0100
0001
1000
0100
1000
0010
,
0100
0001
1000
0100
1000
0010
0100
0001
0100
0010
1000
0001
1000
0100
0010
0100
1000
0001
0100
0001
1000
0010
0100
0001
,
1000
0010
0100
0001
0100
0010
1000
0001
1000
0100
0010
0001
0100
0001
1000
0010
0100
0001
1000
0010
1000
0100
0010
0001
,
1000
0100
1000
0001
0100
0010
1000
0001
0010
0001
0100
0010
1000
0001
1000
0100
0010
0100
1000
0001
0100
0001
1000
0010
,
0100
0001
0100
0001
1000
0010
0100
0001
1000
0100
1000
0010
0100
0001
1000
0100
0010
0100
1000
0001
0100
0010
0100
0001
,
1000
0010
1000
0001
0100
0010
0100
0001
1000
0100
1000
0001
0010
0100
1000
0001
0100
0001
0010
0100
1000
0001
1000
0010
,
0100
0001
1000
0010
1000
0001
0100
0001
1000
0100
1000
0010
0100
0001
1000
0100
1000
0010
0100
0001
1000
0001
0010
0100
,
1000
0001
0010
0001
0100
0010
1000
0001
0100
0001
1000
0100
0010
0001
1000
0100
1000
0010
0100
0001
1000
0100
1000
0001
,
0010
0100
0010
0001
1000
0100
1000
0001
0100
0010
1000
0001
0100
0001
1000
0100
0010
0100
1000
0001
0100
0001
1000
0010
,
0100
0001
1000
0010
1000
0001
0100
0001
1000
0100
0010
0100
1000
0001
0010
0001
1000
0100
1000
0001
0100
0001
1000
0010
,
0100
0001
1000
0100
1000
0001
0100
0010
1000
0001
0100
0001
0010
0100
1000
0001
1000
0010
0100
0001
1000
0010
1000
0001
,
0100
0001
1000
0100
1000
0001
0010
0100
1000
0100
0010
0001
1000
0100
1000
0001
0100
0010
1000
0001
0100
0001
0010
0100
,
1000
0001
1000
0010
0100
0001
1000
0100
1000
0100
0010
0001
1000
0100
1000
0001
0100
0010
1000
0001
0100
0001
1000
0001
,
0100
0010
0100
0001
1000
0010
0100
0001
1000
0001
0010
0100
1000
0001
1000
0010
0100
0001
1000
0100
0010
0001
1000
0100
,
1000
0001
0100
0010
1000
0001
0100
0001
0010
0100
1000
0001
0010
0001
1000
0100
1000
0001
0100
0010
1000
0010
0100
0001
,
1000
0100
0010
0001
1000
0100
1000
0001
0010
0001
0100
0010
1000
0010
0100
0001
1000
0001
0010
0100
1000
0001
0100
0010
,
1000
0001
0010
0001
0100
0010
1000
0001
0100
0001
0010
0100
1000
0001
0100
0010
0100
0001
1000
0010
0100
0001
1000
0100
,
M010
0001
1000
0100
0010
0100
1000
0001
0100
0010
0100
0001
1000
0010
1000
0001
,
1000
0000
0100
0000
0010
0000
0001
0000
1000
0000
0100
0000
1000
0000
0001
0000
0100
0000
0010
0000
0100
0000
0001
0000
2000
3000
0020
0030
2000
3000
0020
0000
,
1030
0001
0100
0001
0010
0100
1000
0001
0010
0001
0100
0010
1000
0001
1000
0100
,
0010
0000
0100
0000
1000
0000
0001
0000
0010
0000
0001
0000
M100
0000
0010
0000
1M00
0000
0001
0000
0010
0000
0100
0000
20M0
3000
0002
0003
2000
3000
00M2
0000
,
1003
010M
0010
0100
1000
0001
01M0
0001
M010
0100
1000
0001
0010
0M01
1000
01M0
,
1000
0000
0001
0000
0100
0000
0010
0000
100M
0000
0010
0000
0100
0000
00M1
0000
1000
0000
0100
0000
0010
0000
0001
0000
M200
0300
0020
0030
0200
0300
0020
0000
,
0130
0001
1000
0010
1000
0100
10M0
0001
0010
0001
M100
0010
1000
0001
1000
0100
,
0010
0000
0100
0000
10M0
0000
0001
0000
0100
0000
M001
0000
0010
0000
0100
0000
1000
0000
0001
0000
1000
0000
0010
0000
0200
0300
0002
0003
0200
0300
0002
0000
,
M2M3
0300
0040
1030
0001
0100
0001
0010
0400
1300
0001
0010
0001
0100
0040
1030
,
0001
0000
0100
0000
0001
0000
1000
0000
0040
0000
1030
0000
0001
0000
1000
0000
0100
0000
0010
0000
0004
0000
1003
0000
0020
0030
0200
0300
0020
0030
0200
0000
,
0340
1030
0001
0010
0001
0100
0040
1030
0001
0100
0001
1000
0400
0310
0100
1000
,
0001
0000
0100
0000
0004
0000
0013
0000
0100
0000
1000
0000
0001
0000
0010
0000
0004
0000
0103
0000
0010
0000
1000
0000
0002
0003
0200
0300
0004
0000
0203
0000
,
0301
1000
0100
1000
0040
0130
0001
1000
0010
1000
0004
0103
0010
1000
0001
0100
,
0040
0000
0130
0000
0001
0000
1000
0000
0010
0000
1000
0000
0400
0000
0310
0000
0001
0000
1000
0000
0100
0000
1000
0000
0040
0000
0230
0300
0020
0030
0200
0000
,
0310
1000
0004
0103
0001
0010
0100
1000
0004
0013
0001
0100
0010
1000
0040
0130
,
0001
0000
1000
0000
0100
0000
0010
0000
0004
0000
1003
0000
0100
0000
1000
0000
0010
0000
0100
0000
0040
0000
1030
0000
0002
0003
0020
0030
0002
0003
0020
0000
,
0031
1000
0100
1000
0010
0100
0001
1000
0100
1000
0010
0100
0001
0100
0010
1000
0001
1000
0100
0010
0100
1000
0001
0100
,
0001
1000
0010
0100
0001
1000
0010
0100
0001
0100
0010
1000
0001
1000
0100
0010
0001
0100
0001
1000
0010
0100
0001
1000
,
0010
1000
0100
0010
0001
1000
0100
1000
0001
0100
0010
1000
0001
0010
0001
0100
0010
1000
0001
1000
0100
0010
0100
1000
,
0001
0100
0001
1000
0010
0100
0001
0100
0001
1000
0010
0100
0001
1000
0100
1000
0010
0100
0001
1000
0100
0010
0100
1000
,
0001
0100
0010
0100
0001
1000
0010
1000
0001
0100
0010
0100
0001
1000
0100
1000
0001
0010
0100
1000
0001
0100
0001
0010
,
0100
1000
0001
1000
0010
0100
0001
1000
0010
1000
0001
0100
0001
1000
0100
1000
0010
0100
0001
1000
0100
1000
0010
0100
,
0001
1000
0001
0010
0100
1000
0001
0010
0001
0100
0010
1000
0001
0100
0001
1000
0100
0010
0001
1000
0100
1000
0010
0100
,
0001
1000
0100
1000
0001
0010
0100
0010
0001
1000
0100
1000
0001
0100
0010
1000
0001
0100
0001
1000
0100
0010
0100
1000
,
0001
0100
0001
1000
0010
0100
0001
1000
0010
1000
0001
0100
0001
1000
0100
0010
0100
1000
0001
0010
0001
1000
0100
1000
,
0001
0100
0001
1000
0010
0100
0001
1000
0100
1000
0001
0100
0010
1000
0001
0100
0001
0010
0100
1000
0001
1000
0010
0100
,
0001
1000
0010
1000
0001
0100
0001
1000
0100
1000
0001
0010
0100
1000
0100
0010
0001
1000
0100
1000
0001
0100
0010
1000
,
0001
0100
0001
0010
0100
1000
0001
1000
0010
0100
0001
1000
0100
1000
0100
0010
0001
1000
0100
1000
0001
0100
0010
1000
,
0001
0100
0001
1000
0001
0100
0010
0100
0001
1000
0010
0100
0001
1000
0001
0010
0100
1000
0001
1000
0010
0100
0001
1000
,
0100
0010
0001
1000
0100
1000
0001
0100
0010
1000
0001
0100
0001
0010
0100
1000
0001
0010
0001
1000
0100
1000
0001
0100
,
0010
1000
0010
0100
0001
1000
0100
0010
0001
1000
0100
1000
0001
0010
0001
0100
0010
1000
0010
0100
0001
1000
0001
0010
,
0100
1000
0001
0100
0010
1000
0100
0010
0001
1000
0001
0100
0010
1000
0001
0100
0001
0010
0100
1000
0001
0100
0001
0010
,
0100
1000
0001
1000
0010
0100
0001
1000
0100
1000
0010
0100
0001
1000
0100
1000
0010
0100
0001
0100
0010
1000
0001
1000
,
0100
0010
0100
1000
0001
0100
0001
1000
0010
0100
0001
1000
0010
0100
0001
0100
0010
1000
0001
1000
0100
0010
0001
0100
,
0001
1000
0010
0100
0001
1000
0010
1000
0100
0010
0001
1000
0100
1000
0001
0100
0010
1000
0001
0010
0001
0100
0010
1000
,
0001
1000
0100
0010
0100
1000
0001
0100
0001
1000
0010
0100
0001
0100
0001
1000
0010
0100
0001
1000
0100
1000
0010
0100
,
0001
1000
0100
0010
0100
1000
0001
0100
0010
0100
0001
1000
0010
1000
0001
0100
0010
0100
0001
1000
0100
1000
0001
0010
,
0100
1000
0001
0100
0001
0010
0100
1000
0001
1000
0010
0100
0001
1000
0010
1000
0001
0100
0001
1000
0100
1000
0010
0100
,
0001
1000
0100
1000
0010
0100
0001
1000
0001
0010
0100
1000
0001
0010
0001
0100
0010
1000
0001
0100
0001
1000
0100
0010
,
0001
1000
0100
1000
0010
0100
0001
1000
0100
1000
0001
0010
0100
0010
0001
1000
0100
1000
0001
0100
0010
1000
0001
0100
,
0001
1000
0100
0010
0100
1000
0001
0100
0001
1000
0010
0100
0001
1000
0010
1000
0001
0100
0001
1000
0100
0010
0100
1000
,
0001
0010
0001
1000
0100
1000
0001
0100
0001
1000
0010
0100
0001
1000
0100
1000
0001
0100
0010
1000
0001
0100
0001
0010
,
0100
1000
0001
1000
0010
0100
0001
1000
0010
1000
0001
0100
0001
1000
0100
1000
0001
0010
0100
1000
0100
0010
0001
1000
,
0100
1000
0001
0100
0010
1000
0001
0100
0001
0010
0100
1000
0001
1000
0010
0100
0001
1000
0100
1000
0100
0010
0001
1000
,
0100
1000
0001
0100
0010
1000
0001
0100
0001
1000
0001
0100
0010
0100
0001
1000
0010
0100
0001
1000
0001
0010
0100
1000
,
0001
1000
0010
0100
0001
1000
0100
0010
0001
1000
0100
1000
0001
0100
0010
1000
0001
0100
0001
0010
0100
1000
0001
0010
,
0001
1000
0100
1000
0001
0100
0010
1000
0010
0100
0001
1000
0100
0010
0001
1000
0100
1000
0001
0010
0001
0100
0010
1000
,
0010
0100
0001
1000
0001
0010
0100
1000
0001
0100
0010
1000
0100
0010
0001
1000
0001
0100
0010
1000
0001
0100
0001
0010
,
0100
1000
0001
0100
0001
0010
0100
1000
0001
1000
0010
0100
0001
1000
0100
1000
0010
0100
0001
1000
0100
1000
0010
0100
,
0001
0100
0010
1000
0001
1000
0100
0010
0100
1000
0001
0100
0001
1000
0010
0100
0001
1000
0010
0100
0001
0100
0010
1000
,
0001
1000
0100
0010
0001
0100
0001
1000
0010
0100
0001
1000
0010
1000
0100
0010
0001
1000
0100
1000
0001
0100
0010
1000
,
0001
0010
0001
0100
0010
1000
0001
1000
0100
0010
0100
1000
0001
0100
0001
1000
0010
0100
0001
0100
0001
1000
0010
0100
,
0001
1000
0100
1000
0010
0100
0001
1000
0100
0010
0100
1000
0001
0100
0010
0100
0001
1000
0010
1000
0001
0100
0010
0100
,
0001
1000
0100
1000
0001
0010
0100
1000
0001
0100
0001
0010
0100
1000
0001
1000
0010
0100
0001
1000
0010
1000
0001
0100
,
0001
1000
0100
1000
0010
0100
0001
1000
0100
1000
0010
0100
0001
1000
0001
0010
0100
1000
0001
0010
0001
0100
0010
1000
,
0001
0100
0001
1000
0100
0010
0001
1000
0100
1000
0010
0100
0001
1000
0100
1000
0001
0010
0100
0010
0001
1000
0100
1000
,
0001
0100
0010
1000
0001
0100
0001
1000
0100
0010
0100
1000
0001
0100
0001
1000
0010
0100
0001
1000
0010
1000
0001
0100
,
0001
1000
0100
0010
0100
1000
0001
0010
0001
1000
0100
1000
0001
0100
0001
1000
0010
0100
0001
1000
0100
1000
0001
0100
,
0010
1000
0001
0100
0001
0010
0100
1000
0001
1000
0010
0100
0001
1000
0010
1000
0001
0100
0001
1000
0100
1000
0001
0010
,
0100
1000
0100
0010
0001
1000
0100
1000
0001
0100
0010
1000
0001
0100
0001
0010
0100
1000
0001
1000
0010
0100
0001
1000
,
0100
1000
0100
0010
0001
1000
0100
1000
0001
0100
0010
1000
0001
0100
0001
1000
0001
0100
0010
0100
0001
1000
0010
0100
,
0001
1000
0001
0010
0100
1000
0001
1000
0010
0100
0001
1000
0100
0010
0001
1000
0010
1000
0100
0010
0001
1000
0001
0100
,
0010
1000
0001
0100
0001
0010
0100
1000
0001
0100
0001
0010
0100
1000
0001
1000
0010
0100
0001
1000
0100
1000
0010
0100
,
0001
1000
0100
1000
0010
0100
0001
0100
0010
1000
0001
1000
0100
0010
0100
1000
0001
0100
0001
1000
0010
0100
0001
1000
,
0010
0100
0001
0100
0010
1000
0001
1000
0100
0010
0001
0100
0001
1000
0010
0100
0001
1000
0010
1000
0100
0010
0001
1000
,
0100
1000
0001
0100
0010
1000
0001
0010
0001
0100
0010
1000
0001
1000
0100
0010
0100
1000
0001
0100
0001
1000
0010
0100
,
0001
0100
0001
1000
0010
0100
0001
1000
0100
1000
0010
0100
0001
1000
0100
0010
0100
1000
0001
0100
0010
0100
0001
1000
,
0010
1000
0001
0100
0010
0100
0001
1000
0100
1000
0001
0010
0100
1000
0001
0100
0001
0010
0100
1000
0001
1000
0010
0100
,
0001
1000
0010
1000
0010
0100
0001
1000
0100
1000
0010
0100
0001
1000
0100
1000
0010
0100
0001
0100
0010
1000
0001
1000
,
0100
0010
0100
1000
0001
0100
0001
1000
0010
0100
0001
1000
0010
0100
0001
0100
0010
1000
0001
1000
0100
0010
0001
0100
,
0001
1000
0010
0100
0001
1000
0010
1000
0100
0010
0001
1000
0100
1000
0001
0100
0010
1000
0001
0010
0001
0100
0010
1000
,
0001
1000
0100
0010
0100
1000
0001
0100
0001
1000
0010
0100
0001
0100
0001
1000
0010
0100
0001
1000
0100
1000
0010
0100
,
0001
1000
0100
0010
0100
1000
0001
0100
0010
0100
0001
1000
0010
1000
0001
0100
0010
0100
0001
1000
0100
1000
0001
0010
,
0100
1000
0001
0100
0001
0010
0100
1000
0001
1000
0010
0100
0001
1000
0010
1000
0001
0100
0001
1000
0100
1000
0010
0100
,
0001
1000
0100
1000
0010
0100
0001
1000
0001
0010
0100
1000
0001
0010
0001
0100
0010
1000
0001
0100
0001
1000
0100
0010
,
0001
1000
0100
1000
0010
0100
0001
1000
0100
1000
0001
0010
0100
0010
0001
1000
0100
1000
0001
0100
0010
1000
0001
0100
,
0001
1000
0100
0010
0100
1000
0001
0100
0001
1000
0010
0100
0001
1000
0010
1000
0001
0100
0001
1000
0100
0010
0100
1000
,
0001
0010
0001
1000
0100
1000
0001
0100
0001
1000
0010
0100
0001
1000
0100
1000
0001
0100
0010
1000
0001
0100
0001
0010
,
0100
1000
0001
1000
0010
0100
0001
1000
0010
1000
0001
0100
0001
1000
0100
1000
0001
0010
0100
1000
0100
0010
0001
1000
,
0100
1000
0001
0100
0010
1000
0001
0100
0001
0010
0100
1000
0001
1000
0010
0100
0001
1000
0100
1000
0100
0010
0001
1000
,
0100
1000
0001
0100
0010
1000
0001
0100
0001
1000
0001
0100
0010
0100
0001
1000
0010
0100
0001
1000
0001
0010
0100
1000
,
0001
1000
0010
0100
0001
1000
0100
0010
0001
1000
0100
1000
0001
0100
0010
1000
0001
0100
0001
0010
0100
1000
0001
0010
,
0001
1000
0100
1000
0001
0100
0010
1000
0010
0100
0001
1000
0100
0010
0001
1000
0100
1000
0001
0010
0001
0100
0010
1000
,
0010
0100
0001
1000
0001
0010
0100
1000
0001
0100
0010
1000
0100
0010
0001
1000
0001
0100
0010
1000
0001
0100
0001
0010
,
0100
1000
0001
0100
0001
0010
0100
1000
0001
1000
0010
0100
0001
1000
0100
1000
0010
0100
0001
1000
0100
1000
0010
0100
,
0001
0100
0010
1000
0001
1000
0100
0010
0100
1000
0001
0100
0001
1000
0010
0100
0001
1000
0010
0100
0001
0100
0010
1000
,
0001
1000
0100
0010
0001
0100
0001
1000
0010
0100
0001
1000
0010
1000
0100
0010
0001
1000
0100
1000
0001
0100
0010
1000
,
0001
0010
0001
0100
0010
1000
0001
1000
0100
0010
0100
1000
0001
0100
0001
1000
0010
0100
0001
0100
0001
1000
0010
0100
,
0001
1000
0100
1000
0010
0100
0001
1000
0100
0010
0100
1000
0001
0100
0010
0100
0001
1000
0010
1000
0001
0100
0010
0100
,
0001
1000
0100
1000
0001
0010
0100
1000
0001
0100
0001
0010
0100
1000
0001
1000
0010
0100
0001
1000
0010
1000
0001
0100
,
0001
1000
0100
1000
0010
0100
0001
1000
0100
1000
0010
0100
0001
1000
0001
0010
0100
1000
0001
0010
0001
0100
0010
1000
,
0001
0100
0001
1000
0100
0010
0001
1000
0100
1000
0010
0100
0001
1000
0100
1000
0001
0010
0100
0010
0001
1000
0100
1000
,
0001
0100
0010
1000
0001
0100
0001
1000
0100
0010
0100
1000
0001
0100
0001
1000
0010
0100
0001
1000
0010
1000
0001
0100
,
0001
1000
0100
0010
0100
1000
0001
0010
0001
1000
0100
1000
0001
0100
0001
1000
0010
0100
0001
1000
0100
1000
0001
0100
,
0010
1000
0001
0100
0001
0010
0100
1000
0001
1000
0010
0100
0001
1000
0010
1000
0001
0100
0001
1000
0100
1000
0001
0010
,
0100
1000
0100
0010
0001
1000
0100
1000
0001
0100
0010
1000
0001
0100
0001
0010
0100
1000
0001
1000
0010
0100
0001
1000
,
0100
1000
0100
0010
0001
1000
0100
1000
0001
0100
0010
1000
0001
0100
0001
1000
0001
0100
0010
0100
0001
1000
0010
0100
,
0001
1000
0001
0010
0100
1000
0001
1000
0010
0100
0001
1000
0100
0010
0001
1000
0100
1000
0001
0100
0010
1000
0001
0100
,
0001
0010
0100
1000
0001
0010
0001
1000
0100
1000
0001
0100
0010
1000
0010
0100
0001
1000
0100
0010
0001
1000
0100
1000
,
0001
0010
0001
0100
0010
1000
0010
0100
0001
1000
0001
0010
0100
1000
0001
0100
0010
1000
0100
0010
0001
1000
0001
0100
,
0010
1000
0001
0100
0001
0010
0100
1000
0001
0100
0001
0010
0100
1000
0001
1000
0010
0100
0001
1000
0100
1000
0010
0100
,
0001
1000
0100
1000
0010
0100
0001
0100
0010
1000
0001
1000
0100
0010
0100
1000
0001
0100
0001
1000
0010
0100
0001
1000
,
0010
0100
0001
0100
0010
1000
0001
1000
0100
0010
0001
0100
0001
1000
0010
0100
0001
1000
0010
1000
0100
0010
0001
1000
,
0100
1000
0001
0100
0010
1000
0001
0010
0001
0100
0010
1000
0001
1000
0100
0010
0100
1000
0001
0100
0001
1000
0010
0100
,
0001
0100
0001
1000
0010
0100
0001
1000
0100
1000
0010
0100
0001
1000
0100
0010
0100
1000
0001
0100
0010
0100
0001
1000
,
0010
1000
0001
0100
0010
0100
0001
1000
0100
1000
0001
0010
0100
1000
0001
0100
0001
0010
0100
1000
0001
1000
0010
0100
,
0001
1000
0010
1000
0001
0100
0001
1000
0100
1000
0010
0100
0001
1000
0100
1000
0010
0100
0001
1000
0001
0010
0100
1000
,
0001
0010
0001
0100
0010
1000
0001
0100
0001
1000
0100
0010
0001
1000
0100
1000
0010
0100
0001
1000
0100
1000
0001
0010
,
0100
0010
0001
1000
0100
1000
0001
0100
0010
1000
0001
0100
0001
1000
0100
0010
0100
1000
0001
0100
0001
1000
0010
0100
,
0001
1000
0010
1000
0001
0100
0001
1000
0100
0010
0100
1000
0001
0010
0001
1000
0100
1000
0001
0100
0001
1000
0010
0100
,
0001
1000
0100
1000
0001
0100
0010
1000
0001
0100
0001
0010
0100
1000
0001
1000
0010
0100
0001
1000
0010
1000
0001
0100
,
0001
1000
0100
1000
0001
0010
0100
1000
0100
0010
0001
1000
0100
1000
0001
0100
0010
1000
0001
0100
0001
0010
0100
1000
,
0001
0100
0010
1000
0001
0100
0001
1000
0100
0010
0100
1000
0001
0100
0010
0100
,
0001
1000
0100
1000
0010
1000
0001
1000
0100
0010
0001
1000
0100
1000
0001
0100
,
0010
1000
0001
0010
0001
0100
0010
1000
0001
0100
0001
1000
0100
0010
0100
1000
,
0001
0100
0001
1000
0100
0010
0100
1000
0001
0010
0001
1000
0001
0100
0010
0100
,
0001
1000
0100
0010
0100
1000
0001
0010
0001
0100
0010
1000
0001
0100
0001
1000
,
0100
0010
0100
1000
0001
0010
0001
0100
0010
1000
0001
0010
0001
0100
0010
1000
,
0010
0100
0001
1000
0100
1000
0001
0100
0001
1000
0100
0010
0001
1000
0100
1000
,
0010
0100
0001
0100
0010
1000
0001
0010
0001
1000
0100
1000
0001
0010
0001
0100
,
0010
0100
0001
1000
0100
0010
0100
1000
0001
1000
0010
0100
0001
0100
0010
1000
,
0100
1000
0001
0100
0001
0010
0100
1000
0001
0010
0001
1000
0100
0010
0001
1000
,
0100
1000
0001
0100
0010
1000
0010
0100
0001
1000
0100
1000
0001
0010
0001
1000
,
0100
0010
0100
1000
0001
0010
0001
1000
0100
1000
0010
0100
0001
0100
0010
1000
,
0001
1000
0100
0010
0001
0010
0100
1000
0001
0010
0001
1000
0100
1000
0001
1000
,
0010
0100
0010
0100
0001
1000
0010
1000
0001
0100
0010
0100
0001
1000
0100
0010
,
0100
1000
0001
0010
0001
1000
0100
0010
0001
1000
0001
0100
0010
1000
0001
0100
,
0001
1000
0010
0100
0001
1000
0100
1000
0001
0100
0010
1000
0010
0100
0001
1000
,
0100
0010
0001
1000
0010
0100
0010
1000
0001
0000
0100
0000
0010
0100
0000
0010
,
1000
0001
0010
0000
0001
1000
0001
0010
0100
0000
1000
0000
0010
0100
0000
0001
,
1000
0001
0010
0000
0100
1000
0000
0010
1000
0000
0001
0000
0010
0100
0000
1000
,
0010
1000
0010
0000
0100
0001
0000
1000
0100
0000
0010
0000
0001
0100
0000
0010
,
1000
0001
1000
0000
0100
0010
0000
0010
0001
0000
1000
0000
0010
1000
0000
0001
,
0100
0010
1000
0000
0001
1000
0000
0100
0010
0000
0001
0000
1000
0100
0000
1000
,
0001
1000
0010
0000
0100
0001
0000
0100
0010
0000
1000
0000
0001
0010
0000
0100
,
1000
0001
1000
0000
0010
0100
0000
0001
1000
0000
0100
0000
0010
0001
0000
1000
,
001M
0100
0010
1000
0001
0100
0001
1000
0100
0010
0100
1000
0001
0010
0001
0100
,
0010
1000
0010
0100
0001
1000
0100
1000
0001
0010
0001
1000
0100
0010
0100
1000
,
0001
0010
0001
1000
0001
0100
0010
1000
0010
0100
0001
1000
0100
0010
0100
1000
,
0001
0010
0001
1000
0100
0010
0100
1000
0001
0010
0001
1000
0100
0010
0100
1000
,
0001
0010
0001
1000
0100
1000
0001
0100
0010
1000
0010
0100
0001
1000
0010
1000
,
0001
1000
0100
0010
0100
1000
0001
0100
0010
0100
0001
1000
0100
1000
0001
0010
,
0001
1000
0100
0010
0100
1000
0001
0010
0001
0100
0010
1000
0001
0100
0010
0100
,
0001
1000
0100
0010
0100
1000
0001
0100
0001
1000
0100
0010
0001
1000
0010
0100
,
M002
0000
0000
0000
0000
0000
0000
0000
0000
0000
0000
0000
0000
0003
0000
0000
;

//---------------dance-single - 33+ (Owem)----------------
#NOTES:
     dance-single:
     33+ (Owem):
     Edit:
     33:
     1.000,1.000,0.063,0.090,1.000,5431.000,23.000,33.000,38.000,0.000:
1000
0100
0010
0001
1000
0001
0100
0010
,
0100
0001
1000
0100
0010
0100
1000
0001
,
1000
0010
1000
0001
0100
0010
0100
0001
,
1000
0001
0100
0001
0010
0100
0010
0001
,
1000
0010
1000
0001
0100
0010
0100
0001
,
1000
0100
0010
0001
1000
0001
1000
0010
,
0100
0001
1000
0100
0010
0001
1000
0100
,
1000
0001
0100
0010
0100
0001
1000
1000
,
1M1M
0010
0100
0001
1000
0100
0010
0100
,
1000
0100
0010
0001
1000
0100
1000
0001
,
0100
0010
0100
0001
1000
0100
0010
0100
,
1000
0001
0100
0001
0010
0100
1000
0001
,
0010
0001
1000
0100
0010
0100
1000
0001
,
1000
0010
0100
0001
1000
0010
1000
0100
,
0010
0001
1000
0100
1000
0001
0100
0010
,
0100
0000
0001
0000
1000
0000
0100
0000
0010
0000
0001
0000
1000
0010
1000
0001
,
02M0
0310
1000
0001
0010
0001
0100
0010
,
1000
0010
0100
0001
1000
0100
0010
0001
,
1000
0100
1000
0001
0100
0010
0100
0001
,
0010
0001
1000
0100
0010
0100
1000
0001
,
1000
0010
0100
0001
1000
0001
0100
0010
,
0100
0001
1000
0010
1000
0001
0100
0001
,
1000
0100
0010
0100
1000
0001
0010
0001
,
1000
0010
1000
0001
0010
0100
0010
0001
,
1MM1
1000
0100
1000
0010
0100
0001
1000
,
0100
1000
0001
0010
0001
0100
0010
1000
,
0001
0010
0100
1000
0001
0010
0001
1000
,
0100
1000
0001
0100
0010
1000
0010
0100
,
0001
1000
0100
0010
0100
1000
0001
0010
,
0001
0000
0100
0000
0010
0000
1000
0000
0001
0000
1000
0000
0100
0000
0000
0M00
,
0000
0000
0000
00M0
0000
0000
0000
0000
000M
000M
000M
000M
000M
0000
0000
0000
,
0000
0000
0000
M000
M000
0000
00M0
0000
0000
00M0
0000
0000
00M0
0000
0000
0000
,
1000
0100
0010
0001
1000
0001
0100
0010
1000
0001
0100
0001
0010
0100
1000
0001
0100
0001
0010
0100
1000
0001
1000
0010
,
0100
0001
1000
0100
1000
0010
0100
0001
1000
0100
1000
0010
0100
0001
0100
0010
1000
0001
1000
0100
0010
0100
1000
0001
,
0100
0001
1000
0010
0100
0001
1000
0010
0100
0001
0100
0010
1000
0001
1000
0100
0010
0001
0100
0001
1000
0010
0100
0001
,
1000
0010
1000
0100
0010
0001
1000
0100
1000
0001
0100
0010
1000
0001
0010
0001
0100
0010
1000
0001
1000
0100
0010
0100
,
1000
0001
0100
0001
1000
0010
0100
0001
0100
0001
1000
0010
0100
0001
1000
0100
1000
0010
0100
0001
1000
0100
0010
0100
,
1000
0001
0100
0010
0100
0001
1000
0010
1000
0001
0100
0010
0100
0001
1000
0100
1000
0001
0010
0100
1000
0001
0100
0001
,
0010
0100
1000
0001
1000
0010
0100
0001
1000
0010
1000
0001
0100
0001
1000
0100
1000
0010
0100
0001
1000
0100
1000
0010
,
0100
0001
1000
0001
0010
0100
1000
0001
0010
0001
0100
0010
1000
0001
0100
0001
1000
0100
0010
0001
1000
0100
1000
0010
,
0100
0001
1000
0100
1000
0001
0010
0100
0010
0001
1000
0100
1000
0001
0100
0010
1000
0001
0100
0001
1000
0100
0010
0100
,
1000
0001
0100
0001
1000
0010
0100
0001
1000
0010
1000
0001
0100
0001
1000
0100
0010
0100
1000
0001
0010
0001
1000
0100
,
1000
0001
0100
0001
1000
0010
0100
0001
1000
0100
1000
0001
0100
0010
1000
0001
0100
0001
0010
0100
1000
0001
1000
0010
,
0100
0001
1000
0010
1000
0001
0100
0001
1000
0100
1000
0001
0010
0100
1000
0100
0010
0001
1000
0100
1000
0001
0100
0010
,
1000
0001
0100
0001
0010
0100
1000
0001
1000
0010
0100
0001
1000
0100
1000
0100
0010
0001
1000
0100
1000
0001
0100
0010
,
1000
0001
0100
0001
1000
0001
0100
0010
0100
0001
1000
0010
0100
0001
1000
0001
0010
0100
1000
0001
1000
0010
0100
0001
,
1000
0100
0010
0001
1000
0100
1000
0001
0100
0010
1000
0001
0100
0001
0010
0100
1000
0001
0010
0001
1000
0100
1000
0001
,
0100
0010
1000
0010
0100
0001
1000
0100
0010
0001
1000
0100
1000
0001
0010
0001
0100
0010
1000
0010
0100
0001
1000
0001
,
0010
0100
1000
0001
0100
0010
1000
0100
0010
0001
1000
0001
0100
0010
1000
0001
0100
0001
0010
0100
1000
0001
0100
0001
,
0010
0100
1000
0001
1000
0010
0100
0001
1000
0100
1000
0010
0100
0001
1000
0100
1000
0010
0100
0001
0100
0010
1000
0001
,
1000
0100
0010
0100
1000
0001
0100
0001
1000
0010
0100
0001
1000
0010
0100
0001
0100
0010
1000
0001
1000
0100
0010
0001
,
0100
0001
1000
0010
0100
0001
1000
0010
1000
0100
0010
0001
1000
0100
1000
0001
0100
0010
1000
0001
0010
0001
0100
0010
,
1000
0001
1000
0100
0010
0100
1000
0001
0100
0001
1000
0010
0100
0001
0100
0001
1000
0010
0100
0001
1000
0100
1000
0010
,
0100
0001
1000
0100
0010
0100
1000
0001
0100
0010
0100
0001
1000
0010
1000
0001
0100
0010
0100
0001
1000
0100
1000
0001
,
0010
0100
1000
0001
0100
0001
0010
0100
1000
0001
1000
0010
0100
0001
1000
0010
1000
0001
0100
0001
1000
0100
1000
0010
,
0100
0001
1000
0100
1000
0010
0100
0001
1000
0001
0010
0100
1000
0001
0010
0001
0100
0010
1000
0001
0100
0001
1000
0100
,
0010
0001
1000
0100
1000
0010
0100
0001
1000
0100
1000
0001
0010
0100
0010
0001
1000
0100
1000
0001
0100
0010
1000
0001
,
0100
0001
1000
0100
0010
0100
1000
0001
0100
0001
1000
0010
0100
0001
1000
0010
1000
0001
0100
0001
1000
0100
0010
0100
,
1000
0001
0010
0001
1000
0100
1000
0001
0100
0001
1000
0010
0100
0001
1000
0100
1000
0001
0100
0010
1000
0001
0100
0001
,
0010
0100
1000
0001
1000
0010
0100
0001
1000
0010
1000
0001
0100
0001
1000
0100
1000
0001
0010
0100
1000
0100
0010
0001
,
1000
0100
1000
0001
0100
0010
1000
0001
0100
0001
0010
0100
1000
0001
1000
0010
0100
0001
1000
0100
1000
0100
0010
0001
,
1000
0100
1000
0001
0100
0010
1000
0001
0100
0001
1000
0001
0100
0010
0100
0001
1000
0010
0100
0001
1000
0001
0010
0100
,
1000
0001
1000
0010
0100
0001
1000
0100
0010
0001
1000
0100
1000
0001
0100
0010
1000
0001
0100
0001
0010
0100
1000
0001
,
0010
0001
1000
0100
1000
0001
0100
0010
1000
0010
0100
0001
1000
0100
0010
0001
1000
0100
1000
0001
0010
0001
0100
0010
,
1000
0010
0100
0001
1000
0001
0010
0100
1000
0001
0100
0010
1000
0100
0010
0001
1000
0001
0100
0010
1000
0001
0100
0001
,
0010
0100
1000
0001
0100
0001
0010
0100
1000
0001
1000
0010
0100
0001
1000
0100
1000
0010
0100
0001
1000
0100
1000
0010
,
0100
0001
0100
0010
1000
0001
1000
0100
0010
0100
1000
0001
0100
0001
1000
0010
0100
0001
1000
0010
0100
0001
0100
0010
,
1000
0001
1000
0100
0010
0001
0100
0001
1000
0010
0100
0001
1000
0010
1000
0100
0010
0001
1000
0100
1000
0001
0100
0010
,
1000
0001
0010
0001
0100
0010
1000
0001
1000
0100
0010
0100
1000
0001
0100
0001
1000
0010
0100
0001
0100
0001
1000
0010
,
0100
0001
1000
0100
1000
0010
0100
0001
1000
0100
0010
0100
1000
0001
0100
0010
0100
0001
1000
0010
1000
0001
0100
0010
,
0100
0001
1000
0100
1000
0001
0010
0100
1000
0001
0100
0001
0010
0100
1000
0001
1000
0010
0100
0001
1000
0010
1000
0001
,
0100
0001
1000
0100
1000
0010
0100
0001
1000
0100
1000
0010
0100
0001
1000
0001
0010
0100
1000
0001
0010
0001
0100
0010
,
1000
0001
0100
0001
1000
0100
0010
0001
1000
0100
1000
0010
0100
0001
1000
0100
1000
0001
0010
0100
0010
0001
1000
0100
,
1000
0001
0100
0010
1000
0001
0100
0001
1000
0100
0010
0100
1000
0001
0100
0001
1000
0010
0100
0001
1000
0010
1000
0001
,
0100
0001
1000
0100
0010
0100
1000
0001
0010
0001
1000
0100
1000
0001
0100
0001
1000
0010
0100
0001
1000
0100
1000
0001
,
0100
0010
1000
0001
0100
0001
0010
0100
1000
0001
1000
0010
0100
0001
1000
0010
1000
0001
0100
0001
1000
0100
1000
0001
,
0010
0100
1000
0100
0010
0001
1000
0100
1000
0001
0100
0010
1000
0001
0100
0001
0010
0100
1000
0001
1000
0010
0100
0001
,
1000
0100
1000
0100
0010
0001
1000
0100
1000
0001
0100
0010
1000
0001
0100
0001
1000
0001
0100
0010
0100
0001
1000
0010
,
0100
0001
1000
0001
0010
0100
1000
0001
1000
0010
0100
0001
1000
0100
0010
0001
1000
0010
1000
0100
0010
0001
1000
0001
,
0100
0010
1000
0001
0100
0001
0010
0100
1000
0001
0100
0001
0010
0100
1000
0001
1000
0010
0100
0001
1000
0100
1000
0010
,
0100
0001
1000
0100
1000
0010
0100
0001
0100
0010
1000
0001
1000
0100
0010
0100
1000
0001
0100
0001
1000
0010
0100
0001
,
1000
0010
0100
0001
0100
0010
1000
0001
1000
0100
0010
0001
0100
0001
1000
0010
0100
0001
1000
0010
1000
0100
0010
0001
,
1000
0100
1000
0001
0100
0010
1000
0001
0010
0001
0100
0010
1000
0001
1000
0100
0010
0100
1000
0001
0100
0001
1000
0010
,
0100
0001
0100
0001
1000
0010
0100
0001
1000
0100
1000
0010
0100
0001
1000
0100
0010
0100
1000
0001
0100
0010
0100
0001
,
1000
0010
1000
0001
0100
0010
0100
0001
1000
0100
1000
0001
0010
0100
1000
0001
0100
0001
0010
0100
1000
0001
1000
0010
,
0100
0001
1000
0010
1000
0001
0100
0001
1000
0100
1000
0010
0100
0001
1000
0100
1000
0010
0100
0001
1000
0001
0010
0100
,
1000
0001
0010
0001
0100
0010
1000
0001
0100
0001
1000
0100
0010
0001
1000
0100
1000
0010
0100
0001
1000
0100
1000
0001
,
0010
0100
0010
0001
1000
0100
1000
0001
0100
0010
1000
0001
0100
0001
1000
0100
0010
0100
1000
0001
0100
0001
1000
0010
,
0100
0001
1000
0010
1000
0001
0100
0001
1000
0100
0010
0100
1000
0001
0010
0001
1000
0100
1000
0001
0100
0001
1000
0010
,
0100
0001
1000
0100
1000
0001
0100
0010
1000
0001
0100
0001
0010
0100
1000
0001
1000
0010
0100
0001
1000
0010
1000
0001
,
0100
0001
1000
0100
1000
0001
0010
0100
1000
0100
0010
0001
1000
0100
1000
0001
0100
0010
1000
0001
0100
0001
0010
0100
,
1000
0001
1000
0010
0100
0001
1000
0100
1000
0100
0010
0001
1000
0100
1000
0001
0100
0010
1000
0001
0100
0001
1000
0001
,
0100
0010
0100
0001
1000
0010
0100
0001
1000
0001
0010
0100
1000
0001
1000
0010
0100
0001
1000
0100
0010
0001
1000
0100
,
1000
0001
0100
0010
1000
0001
0100
0001
0010
0100
1000
0001
0010
0001
1000
0100
1000
0001
0100
0010
1000
0010
0100
0001
,
1000
0100
0010
0001
1000
0100
1000
0001
0010
0001
0100
0010
1000
0010
0100
0001
1000
0001
0010
0100
1000
0001
0100
0010
,
1000
0001
0010
0001
0100
0010
1000
0001
0100
0001
0010
0100
1000
0001
0100
0010
0100
0001
1000
0010
0100
0001
1000
0100
,
M010
0001
1000
0100
0010
0100
1000
0001
0100
0010
0100
0001
1000
0010
1000
0001
,
1000
0000
0100
0000
0010
0000
0001
0000
1000
0000
0100
0000
1000
0000
0001
0000
0100
0000
0010
0000
0100
0000
0001
0000
2000
3000
0020
0030
2000
3000
0020
0000
,
1030
0001
0100
0001
0010
0100
1000
0001
0010
0001
0100
0010
1000
0001
1000
0100
,
0010
0000
0100
0000
1000
0000
0001
0000
0010
0000
0001
0000
M100
0000
0010
0000
1M00
0000
0001
0000
0010
0000
0100
0000
20M0
3000
0002
0003
2000
3000
00M2
0000
,
1003
010M
0010
0100
1000
0001
01M0
0001
M010
0100
1000
0001
0010
0M01
1000
01M0
,
1000
0000
0001
0000
0100
0000
0010
0000
100M
0000
0010
0000
0100
0000
00M1
0000
1000
0000
0100
0000
0010
0000
0001
0000
M200
0300
0020
0030
0200
0300
0020
0000
,
0130
0001
1000
0010
1000
0100
10M0
0001
0010
0001
M100
0010
1000
0001
1000
0100
,
0010
0000
0100
0000
10M0
0000
0001
0000
0100
0000
M001
0000
0010
0000
0100
0000
1000
0000
0001
0000
1000
0000
0010
0000
0200
0300
0002
0003
0200
0300
0002
0000
,
M2M3
0300
0040
1030
0001
0100
0001
0010
0400
1300
0001
0010
0001
0100
0040
1030
,
0001
0000
0100
0000
0001
0000
1000
0000
0040
0000
1030
0000
0001
0000
1000
0000
0100
0000
0010
0000
0004
0000
1003
0000
0020
0030
0200
0300
0020
0030
0200
0000
,
0340
1030
0001
0010
0001
0100
0040
1030
0001
0100
0001
1000
0400
0310
0100
1000
,
0001
0000
0100
0000
0004
0000
0013
0000
0100
0000
1000
0000
0001
0000
0010
0000
0004
0000
0103
0000
0010
0000
1000
0000
0002
0003
0200
0300
0004
0000
0203
0000
,
0301
1000
0100
1000
0040
0130
0001
1000
0010
1000
0004
0103
0010
1000
0001
0100
,
0040
0000
0130
0000
0001
0000
1000
0000
0010
0000
1000
0000
0400
0000
0310
0000
0001
0000
1000
0000
0100
0000
1000
0000
0040
0000
0230
0300
0020
0030
0200
0000
,
0310
1000
0004
0103
0001
0010
0100
1000
0004
0013
0001
0100
0010
1000
0040
0130
,
0001
0000
1000
0000
0100
0000
0010
0000
0004
0000
1003
0000
0100
0000
1000
0000
0010
0000
0100
0000
0040
0000
1030
0000
0002
0003
0020
0030
0002
0003
0020
0000
,
0031
1000
0010
0100
0001
1000
0010
1000
0001
0100
0001
0010
0100
1000
0001
0100
0010
1000
0001
0100
0010
0100
0001
1000
0100
0010
0001
1000
0010
0100
0001
1000
,
0100
0010
0001
1000
0001
0010
0100
1000
0001
0100
0010
1000
0001
0100
0010
1000
0001
0010
0100
1000
0001
0010
0001
1000
0100
0010
0001
1000
0001
0100
0010
1000
,
0001
0100
0010
0100
0001
1000
0100
0010
0001
1000
0100
0010
0001
1000
0010
0100
0001
0100
0010
1000
0001
1000
0100
0010
0001
1000
0100
0010
0001
1000
0010
0100
,
0001
1000
0100
1000
0001
0100
0010
1000
0001
0100
0001
0010
0100
1000
0001
0010
0001
0100
0010
1000
0001
0100
0010
0100
0001
1000
0100
0010
0001
1000
0010
0100
,
0001
1000
0100
0010
0100
1000
0001
0100
0001
0010
0100
1000
0001
0100
0010
1000
0001
0100
0001
1000
0100
0010
0001
1000
0010
0100
0001
1000
0100
0010
0001
1000
,
0100
1000
0001
0100
0010
1000
0001
0100
0010
1000
0100
1000
0001
0010
0100
1000
0001
1000
0100
0010
0001
1000
0010
0100
0001
1000
0100
1000
0001
0100
0001
0010
,
0100
1000
0001
1000
0010
0100
0001
1000
0010
1000
0001
0100
0001
1000
0100
0010
0001
1000
0100
0010
0001
1000
0010
0100
0001
1000
0001
0010
0100
1000
0010
0100
,
0001
1000
0100
0010
0001
1000
0010
1000
0001
0100
0001
0010
0100
1000
0001
0010
0001
0100
0010
1000
0001
0100
0001
1000
0100
0010
0001
1000
0010
0100
0001
1000
,
0010
1000
0001
0100
0001
1000
0100
0010
0001
1000
0010
0100
0001
1000
0100
0010
0001
1000
0010
0100
0001
1000
0100
1000
0001
0100
0001
0010
0100
1000
0100
0010
,
0001
1000
0010
0100
0001
1000
0100
1000
0001
0010
0100
1000
0001
1000
0010
0100
0001
1000
0100
0010
0001
1000
0010
1000
0001
0100
0001
1000
0100
0010
0001
1000
,
0010
0100
0001
0100
0010
1000
0001
1000
0100
0010
0001
1000
0010
0100
0001
0010
0100
1000
0001
1000
0100
0010
0001
1000
0010
0100
0001
1000
0100
0010
0001
1000
,
0010
0100
0001
1000
0100
1000
0001
0100
0001
0010
0100
1000
0010
0100
0001
1000
0010
1000
0001
0100
0001
1000
0100
0010
0001
1000
0010
0100
0001
1000
0100
0010
,
0001
1000
0010
0100
0001
1000
0010
1000
0001
0100
0001
0010
0100
1000
0001
0100
0010
1000
0001
0100
0010
0100
0001
1000
0100
0010
0001
1000
0010
0100
0001
1000
,
0100
0010
0001
1000
0001
0010
0100
1000
0001
0100
0010
1000
0001
0100
0010
1000
0001
0010
0100
1000
0001
0010
0001
1000
0100
0010
0001
1000
0001
0100
0010
1000
,
0001
0100
0010
0100
0001
1000
0100
0010
0001
1000
0100
0010
0001
1000
0010
0100
0001
0100
0010
1000
0001
1000
0100
0010
0001
1000
0100
0010
0001
1000
0010
0100
,
0001
1000
0100
1000
0001
0100
0010
1000
0001
0100
0001
0010
0100
1000
0001
0010
0001
0100
0010
1000
0001
0100
0010
0100
0001
1000
0100
0010
0001
1000
0010
0100
,
0001
1000
0100
0010
0100
1000
0001
0100
0001
0010
0100
1000
0001
0100
0010
1000
0001
0100
0001
1000
0100
0010
0001
1000
0010
0100
0001
1000
0100
0010
0001
1000
,
0100
1000
0001
0100
0010
1000
0001
0100
0010
1000
0100
1000
0001
0010
0100
1000
0001
1000
0100
0010
0001
1000
0010
0100
0001
1000
0100
1000
0001
0100
0001
0010
,
0100
1000
0001
1000
0010
0100
0001
1000
0010
1000
0001
0100
0001
1000
0100
0010
0001
1000
0100
0010
0001
1000
0010
0100
0001
1000
0001
0010
0100
1000
0010
0100
,
0001
1000
0100
0010
0001
1000
0010
1000
0001
0100
0001
0010
0100
1000
0001
0010
0001
0100
0010
1000
0001
0100
0001
1000
0100
0010
0001
1000
0010
0100
0001
1000
,
0010
1000
0001
0100
0001
1000
0100
0010
0001
1000
0010
0100
0001
1000
0100
0010
0001
1000
0010
0100
0001
1000
0100
1000
0001
0100
0001
0010
0100
1000
0100
0010
,
0001
1000
0010
0100
0001
1000
0100
1000
0001
0010
0100
1000
0001
1000
0010
0100
0001
1000
0100
0010
0001
1000
0010
1000
0001
0100
0001
1000
0100
0010
0001
1000
,
0010
0100
0001
0100
0010
1000
0001
1000
0100
0010
0001
1000
0010
0100
0001
0010
0100
1000
0001
1000
0100
0010
0001
1000
0010
0100
0001
1000
0100
0010
0001
1000
,
0010
0100
0001
1000
0100
1000
0001
0100
0001
0010
0100
1000
0010
0100
0001
1000
0010
1000
0001
0100
0001
1000
0100
0010
0001
1000
0010
0100
0001
1000
0100
0010
,
0001
1000
0010
0100
0001
1000
0010
1000
0001
0100
0001
0010
0100
1000
0001
0100
0010
1000
0001
0100
0010
0100
0001
1000
0100
0010
0001
1000
0010
0100
0001
1000
,
0100
0010
0001
1000
0001
0010
0100
1000
0001
0100
0010
1000
0001
0100
0010
1000
0001
0010
0100
1000
0001
0010
0001
1000
0100
0010
0001
1000
0001
0100
0010
1000
,
0001
0100
0010
0100
0001
1000
0100
0010
0001
1000
0100
0010
0001
1000
0010
0100
0001
0100
0010
1000
0001
1000
0100
0010
0001
1000
0100
0010
0001
1000
0010
0100
,
0001
1000
0100
1000
0001
0100
0010
1000
0001
0100
0001
0010
0100
1000
0001
0010
0001
0100
0010
1000
0001
0100
0010
0100
0001
1000
0100
0010
0001
1000
0010
0100
,
0001
1000
0100
0010
0100
1000
0001
0100
0001
0010
0100
1000
0001
0100
0010
1000
0001
0100
0001
1000
0100
0010
0001
1000
0010
0100
0001
1000
0100
0010
0001
1000
,
0100
1000
0001
0100
0010
1000
0001
0100
0010
1000
0100
1000
0001
0010
0100
1000
0001
1000
0100
0010
0001
1000
0010
0100
0001
1000
0100
1000
0001
0100
0001
0010
,
0100
1000
0001
1000
0010
0100
0001
1000
0010
1000
0001
0100
0001
1000
0100
0010
0001
1000
0100
0010
0001
1000
0010
0100
0001
1000
0001
0010
0100
1000
0010
0100
,
0001
1000
0100
0010
0001
1000
0010
1000
0001
0100
0001
0010
0100
1000
0001
0010
0001
0100
0010
1000
0001
0100
0001
1000
0100
0010
0001
1000
0010
0100
0001
1000
,
0010
1000
0001
0100
0001
1000
0100
0010
0001
1000
0010
0100
0001
1000
0100
0010
0001
1000
0010
0100
0001
1000
0100
1000
0001
0100
0001
0010
0100
1000
0100
0010
,
0001
1000
0010
0100
0001
1000
0100
1000
0001
0010
0100
1000
0001
1000
0010
0100
0001
1000
0100
0010
0001
1000
0010
1000
0001
0100
0001
1000
0100
0010
0001
1000
,
0010
0100
0001
0100
0010
1000
0001
1000
0100
0010
0001
1000
0010
0100
0001
0010
0100
1000
0001
1000
0100
0010
0001
1000
0010
0100
0001
1000
0100
0010
0001
1000
,
0010
0100
0001
1000
0100
1000
0001
0100
0001
0010
0100
1000
0010
0100
0001
1000
0010
1000
0001
0100
0001
1000
0100
0010
0001
1000
0010
0100
0001
1000
0100
0010
,
0001
1000
0010
0100
0001
1000
0010
1000
0001
0100
0001
0010
0100
1000
0001
0100
0010
1000
0001
0100
0010
0100
0001
1000
0100
0010
0001
1000
0010
0100
0001
1000
,
0100
0010
0001
1000
0001
0010
0100
1000
0001
0100
0010
1000
0001
0100
0010
1000
0001
0010
0100
1000
0001
0010
0001
1000
0100
0010
0001
1000
0001
0100
0010
1000
,
0001
0100
0010
0100
0001
1000
0100
0010
0001
1000
0100
0010
0001
1000
0010
0100
0001
0100
0010
1000
0001
1000
0100
0010
0001
1000
0100
0010
0001
1000
0010
0100
,
0001
1000
0100
1000
0001
0100
0010
1000
0001
0100
0001
0010
0100
1000
0001
0010
0001
0100
0010
1000
0001
0100
0010
0100
0001
1000
0100
0010
0001
1000
0010
0100
,
0001
1000
0100
0010
0100
1000
0001
0100
0001
0010
0100
1000
0001
0100
0010
1000
0001
0100
0001
1000
0100
0010
0001
1000
0010
0100
0001
1000
0100
0010
0001
1000
,
0100
1000
0001
0100
0010
1000
0001
0100
0010
1000
0100
1000
0001
0010
0100
1000
0001
1000
0100
0010
0001
1000
0010
0100
0001
1000
0100
1000
0001
0100
0001
0010
,
0100
1000
0001
1000
0010
0100
0001
1000
0010
1000
0001
0100
0001
1000
0100
0010
0001
1000
0100
0010
0001
1000
0010
0100
0001
1000
0001
0010
0100
1000
0010
0100
,
0001
1000
0100
0010
0001
1000
0010
1000
0001
0100
0001
0010
0100
1000
0001
0010
0001
0100
0010
1000
0001
0100
0001
1000
0100
0010
0001
1000
0010
0100
0001
1000
,
0010
1000
0001
0100
0001
1000
0100
0010
0001
1000
0010
0100
0001
1000
0100
0010
0001
1000
0010
0100
0001
1000
0100
1000
0001
0100
0001
0010
0100
1000
0100
0010
,
0001
1000
0010
0100
0001
1000
0100
1000
0001
0010
0100
1000
0001
1000
0010
0100
0001
1000
0100
0010
0001
1000
0010
1000
0001
0100
0001
1000
0100
0010
0001
1000
,
0010
0100
0001
0100
0010
1000
0001
1000
0100
0010
0001
1000
0010
0100
0001
0010
0100
1000
0001
1000
0100
0010
0001
1000
0010
0100
0001
1000
0100
0010
0001
1000
,
0010
0100
0001
1000
0100
1000
0001
0100
0001
0010
0100
1000
0010
0100
0001
1000
0010
1000
0001
0100
0001
1000
0100
0010
0001
1000
0010
0100
0001
1000
0100
0010
,
0001
1000
0010
0100
0001
1000
0010
1000
0001
0100
0001
0010
0100
1000
0001
0100
0010
1000
0001
0100
0010
0100
0001
1000
0100
0010
0001
1000
0010
0100
0001
1000
,
0100
0010
0001
1000
0001
0010
0100
1000
0001
0100
0010
1000
0001
0100
0010
1000
0001
0010
0100
1000
0001
0010
0001
1000
0100
0010
0001
1000
0001
0100
0010
1000
,
0001
0100
0010
0100
0001
1000
0100
0010
0001
1000
0100
0010
0001
1000
0010
0100
0001
0100
0010
1000
0001
1000
0100
0010
0001
1000
0100
0010
0001
1000
0010
0100
,
0001
1000
0100
1000
0001
0100
0010
1000
0001
0100
0001
0010
0100
1000
0001
0010
0001
0100
0010
1000
0001
0100
0010
0100
0001
1000
0100
0010
0001
1000
0010
0100
,
0001
1000
0100
0010
0100
1000
0001
0100
0001
0010
0100
1000
0001
0100
0010
1000
0001
0100
0001
1000
0100
0010
0001
1000
0010
0100
0001
1000
0100
0010
0001
1000
,
0100
1000
0001
0100
0010
1000
0001
0100
0010
1000
0100
1000
0001
0010
0100
1000
0001
1000
0100
0010
0001
1000
0010
0100
0001
1000
0100
1000
0001
0100
0001
0010
,
0100
1000
0001
1000
0010
0100
0001
1000
0010
1000
0001
0100
0001
1000
0100
0010
0001
1000
0100
0010
0001
1000
0010
0100
0001
1000
0001
0010
0100
1000
0010
0100
,
0001
1000
0100
0010
0001
1000
0010
1000
0001
0100
0001
0010
0100
1000
0001
0010
0001
0100
0010
1000
0001
0100
0001
1000
0100
0010
0001
1000
0010
0100
0001
1000
,
0010
1000
0001
0100
0001
1000
0100
0010
0001
1000
0010
0100
0001
1000
0100
0010
0001
1000
0010
0100
0001
1000
0100
1000
0001
0100
0001
0010
0100
1000
0100
0010
,
0001
1000
0010
0100
0001
1000
0100
1000
0001
0010
0100
1000
0001
1000
0010
0100
0001
1000
0100
0010
0001
1000
0010
1000
0001
0100
0001
1000
0100
0010
0001
1000
,
0010
0100
0001
0100
0010
1000
0001
1000
0100
0010
0001
1000
0010
0100
0001
0010
0100
1000
0001
1000
0100
0010
0001
1000
0010
0100
0001
1000
0100
0010
0001
1000
,
0010
0100
0001
1000
0100
1000
0001
0100
0001
0010
0100
1000
0010
0100
0001
1000
0010
1000
0001
0100
0001
1000
0100
0010
0001
1000
0010
0100
0001
1000
0100
0010
,
0001
1000
0010
0100
0001
1000
0010
1000
0001
0100
0001
0010
0100
1000
0001
0100
0010
1000
0001
0100
0010
0100
0001
1000
0100
0010
0001
1000
0010
0100
0001
1000
,
0100
0010
0001
1000
0001
0010
0100
1000
0001
0100
0010
1000
0001
0100
0010
1000
0001
0010
0100
1000
0001
0010
0001
1000
0100
0010
0001
1000
0001
0100
0010
1000
,
0001
0100
0010
0100
0001
1000
0100
0010
0001
1000
0100
0010
0001
1000
0010
0100
0001
0100
0010
1000
0001
1000
0100
0010
0001
1000
0100
0010
0001
1000
0010
0100
,
0001
1000
0100
1000
0001
0100
0010
1000
0001
0100
0001
0010
0100
1000
0001
0010
0001
0100
0010
1000
0001
0100
0010
0100
0001
1000
0100
0010
0001
1000
0010
0100
,
0001
1000
0100
0010
0100
1000
0001
0100
0001
0010
0100
1000
0001
0100
0010
1000
0001
0100
0001
1000
0100
0010
0001
1000
0010
0100
0001
1000
0100
0010
0001
1000
,
0100
1000
0001
0100
0010
1000
0001
0100
0010
1000
0100
1000
0001
0010
0100
1000
0001
1000
0100
0010
0001
1000
0010
0100
0001
1000
0100
1000
0001
0100
0001
0010
,
0100
1000
0001
1000
0010
0100
0001
1000
0010
1000
0001
0100
0001
1000
0100
0010
0001
1000
0100
0010
0001
1000
0010
0100
0001
1000
0001
0010
0100
1000
0010
0100
,
0001
1000
0100
0010
0001
1000
0010
1000
0001
0100
0001
0010
0100
1000
0001
0010
0001
0100
0010
1000
0001
0100
0001
1000
0100
0010
0001
1000
0010
0100
0001
1000
,
0010
1000
0001
0100
0001
1000
0100
0010
0001
1000
0010
0100
0001
1000
0100
0010
0001
1000
0010
0100
0001
1000
0100
1000
0001
0100
0001
0010
0100
1000
0100
0010
,
0001
1000
0010
0100
0001
1000
0100
1000
0001
0010
0100
1000
0001
1000
0010
0100
0001
1000
0100
0010
0001
1000
0010
1000
0001
0100
0001
1000
0100
0010
0001
1000
,
0010
0100
0001
0100
0010
1000
0001
1000
0100
0010
0001
1000
0010
0100
0001
0010
0100
1000
0001
1000
0100
0010
0001
1000
0010
0100
0001
1000
0100
0010
0001
1000
,
0010
0100
0001
1000
0100
1000
0001
0100
0001
0010
0100
1000
0010
0100
0001
1000
0010
1000
0001
0100
0001
1000
0100
0010
0001
1000
0010
0100
0001
1000
0100
0010
,
0001
1000
0010
0100
0001
1000
0010
1000
0001
0100
0001
0010
0100
1000
0001
0100
0010
1000
0001
0100
0010
0100
0001
1000
0100
0010
0001
1000
0010
0100
0001
1000
,
0100
0010
0001
1000
0001
0010
0100
1000
0001
0100
0010
1000
0001
0100
0010
1000
0001
0010
0100
1000
0001
0010
0001
1000
0100
0010
0001
1000
0001
0100
0010
1000
,
0001
0100
0010
0100
0001
1000
0100
0010
0001
1000
0100
0010
0001
1000
0010
0100
0001
0100
0010
1000
0001
1000
0100
0010
0001
1000
0100
0010
0001
1000
0010
0100
,
0001
1000
0100
1000
0001
0100
0010
1000
0001
0100
0001
0010
0100
1000
0001
0010
0001
0100
0010
1000
0001
0100
0010
0100
0001
1000
0100
0010
0001
1000
0010
0100
,
0001
1000
0100
0010
0100
1000
0001
0100
0001
0010
0100
1000
0001
0100
0010
1000
0001
0100
0001
1000
0100
0010
0001
1000
0010
0100
0001
1000
0100
0010
0001
1000
,
0100
1000
0001
0100
0010
1000
0001
0100
0010
1000
0100
1000
0001
0010
0100
1000
0001
1000
0100
0010
0001
1000
0010
0100
0001
1000
0100
1000
0001
0100
0001
0010
,
0100
1000
0001
1000
0010
0100
0001
1000
0010
1000
0001
0100
0001
1000
0100
0010
0001
1000
0100
0010
0001
1000
0010
0100
0001
1000
0001
0010
0100
1000
0010
0100
,
0001
1000
0100
0010
0001
1000
0010
1000
0001
0100
0001
0010
0100
1000
0001
0010
0001
0100
0010
1000
0001
0100
0001
1000
0100
0010
0001
1000
0010
0100
0001
1000
,
0010
1000
0100
0010
0001
1000
0100
1000
0001
0100
0010
1000
0001
0100
0001
1000
0001
0100
0010
0100
0001
1000
0010
0100
,
0001
1000
0001
0010
0100
1000
0001
1000
0010
0100
0001
1000
0100
0010
0001
1000
0100
1000
0001
0100
0010
1000
0001
0100
,
0001
0010
0100
1000
0001
0010
0001
1000
0100
1000
0001
0100
0010
1000
0010
0100
0001
1000
0100
0010
0001
1000
0100
1000
,
0001
0010
0001
0100
0010
1000
0010
0100
0001
1000
0001
0010
0100
1000
0001
0100
0010
1000
0100
0010
0001
1000
0001
0100
,
0010
1000
0001
0100
0001
0010
0100
1000
0001
0100
0001
0010
0100
1000
0001
1000
0010
0100
0001
1000
0100
1000
0010
0100
,
0001
1000
0100
1000
0010
0100
0001
0100
0010
1000
0001
1000
0100
0010
0100
1000
0001
0100
0001
1000
0010
0100
0001
1000
,
0010
0100
0001
0100
0010
1000
0001
1000
0100
0010
0001
0100
0001
1000
0010
0100
0001
1000
0010
1000
0100
0010
0001
1000
,
0100
1000
0001
0100
0010
1000
0001
0010
0001
0100
0010
1000
0001
1000
0100
0010
0100
1000
0001
0100
0001
1000
0010
0100
,
0001
0100
0001
1000
0010
0100
0001
1000
0100
1000
0010
0100
0001
1000
0100
0010
0100
1000
0001
0100
0010
0100
0001
1000
,
0010
1000
0001
0100
0010
0100
0001
1000
0100
1000
0001
0010
0100
1000
0001
0100
0001
0010
0100
1000
0001
1000
0010
0100
,
0001
1000
0010
1000
0001
0100
0001
1000
0100
1000
0010
0100
0001
1000
0100
1000
0010
0100
0001
1000
0001
0010
0100
1000
,
0001
0010
0001
0100
0010
1000
0001
0100
0001
1000
0100
0010
0001
1000
0100
1000
0010
0100
0001
1000
0100
1000
0001
0010
,
0100
0010
0001
1000
0100
1000
0001
0100
0010
1000
0001
0100
0001
1000
0100
0010
0100
1000
0001
0100
0001
1000
0010
0100
,
0001
1000
0010
1000
0001
0100
0001
1000
0100
0010
0100
1000
0001
0010
0001
1000
0100
1000
0001
0100
0001
1000
0010
0100
,
0001
1000
0100
1000
0001
0100
0010
1000
0001
0100
0001
0010
0100
1000
0001
1000
0010
0100
0001
1000
0010
1000
0001
0100
,
0001
1000
0100
1000
0001
0010
0100
1000
0100
0010
0001
1000
0100
1000
0001
0100
0010
1000
0001
0100
0001
0010
0100
1000
,
0001
0100
0010
1000
0001
0100
0001
1000
0100
0010
0100
1000
0001
0100
0010
0100
,
0001
1000
0100
1000
0010
1000
0001
1000
0100
0010
0001
1000
0100
1000
0001
0100
,
0010
1000
0001
0010
0001
0100
0010
1000
0001
0100
0001
1000
0100
0010
0100
1000
,
0001
0100
0001
1000
0100
0010
0100
1000
0001
0010
0001
1000
0001
0100
0010
0100
,
0001
1000
0100
0010
0100
1000
0001
0010
0001
0100
0010
1000
0001
0100
0001
1000
,
0100
0010
0100
1000
0001
0010
0001
0100
0010
1000
0001
0010
0001
0100
0010
1000
,
0010
0100
0001
1000
0100
1000
0001
0100
0001
1000
0100
0010
0001
1000
0100
1000
,
0010
0100
0001
0100
0010
1000
0001
0010
0001
1000
0100
1000
0001
0010
0001
0100
,
0010
0100
0001
1000
0100
0010
0100
1000
0001
1000
0010
0100
0001
0100
0010
1000
,
0100
1000
0001
0100
0001
0010
0100
1000
0001
0010
0001
1000
0100
0010
0001
1000
,
0100
1000
0001
0100
0010
1000
0010
0100
0001
1000
0100
1000
0001
0010
0001
1000
,
0100
0010
0100
1000
0001
0010
0001
1000
0100
1000
0010
0100
0001
0100
0010
1000
,
0001
1000
0100
0010
0001
0010
0100
1000
0001
0010
0001
1000
0100
1000
0001
1000
,
0010
0100
0010
0100
0001
1000
0010
1000
0001
0100
0010
0100
0001
1000
0100
0010
,
0100
1000
0001
0010
0001
1000
0100
0010
0001
1000
0001
0100
0010
1000
0001
0100
,
0001
1000
0010
0100
0001
1000
0100
1000
0001
0100
0010
1000
0010
0100
0001
1000
,
0100
0010
0001
1000
0010
0100
0010
1000
0001
0000
0100
0000
0010
0100
0000
0010
,
1000
0001
0010
0000
0001
1000
0001
0010
0100
0000
1000
0000
0010
0100
0000
0001
,
1000
0001
0010
0000
0100
1000
0000
0010
1000
0000
0001
0000
0010
0100
0000
1000
,
0010
1000
0010
0000
0100
0001
0000
1000
0100
0000
0010
0000
0001
0100
0000
0010
,
1000
0001
1000
0000
0100
0010
0000
0010
0001
0000
1000
0000
0010
1000
0000
0001
,
0100
0010
1000
0000
0001
1000
0000
0100
0010
0000
0001
0000
1000
0100
0000
1000
,
0001
1000
0010
0000
0100
0001
0000
0100
0010
0000
1000
0000
0001
0010
0000
0100
,
1000
0001
1000
0000
0010
0100
0000
0001
1000
0000
0100
0000
0010
0001
0000
1000
,
001M
0100
0010
1000
0001
0100
0001
1000
0100
0010
0100
1000
0001
0010
0001
0100
,
0010
1000
0010
0100
0001
1000
0100
1000
0001
0010
0001
1000
0100
0010
0100
1000
,
0001
0010
0001
1000
0001
0100
0010
1000
0010
0100
0001
1000
0100
0010
0100
1000
,
0001
0010
0001
1000
0100
0010
0100
1000
0001
0010
0001
1000
0100
0010
0100
1000
,
0001
0010
0001
1000
0100
1000
0001
0100
0010
1000
0010
0100
0001
1000
0010
1000
,
0001
1000
0100
0010
0100
1000
0001
0100
0010
0100
0001
1000
0100
1000
0001
0010
,
0001
1000
0100
0010
0100
1000
0001
0010
0001
0100
0010
1000
0001
0100
0010
0100
,
0001
1000
0100
0010
0100
1000
0001
0100
0001
1000
0100
0010
0001
1000
0010
0100
,
M002
0000
0000
0000
0000
0000
0000
0000
0000
0000
0000
0000
0000
0003
0000
0000
;
