#TITLE:Carpet Muncher;
#SUBTITLE:;
#ARTIST:µ-Ziq;
#TITLETRANSLIT:;
#SUBTITLETRANSLIT:;
#ARTISTTRANSLIT:;
#CREDIT:;
#BANNER:Carpet Muncher - banner.png;
#BACKGROUND:Carpet Muncher - bg.png;
#LYRICSPATH:;
#CDTITLE:pfx - icon.png;
#MUSIC:Carpet Muncher.mp3;
#OFFSET:-0.276;
#SAMPLESTART:43.272;
#SAMPLELENGTH:12.000;
#SELECTABLE:YES;
#BPMS:0.000=155.840,351.000=156.000;
#STOPS:;
#BGCHANGES:;
// cache tags:
#FIRSTBEAT:0.000;
#LASTBEAT:351.000;
#SONGFILENAME:Songs/Community Keyboard Megapack - Volume 1/(pfx13AE) Carpet Muncher/Carpet Muncher.sm;
#HASMUSIC:1;
#HASBANNER:1;
#MUSICLENGTH:143.203;
// end cache tags

//---------------dance-single - ----------------
#NOTES:
     dance-single:
     :
     Hard:
     11:
     1.000,1.000,1.000,0.286,0.967,879.000,220.000,41.000,0.000,10.000:
1000
0000
0001
1000
0100
0010
0000
1000
,
0000
0000
0000
1000
0000
0000
0100
0010
0001
0010
0000
0000
0100
0000
0000
1000
0000
0000
0010
0000
0000
1000
0000
0000
,
1000
0000
0010
0100
0001
0010
0000
0100
,
0000
0000
0000
0100
0000
0000
0010
0000
0000
0100
0000
0000
1000
0100
0010
0100
0000
0000
0100
0000
0000
1000
0000
0000
,
0100
0000
0010
0100
0010
0001
0000
1000
,
0000
0000
0000
0000
0000
0000
0000
0000
0000
0000
0000
0000
0000
0000
0000
0000
0000
0000
0000
0000
0000
0000
0000
0000
1000
0000
0000
0000
0000
0000
0000
0000
0000
0000
0000
0000
0000
0000
0000
0000
0000
0000
0000
0000
0000
0000
0000
0000
0010
0000
0000
0000
0000
0000
0000
0000
0100
0000
0000
0000
0000
0000
0000
0000
0001
0000
0000
0000
0000
0000
0000
0000
1000
0000
0000
0000
0000
0000
0000
0000
0000
0000
0000
0000
0000
0000
0000
0000
0000
0000
0000
0000
0000
0000
0000
0000
0100
0000
0000
0000
0000
0000
0010
0000
0000
0000
0000
0000
0001
0000
0000
0000
0000
0000
0000
0000
0000
0000
0000
0000
0100
0000
0000
0000
0000
0000
0000
0000
0000
0000
0000
0000
0000
0000
0000
0000
0000
0000
0000
0000
0000
0000
0000
0000
0001
0000
0000
0000
0000
0000
0000
0000
0000
0000
0000
0000
0000
0000
0000
0000
0000
0000
0000
0000
0000
0000
0000
0000
0100
0000
0000
0000
0000
0000
0000
0000
0000
0000
0000
0000
0000
0000
0000
0000
0000
0000
0000
0000
0000
0000
0000
0000
,
1000
0000
0100
0000
0000
0000
0001
0000
0000
0100
0000
0000
0010
0000
0000
1000
0000
0000
0000
0000
0000
1000
0000
0000
,
0000
0000
0000
1000
0000
0000
1000
0000
0000
0100
0000
0000
0010
0001
0010
0100
0000
0000
2000
0000
0000
0000
0000
0000
,
3101
0000
0000
0000
0000
0000
0000
0000
0000
0000
0000
0000
0000
0000
0000
0000
0000
0000
0000
0000
0110
0000
0001
0000
1000
0000
0001
0010
1100
0000
0000
0000
,
0000
0000
0000
0000
0000
0000
1000
0000
0000
0000
0000
0000
0000
1000
0000
0100
0000
0000
0000
0010
0000
0001
0000
0010
0000
0000
0000
0000
2100
0000
0000
0000
,
0000
0000
0000
0000
0001
0000
0001
0000
0001
3000
0021
0000
0031
0000
0101
0000
,
0001
0000
0010
0000
0100
0000
1000
0000
0110
0000
0000
0000
0001
0000
0010
0000
0100
0000
1000
0000
0001
0000
0000
0000
1100
0000
0000
0000
1000
0100
0010
0001
,
1100
0000
0000
0000
0000
0000
1000
0000
0000
1000
0000
0000
1000
0100
0010
1001
0000
0000
0000
0000
0000
0011
0000
0000
,
0110
0000
1000
0100
0011
0100
0000
0100
1001
0000
2010
0000
0010
0000
0020
0000
,
3000
0000
0000
0000
0000
0000
0030
0010
0010
0010
0110
0001
0000
0000
0011
0000
,
0000
0000
0000
0000
1000
0100
0010
0100
1000
0000
0010
0000
0010
0000
0100
0000
0100
0000
0010
0000
0001
0000
0000
0000
1001
0000
0000
0000
0011
0000
0000
0000
,
0100
0000
0000
0100
0000
0000
0100
0000
0000
0100
0000
0000
0100
0000
0000
0010
0000
0000
0001
0010
0100
1001
0000
0000
,
0000
0000
0110
0000
1000
0000
1000
0100
0010
0100
1000
0100
0010
0100
1200
0000
,
1000
1000
1000
1000
1000
1300
1000
1000
,
1000
0000
0100
0000
0010
0000
0001
0000
0110
0000
0000
0000
1000
0000
0100
0000
0011
0000
0100
0000
1000
0000
0000
0000
1000
0000
0000
0000
0100
0010
0001
1000
,
0110
0000
0000
0000
0000
0000
0000
0000
0000
0000
0000
0000
0010
0000
0000
0000
0010
0000
0000
0000
0010
0000
0000
0000
0010
0000
0001
0000
0010
0000
1100
0000
0000
0000
0000
0000
0001
0000
0000
0001
0000
0000
0101
0000
0000
0000
0000
0000
,
0010
0000
1000
1000
0010
0100
0000
0100
0101
0000
0001
0000
0001
0000
0001
0000
,
0000
0000
1000
0000
1000
0001
1000
0100
1000
0000
0100
0010
0001
0010
0100
0100
,
0000
0000
1000
0000
0100
0010
0001
0010
0100
0000
1000
0000
0010
0000
0100
0000
0011
0000
0100
0000
0010
0000
0100
0000
1001
0000
0000
0000
0011
0000
0000
0000
,
1010
0000
1010
0000
0000
1001
0000
1100
,
0000
0200
2300
3200
0320
0230
2300
3002
,
0113
0000
0110
0000
0000
1100
0000
1010
,
0000
0000
0020
0000
0032
0023
0230
2300
,
3101
0000
0101
0000
0000
0011
0000
0101
,
0000
0002
2003
3200
0320
0032
0023
0230
,
1301
0000
0100
0000
0010
0000
1001
0000
0010
0000
1000
0000
1100
0010
0001
0110
0000
0000
0000
0000
0000
1010
0000
0000
,
0000
0000
1000
0000
1000
0000
1000
0000
1000
0100
1000
0000
1000
0001
1000
0000
,
1001
0000
0001
0000
0110
0000
0001
1000
0100
0010
0101
0000
1000
0100
0010
0100
,
1010
0000
0100
0000
0011
0000
0001
0010
0100
1000
0110
0000
0001
1000
0010
0100
,
0011
0000
0001
0000
1010
0000
1000
0010
0100
0001
1100
0000
1000
0100
0011
0000
,
0101
0000
1000
0000
0110
0000
0001
0010
0100
0010
0001
0010
0100
0010
0001
0010
,
1100
0000
0010
0000
0101
0000
0001
0100
0010
0100
1001
0000
1000
0100
0010
0100
,
1001
0000
0100
0000
0011
0000
0001
1000
0010
0100
0101
0000
0010
0001
1000
0100
,
0011
0000
0001
0000
0110
0000
1000
0010
0100
0010
1100
0000
0010
0001
0110
0000
,
1100
0000
0001
0000
1010
0000
0100
0001
0010
0001
0100
0001
0010
0001
0100
0001
,
0110
0000
1000
0000
0011
0000
0001
1000
0010
0100
1001
0000
1000
0100
1000
0010
,
0101
0000
0001
0000
0110
0000
1000
0001
1000
0001
1100
0000
0010
0001
1000
0001
,
1100
0000
0010
0000
0101
0000
0001
1000
0010
0100
1001
0000
1000
0100
0010
0001
,
0110
0000
0001
0010
0100
1000
0110
0000
1000
0100
0010
0001
0110
0001
1100
0000
,
1001
0000
0001
0000
0011
0000
0100
1000
0100
0010
0101
0000
0001
1000
0001
0010
,
1100
0000
0100
0000
1001
0000
1000
0100
1000
0100
0011
0000
0001
0010
0001
0010
,
1100
0000
0001
0000
0110
0000
0001
0100
1000
0100
0011
0000
0001
1000
0110
0000
,
0011
0000
0000
1000
0000
0000
0001
0000
0000
0001
0010
0100
1000
0000
1000
0000
0001
0000
1000
0000
0010
0000
0100
0000
,
0011
0000
0001
0000
1001
0000
0100
0010
0001
1000
0110
0000
0001
0100
0010
1000
,
0110
0000
0001
0000
1100
0000
0001
0010
0001
1000
1100
0000
0100
0010
0001
0010
,
1100
0000
0010
0000
0101
0000
0001
1000
0001
1000
0110
0000
1000
0001
0110
0000
,
0101
0000
1000
0000
0101
0000
0001
0010
0100
0010
0001
0010
0100
0010
0001
0010
,
1100
0000
0001
0000
1001
0000
1000
0010
0100
0001
1010
0000
1000
0100
1000
0100
,
0011
0000
0100
0000
0011
0000
0001
1000
0010
0100
1001
0000
0100
0010
0001
0010
,
1100
0000
1000
0000
0110
0000
1000
0010
0100
0001
0110
0000
0001
1000
0110
0000
,
0011
0000
1000
0000
0110
0000
1000
0100
0010
0100
1000
0100
0010
0100
1000
0100
,
0110
0000
0000
0000
1000
0000
0011
0000
0101
0000
0000
0000
0011
0001
0101
0000
,
0000
0000
1100
1000
1010
0100
0011
0000
0101
0000
0000
0000
1001
0000
1000
0100
,
0011
0000
1000
0110
0011
0000
0110
0011
,
0000
0000
1001
0000
0011
0100
1000
0100
0011
0000
0000
0000
0011
0001
0101
0010
,
1001
0000
0000
0000
1000
0000
0011
0000
1001
0000
1000
0100
0011
0001
1001
0000
,
0000
0102
0100
0100
0103
0110
0000
1001
,
0000
0000
0001
0001
1100
0000
0100
0000
0100
0000
0100
0000
0100
0000
0100
0000
,
0100
0000
0000
0000
0100
0000
0000
0000
0100
0010
0001
1000
0110
0000
0001
0000
0100
0000
0001
0000
0110
0000
0100
0000
1100
0000
0000
0000
1100
0000
1000
0000
,
1001
0000
1001
0000
0000
0011
0000
1100
,
0000
0200
0312
0203
2301
3020
0231
0310
,
1100
0000
1100
0000
0000
0011
0000
1001
,
0000
0000
0000
0000
0000
0000
0000
0000
1000
0100
0010
0001
2000
0000
0000
0000
3002
0000
0000
0000
1003
0010
0100
0001
2000
0000
0000
0000
3100
0000
0000
0000
,
0101
0000
0101
0000
0000
1001
0000
0101
,
0000
0002
0213
0302
2103
3020
0231
0310
,
1010
0000
1010
0000
0000
0101
0000
1001
,
0000
0000
0000
0000
0000
0000
1000
0000
0001
0010
0100
0000
1000
0000
0010
0100
0001
0000
0010
0000
0001
0000
1000
0000
,
0110
0000
0001
0000
1100
0000
0010
0001
1000
0010
0101
0000
0001
0010
0001
0100
,
0110
0000
1000
0000
1001
0000
1000
0100
0010
0100
1001
0000
0001
1000
0010
0100
,
0011
0000
1000
0000
0101
0000
0010
1000
0001
1000
1010
0000
1000
0100
0011
0000
,
1001
0000
0100
0000
0011
0000
0001
1000
0010
1000
0001
1000
0010
1000
0001
1000
,
0110
0000
0001
0000
1100
0000
0010
0001
1000
0100
0110
0000
0001
1000
0010
0100
,
1001
0000
0010
0000
1100
0000
0010
0001
0010
0001
1100
0000
1000
0010
0100
0010
,
0101
0000
0001
0000
1001
0000
1000
0100
0010
0100
1100
0000
0001
0100
0011
0000
,
1001
0000
1000
0000
0110
0000
0010
1000
0100
1000
0010
1000
0100
1000
0010
1000
,
0101
0000
0000
0010
0000
0110
0000
0000
0010
0011
0000
0000
1001
0000
0000
1000
0100
0010
0001
1000
0001
0110
0000
0000
,
0000
0000
0001
0000
1001
0000
1000
0100
1000
0100
1000
0100
1000
1100
0110
0000
,
0010
0000
0001
0000
0101
0000
0000
0000
0001
0010
0100
1000
0001
0000
0100
0000
0001
0000
0100
0000
0001
0000
0000
0000
0001
0000
0000
0000
0001
0000
0000
0000
,
0001
0000
0010
0000
0100
0000
1000
0000
0110
0000
0000
0000
1000
0000
0100
0000
0010
0000
0001
0000
0110
0000
0000
0000
0010
0000
0000
0000
0010
0001
1000
0100
,
0011
0000
0001
0000
0001
0000
0001
0000
0001
0000
0001
0000
0001
0000
0001
1000
,
0001
0000
0010
0000
1001
0000
1000
0100
0010
0001
1100
0000
0010
0001
1000
0010
,
0101
0000
0001
0000
1010
0000
1000
0010
0100
0001
1100
0000
1000
0100
1000
0100
,
0011
0000
1000
0000
0011
0000
0001
1000
0010
0100
1001
0000
0110
0000
0000
0000
;
