#TITLE:Z;
#SUBTITLE:;
#ARTIST:DM Ashura;
#TITLETRANSLIT:;
#SUBTITLETRANSLIT:;
#ARTISTTRANSLIT:;
#CREDIT:;
#BANNER:z -bn.png;
#BACKGROUND:z -bg.png;
#LYRICSPATH:;
#CDTITLE:!StepmaniaFreak Title.png;
#MUSIC:Z.mp3;
#OFFSET:-4.890;
#SAMPLESTART:19.230;
#SAMPLELENGTH:12.758;
#SELECTABLE:YES;
#BPMS:0.000=150.000,132.000=112.500,132.250=75.000,132.750=56.250,133.000=37.500,142.500=75.000,158.500=150.000;
#STOPS:;
#BGCHANGES:;
// cache tags:
#FIRSTBEAT:4.000;
#LASTBEAT:260.500;
#SONGFILENAME:Songs/StepmaniaFreak's Favorites/Z/Z.sm;
#HASMUSIC:1;
#HASBANNER:1;
#MUSICLENGTH:131.270;
// end cache tags

//---------------dance-single - ----------------
#NOTES:
     dance-single:
     :
     Hard:
     10:
     0.844,0.893,0.769,0.030,1.000,671.000,101.000,4.000,0.000,0.000:
0000
0000
0000
0000
,
1000
0010
0000
0100
0010
0000
1000
0100
0000
0100
1000
0000
0110
0000
0011
0000
,
0010
0001
0000
0100
0001
0000
0010
0001
0000
0001
0100
0000
0110
0000
1010
0000
,
0010
1000
0000
0010
0100
0000
0010
1000
0000
1000
0010
0000
0110
0000
1010
0000
,
1000
0001
0000
0100
0010
0000
1000
0001
0000
0001
1000
0000
1001
0000
1010
0000
,
1000
0010
0000
1000
0100
0000
1000
0001
0000
0100
0010
0000
1100
0000
0011
0000
,
1000
0001
0000
0100
0010
0000
1000
0100
0000
0010
0001
0000
1010
0000
1100
0000
,
1000
0001
0000
0100
0010
0000
0001
0010
0000
1000
0100
0000
1010
0000
0101
0000
,
1000
0010
0000
0100
0001
0000
0010
0100
0000
0001
0010
0000
1100
0000
0101
0000
,
0010
0001
0000
0010
0100
0000
0010
0001
0000
0010
0100
0000
0010
0001
0010
0000
,
0001
1000
0000
0001
0010
0000
0001
0100
0000
0001
1000
0000
0001
0100
0001
0000
,
1000
0010
0000
1000
0100
0000
0010
0100
0000
0001
0100
0000
1000
0010
1000
0000
,
0010
1000
0000
0010
0100
0000
0010
1000
0000
0010
0100
0000
0010
1000
0010
0000
,
0100
0010
0000
1000
0001
0000
0010
0100
0000
1000
0001
0000
0100
0010
0100
0000
,
0001
1000
0000
0100
0010
0000
0001
1000
0000
0100
0010
0000
0001
1000
0001
0000
,
0100
0010
0000
1000
0001
0000
0100
0010
0000
0001
0100
0000
1000
0100
1000
0000
,
0010
0100
0001
1000
0010
0001
0100
1000
0001
0100
0010
1000
0100
0001
0100
1000
,
0010
0000
0100
0010
0100
0000
0001
0000
0000
1000
0100
0000
0010
0000
0001
1000
,
0011
0000
0000
1100
0000
0000
0110
0000
0000
0000
1000
0000
0010
0000
0100
0001
,
0010
0000
1000
0100
1000
0000
0101
0000
0000
1000
0011
0000
1100
0000
0010
1000
,
0110
0000
0000
0101
0000
0000
1010
0000
0000
0000
1001
0000
1001
0010
0100
0010
,
1000
0000
0001
0100
0001
0000
1010
0000
0000
0100
0001
0000
1010
0000
1000
0001
,
1000
0000
0010
0100
0010
0000
1001
0000
0000
1000
0001
0000
0110
0000
0100
1000
,
0100
0000
0001
0100
0001
0000
1010
0000
0000
1000
0001
0000
1010
0000
0001
0100
,
1010
0000
1000
0010
0000
1000
0010
0000
0000
0000
1010
0000
1010
0100
0001
1000
,
0010
1000
0001
0100
0010
1000
0100
0010
0001
0100
0010
1000
0110
0000
1100
0000
,
0010
0001
0100
0010
1000
0100
0010
0001
0100
0010
1000
0010
0101
0000
0110
0000
,
0010
1000
0001
0100
0010
1000
0100
0010
0001
0100
0010
1000
0101
0000
0110
0000
,
0010
0001
0100
0010
1000
0100
0010
0001
0100
0010
1000
0010
1100
0000
0101
0000
,
0010
1000
0001
0100
0010
1000
0100
0001
0100
0010
0001
0100
1010
0000
0110
0000
,
1000
0100
0010
0001
0100
0010
1000
0100
0001
0100
1000
0010
1100
0000
0101
0000
,
1000
0010
0100
0001
0010
0100
1000
0100
0001
0100
1000
0010
0001
0100
1000
0100
,
0010
0100
1000
0001
0100
0010
1000
0010
0001
0010
1000
0100
0010
0001
0100
0010
,
2200
0000
0000
0000
0000
0000
0000
0000
0000
0000
0000
0000
0000
0000
0000
0000
0000
0000
0000
0000
0000
0000
0000
0000
0000
0000
0000
0000
0000
0000
0000
0000
0000
0000
0000
0000
3300
0000
0000
0000
0001
0000
0000
0000
0000
0000
0000
0000
1000
0000
0000
0010
0000
0000
0010
0000
0100
0000
0000
0010
0000
0000
1000
0000
,
0010
0000
0000
0100
0000
0000
0001
0000
1000
0000
0000
0000
0000
0000
0010
0100
0010
0000
0000
0000
0100
0000
0010
0000
0000
0000
1000
0100
0010
0001
0100
0010
1000
0000
0000
0000
0010
0000
0000
0000
0100
0000
0000
0000
0000
0000
0010
0000
0000
0000
0000
0000
0100
0000
0010
0000
1000
0000
0000
0010
0000
0000
0100
0000
,
0000
0000
0000
0000
0001
0000
0000
0000
1000
0000
0000
0000
0000
0000
0010
1000
0100
0000
0000
1000
0000
0000
0001
0000
0100
0000
0000
0000
0000
0000
0000
0000
0000
0000
0000
0000
1000
0000
0000
0000
0100
0000
0000
0000
0000
0000
0000
0000
0000
0000
0000
0000
0000
0000
0000
0000
1000
0000
0000
0000
0000
0000
0001
0000
,
0000
0000
0100
0000
0010
0000
0000
1000
0000
0000
0001
0000
0010
0000
0000
0100
0000
0000
0010
0000
0001
0000
0000
0000
0000
0000
1000
0001
1000
0000
0000
0000
,
0010
0100
0000
0000
0000
0000
0000
0000
1000
0000
1000
0000
0000
0001
0000
0000
,
0100
0000
0010
0000
1000
0000
0000
0001
0000
0000
0100
0000
0010
0000
0000
1000
0000
0000
0001
0000
0010
0000
0000
0000
0000
0000
0001
1000
0001
0000
0000
0000
,
0000
0000
0010
0100
0010
0000
0000
0000
0000
0000
0100
1000
0100
0000
0000
0000
0000
0000
0010
0100
1000
0000
0001
0000
0000
0000
1000
0000
0001
0000
0000
0000
,
1000
0001
0000
0001
0100
0000
1010
0000
0110
0000
0010
1000
0000
0100
0010
0000
,
0001
1000
0000
0010
0100
0000
1001
0000
1010
0000
0010
0100
0000
0100
0010
0000
,
0010
1000
0000
0001
0100
0000
1010
0000
0101
0000
1000
0100
0000
0010
0001
0000
,
0010
0100
0000
0010
0001
0000
1010
0000
1001
0000
0100
0010
0000
1000
0001
0000
,
0010
0100
0000
1000
0001
0000
1100
0000
0101
0000
1000
0001
0000
0001
0100
0000
,
0100
0010
0000
0010
1000
0000
1001
0000
0101
0000
1000
0010
0000
0100
0001
0000
,
1000
0010
0000
0010
0100
0000
0110
0000
1010
0000
1000
0001
0000
0100
0010
0000
,
0001
0010
0000
1000
0100
0000
1000
0001
0100
0010
1000
0000
1000
0010
0000
0000
,
0100
0001
0000
0010
0100
0000
1010
0000
0101
0000
0100
0000
0000
0010
1000
0000
,
0100
0010
0000
0001
0100
0000
1010
0000
0101
0000
0100
0000
0000
0010
1000
0000
,
0100
0000
0000
1000
0001
0000
1010
0000
0011
0000
1000
0000
0000
0100
0010
0000
,
1000
0100
0000
0010
0001
0000
0110
0000
0011
0000
1000
0000
0000
0100
0010
0000
,
0001
0100
0000
0010
1000
0000
1100
0000
0110
0000
0010
0000
0000
0001
0100
0000
,
0010
1000
0000
0100
0010
0000
1001
0000
1010
0000
0010
0000
0000
1000
0100
0000
,
0010
0001
0000
0100
0010
0000
1100
0000
0110
0000
0010
0001
0100
0010
1000
0100
,
0010
0001
0100
0010
1000
0100
0010
0001
0100
0010
1100
0000
0000
0000
0000
0000
,
1001
0000
0000
0000
0000
0000
0000
0000
1000
0010
0101
0000
0000
0000
0000
0000
,
1010
0000
0000
0000
1001
0000
1001
0000
0100
0010
1100
0000
0000
0000
0000
0000
,
0011
0000
0000
0000
0000
0000
0000
0000
0001
0010
1100
0000
0000
0011
0000
0000
,
1010
0000
0000
0000
0101
0000
0101
1000
0010
0100
0011
0000
1000
0010
1000
0000
,
0101
0000
0010
0100
0010
0000
0001
0000
0010
0100
1010
0000
0100
0001
0100
0000
,
1001
0000
0000
0010
1000
0000
0101
0000
1000
0010
1000
0000
0100
0001
0100
0000
,
1010
0000
0001
0100
0001
0000
1000
0000
0010
0100
0011
0000
1000
0110
0000
0100
,
1001
0000
0001
0100
0011
0000
0010
0100
0010
1000
0220
0000
0000
0000
0000
0000
,
0000
0000
0000
0000
,
0000
0330
0000
0000
0000
0000
0000
0000
;

//---------------dance-single - ----------------
#NOTES:
     dance-single:
     :
     Challenge:
     13:
     1.000,1.000,1.000,0.030,1.000,812.000,248.000,4.000,0.000,0.000:
0000
0000
0000
0000
,
1010
0001
0000
1010
0001
0000
1000
0101
0000
0101
1000
0000
0011
0000
1100
0000
,
0101
1000
0000
0011
0100
0000
1000
0101
0000
0010
1100
0000
0010
0000
1100
0000
,
1010
0100
0000
1010
0001
0000
0001
1100
0000
1100
0001
0000
1001
0000
0110
0000
,
1001
0100
0000
1001
0010
0000
0100
1001
0000
1001
0100
0000
0011
0000
1001
0000
,
1010
0100
0000
0101
0010
0000
0010
0101
0000
0101
0010
0000
1100
0000
0110
0000
,
0011
0100
0000
0011
1000
0000
1000
0101
0000
0101
1000
0000
0101
0000
1010
0000
,
0110
0001
0000
0110
1000
0000
1000
0110
0000
0110
1000
0000
0011
0000
0101
0000
,
1100
0001
0000
1100
0010
0000
0001
1010
0000
1010
0001
0000
1100
0010
0100
0010
,
1100
0000
0000
1010
0100
0000
1100
0001
0000
1010
0100
0000
0011
0000
0101
0000
,
0011
0000
0000
0110
1000
0000
1100
0010
0000
1001
0100
0000
1001
0000
0110
0000
,
0101
0000
0000
1001
0010
0000
1010
0100
0000
0011
0100
0000
1001
0000
0110
0000
,
1100
0000
0000
0011
0100
0000
1001
0010
0000
1100
0001
0000
1100
0000
0011
0000
,
0101
0000
0000
1100
0010
0000
1001
0100
0000
0000
1010
0000
0101
0000
1001
0000
,
0100
0000
0000
0010
1001
0000
0100
1010
0000
0001
1010
0000
1100
0000
0101
0000
,
1010
0000
0000
1100
0010
0000
1001
0100
0000
0101
0000
0000
1010
0000
0110
0000
,
0101
1000
0100
0010
0001
1000
0100
0010
0001
0010
0001
0010
0001
0010
0100
1000
,
0101
0000
0000
0000
0000
0000
1001
0000
0000
0000
0000
0000
0000
0000
0000
0000
0000
0000
1100
0000
0000
0000
0000
0000
1001
0000
0000
0000
0000
0000
0000
0000
0000
0100
0000
0000
0000
0000
0000
0000
0000
0000
0100
0000
0010
0000
0100
0000
,
1001
0000
0000
0000
0000
0000
0000
0000
0000
0100
0000
0000
0000
0000
0000
0000
0000
0000
0011
0000
0000
0000
0000
0000
0000
0000
0000
0000
0000
0000
0011
0000
0000
0000
0000
0000
0011
0000
0000
0000
0000
0000
0001
0000
0100
0000
0010
0000
,
1001
0000
0000
0000
0000
0000
0000
0000
0000
0100
0000
0000
0000
0000
0000
0000
0000
0000
1001
0000
0000
0000
0000
0000
0000
0000
0000
0000
0000
0000
0010
0000
0000
0000
0000
0000
0000
0000
0000
0000
0000
0000
1000
0000
0100
0000
0010
0000
,
0101
0000
0000
0000
0000
0000
1000
0000
0000
0011
0000
0000
0000
0000
0000
1000
0000
0000
0101
0000
0000
0000
0000
0000
0000
0000
0000
0000
0000
0000
1010
0000
0000
0000
0000
0000
1010
0000
0000
0000
0000
0000
0001
0000
0100
0000
0010
0000
,
1001
0000
0000
0100
0000
0000
0010
0000
0000
1001
0000
0000
0100
0000
0000
0001
0000
0000
0100
0000
0000
0010
1000
0001
,
0110
0000
0000
0001
0000
0000
0100
0000
0000
0011
0000
0000
1000
0000
0000
0110
0000
0000
0110
0000
0000
0001
1000
0010
,
0101
0000
0000
0010
0000
0000
0100
0000
0000
1001
0000
0000
0010
0000
0000
0100
0000
0000
1000
0000
0000
0100
0001
0010
,
1100
0000
0000
0101
0000
0000
1100
0000
0000
0000
0011
0000
0011
1000
0010
1000
,
0101
0000
0000
0010
0000
0000
0001
0000
0000
0100
0000
0000
0010
0000
0000
1000
0000
0000
0100
0000
0000
0010
0000
0000
0001
0000
0000
0100
0000
0000
0010
0000
0000
1000
0000
0000
0100
0000
0000
0010
0000
0000
1000
0000
0010
0000
0100
0000
,
1010
0000
0000
0001
0000
0000
0100
0000
0000
0010
0000
0000
1000
0000
0000
0100
0000
0000
1000
0000
0000
0010
0000
0000
0100
0000
0000
0001
0000
0000
0010
0000
0000
0001
0000
0000
0100
0000
0000
0010
0000
0000
0100
0000
0001
0000
0010
0000
,
1100
0000
0000
0010
0000
0000
0001
0000
0000
1000
0000
0000
0100
0000
0000
0010
0000
0000
0001
0000
0000
1000
0000
0000
0100
0000
0000
1000
0000
0000
0010
0000
0000
0100
0000
0000
0001
0000
0000
0010
0000
0000
0001
0000
1000
0000
0010
0000
,
0101
0000
0000
1000
0000
0000
0001
0000
0000
0100
0000
0000
0010
0000
0000
1000
0000
0000
0001
0000
0000
0100
0000
0000
0001
0000
0000
0010
0000
0000
0001
0000
0000
0100
0000
0000
0010
0000
0000
0100
0000
0000
1000
0000
0010
0000
0100
0000
,
1001
0000
0000
0010
0000
0000
0100
0000
0000
0001
0000
0000
0010
0000
0000
0001
0000
0000
0100
0000
0000
0010
0000
0000
1000
0000
0000
0010
0000
0000
0100
0000
0000
0001
0000
0000
0010
0000
0000
0100
0000
0000
0010
0000
0100
0000
0010
0000
,
1001
0000
0000
0100
0000
0000
0010
0000
0000
1000
0000
0000
0100
0000
0000
0010
0000
0000
0001
0000
0000
1000
0000
0000
0010
0000
0000
0100
0000
0000
0001
0000
0000
0010
0000
0000
0001
0000
0000
0100
0000
0000
1000
0000
0010
0000
0100
0000
,
0011
0000
0000
0100
0000
0000
1000
0000
0000
0001
0000
0000
0100
0000
0000
0010
0000
0000
1000
0000
0000
0100
0000
0000
1000
0000
0000
0010
0000
0000
0100
0000
0000
0001
0000
0000
0010
0000
0000
0100
0000
0000
0001
0000
1000
0000
0010
0000
,
0101
1000
0001
0100
0010
0100
0001
0010
0100
1000
0010
0001
0010
0100
1000
0100
,
2002
0000
0000
0000
0000
0000
0000
0000
0000
0000
0000
0000
0000
0000
0000
0000
0000
0000
0000
0000
0000
0000
0000
0000
0000
0000
0000
0000
0000
0000
0000
0000
0000
0000
0000
0000
3003
0000
0000
0000
0010
0000
0000
0000
0000
0000
0000
0000
0100
0000
0000
0100
0000
0000
0100
0000
0010
0000
0000
0001
0000
0000
1000
0000
,
0010
0000
0000
0001
0000
0000
1000
0000
0101
0000
0000
0000
0000
0000
0100
0010
0100
0000
0000
0000
0100
0000
0010
0000
0000
0000
1000
0010
0100
0001
0010
0100
1000
0000
0000
0000
0001
0000
0000
0000
1001
0000
0000
0000
0000
0000
1000
0000
0000
0000
0000
0000
1000
0000
0010
0000
0101
0000
0000
0001
0000
0000
0010
0000
,
0000
0000
0000
0000
1000
0000
0000
0000
0011
0000
0000
0000
0000
0000
1000
0010
0101
0000
0000
1000
0000
0000
0001
0000
1100
0000
0000
0000
0110
0000
0000
0000
1100
0000
0001
0000
1000
0010
0100
0001
1000
0000
0010
0000
0100
0000
0001
0000
1000
0000
0100
0000
0010
0000
0001
0000
0010
0000
0100
0000
1000
0000
0100
0000
,
1000
0010
0100
0001
0010
0001
0100
0010
1000
0100
1000
0010
0100
0001
0010
0100
1000
0010
0100
0001
0010
0100
1000
0100
0010
0001
1000
0010
0100
0001
0100
0010
,
1000
0100
0001
0100
1000
0010
0100
0001
0010
0100
1000
0100
0001
0100
1000
0001
0100
0010
1000
0100
0010
0001
0100
0010
1000
0100
1000
0010
0100
0001
0010
0001
,
0100
0010
1000
0001
0100
0001
0010
0001
0100
0010
1000
0100
0010
0001
0010
0001
0100
0010
1000
0100
1000
0100
1000
0100
1000
0100
1000
0100
0010
0100
0010
0100
,
0010
0100
0010
0001
0100
0001
0100
0001
0100
0001
0100
0010
1000
0010
1000
0010
1000
0010
1000
0100
1010
0000
0001
0000
0000
0000
1010
0000
0001
0000
0000
0000
,
1000
0101
0000
0101
1000
0000
0011
0000
1100
0000
0101
1000
0000
0101
0010
0000
,
1000
0101
0000
0010
1100
0000
0010
0000
1100
0000
1010
0100
0000
1010
0001
0000
,
0001
1100
0000
1100
0001
0000
1001
0000
0110
0000
1001
0100
0000
1001
0010
0000
,
0100
1001
0000
1001
0100
0000
0011
0000
1001
0000
1010
0100
0000
0101
0010
0000
,
0010
0101
0000
0101
0010
0000
1100
0000
0110
0000
0011
1000
0000
0011
0100
0000
,
1000
0101
0000
0101
1000
0000
0101
0000
1010
0000
0110
0001
0000
0110
1000
0000
,
1000
0110
0000
0110
1000
0000
0011
0000
0101
0000
1100
0001
0000
1100
0010
0000
,
0001
1010
0000
1010
0001
0000
1100
0010
0100
0010
1100
0000
0000
1010
0100
0000
,
1100
0001
0000
1010
0100
0000
0011
0000
0101
0000
0011
0000
0000
0110
1000
0000
,
1100
0010
0000
1001
0100
0000
1001
0000
0110
0000
0101
0000
0000
1001
0010
0000
,
1010
0100
0000
0011
0100
0000
1001
0000
0110
0000
1100
0000
0000
0011
0100
0000
,
1001
0010
0000
1100
0001
0000
1100
0000
0011
0000
0101
0000
0000
1100
0010
0000
,
1001
0100
0000
0100
1010
0000
0101
0000
1001
0000
0100
0000
0000
0010
1001
0000
,
0100
1010
0000
0100
1010
0000
1100
0000
0101
0000
1010
0000
0000
1100
0010
0000
,
1001
0100
0000
0101
0000
0000
1010
0000
0110
0000
0011
0100
0001
1000
0010
0100
,
0001
1000
0010
1000
0010
1000
0010
1000
0001
0100
0011
0100
1001
0000
0000
0000
,
1100
0000
0000
0010
0000
0000
1001
0000
0000
0000
0000
0000
0010
0000
0000
0100
0000
0000
0000
0000
0000
0000
0000
0000
0100
0000
0010
0000
0100
0000
1001
0000
0000
0000
0000
0000
0000
0000
0000
0100
0000
0000
0000
0000
0000
0000
0000
0000
,
1010
0000
0000
0100
0000
0000
0000
0000
0000
0100
0000
0000
1010
0000
0000
0000
0000
0000
1010
0000
0000
0000
0000
0000
0001
0000
0100
0000
0010
0000
1001
0000
0000
0000
0000
0000
0100
0000
0000
0010
0000
0000
0100
0000
0000
0000
0000
0000
,
1001
0000
0000
0000
0000
0000
0000
0000
0000
0000
0000
0000
0010
0000
0000
0100
0000
0000
0010
0000
0000
0000
0000
0000
1000
0000
0100
0000
0010
0000
0101
0000
0000
0000
0000
0000
1000
0000
0000
0011
0000
0000
0000
0000
0000
1000
0000
0000
,
0101
0000
0000
0000
0000
0000
0000
0000
0000
0100
0000
0000
1010
0000
0000
0001
0000
0000
1010
0000
0000
0000
0000
0000
0001
0000
0100
0000
0010
0000
1001
0000
0000
0100
0000
0000
0010
0000
0000
0001
0000
0000
0010
0000
0000
0100
0000
0000
,
1001
0000
0000
0010
0000
0000
0100
0000
0000
0001
0000
0000
0010
0000
0000
0100
0000
0000
1000
0000
0000
0010
0000
0000
0100
0000
1000
0000
0100
0000
1010
0000
0000
0001
0000
0000
0010
0000
0000
1000
0000
0000
0100
0000
0000
0010
0000
0000
,
0101
0000
0000
1000
0000
0000
0010
0000
0000
1000
0000
0000
0001
0000
0000
0100
0000
0000
0010
0000
0000
1000
0000
0000
0010
0000
0001
0000
0010
0000
0101
0000
0000
1000
0000
0000
0001
0000
0000
0100
0000
0000
0010
0000
0000
0100
0000
0000
,
1001
0000
0000
0010
0000
0000
1000
0000
0000
0001
0000
0000
0100
0000
0000
0010
0000
0000
1000
0000
0000
0100
0000
0000
0010
0000
0100
0000
0010
0000
1100
0000
0000
0100
0000
0000
0010
0000
0000
1100
0000
0000
0001
0000
0000
0010
0000
0000
,
0101
1000
0100
1000
0011
0100
0011
1000
0010
1000
0202
0000
0000
0000
0000
0000
,
0000
0000
0000
0000
,
0000
0303
0000
0000
0000
0000
0000
0000
;

//---------------dance-single - ----------------
#NOTES:
     dance-single:
     :
     Medium:
     7:
     0.515,0.719,0.198,0.030,0.270,443.000,26.000,4.000,0.000,0.000:
0000
0000
0000
0000
,
1010
0010
0100
0010
0100
0010
1000
0010
,
0100
0001
0010
0001
0100
0001
0010
0001
,
0100
1000
0100
0001
0100
1000
0001
0100
,
1000
0001
1000
0100
1000
0001
1000
0100
,
0010
0001
0010
0100
1000
0010
0100
0001
,
0010
0001
1000
0100
0010
0001
1000
0010
,
0100
0010
1000
0010
0001
0010
1000
0100
,
0001
0100
1000
0010
0001
0010
1000
0001
,
0010
0000
0000
0001
0000
0000
1000
0000
0000
0000
1000
0000
0010
0000
0100
0000
,
0001
0000
0000
1000
0000
0000
0010
0000
0000
0100
0000
0000
0001
0000
1000
0000
,
0100
0000
0000
0010
0000
0000
0100
0000
0000
0010
0000
0000
0100
0000
1000
0000
,
0001
0100
0001
0010
0001
0100
0001
0010
,
0001
0000
0000
1000
0000
0000
0001
0000
0000
0000
0010
0000
0100
0000
1000
0000
,
0001
0000
0000
0100
0000
0000
0010
0000
0000
1000
0000
0000
0001
0000
0010
0000
,
0100
0000
0000
1000
0000
0000
0100
0000
0000
1000
0000
0000
0100
0000
0010
0000
,
0001
0010
0100
1000
0001
0100
0010
1000
,
0110
0000
0000
0010
0000
0000
1010
0000
,
0110
0000
0000
0100
0000
0001
0101
0000
,
0110
0000
0000
0010
0000
0000
0000
1000
,
0001
0000
0000
0100
0000
0000
0001
0000
0000
0000
1000
0000
0101
0000
0000
0000
,
0110
0100
0010
1001
0000
0010
0100
0001
,
1100
0000
0100
0011
0100
0101
0101
0000
,
1010
0010
0100
1001
0000
0000
0001
0100
,
1010
0000
0000
0101
0000
0000
1001
0000
0000
0000
1000
0000
0101
0000
1000
0000
,
0010
0100
0001
0010
0100
1000
0010
0001
,
0010
1000
0100
0010
0100
1000
0010
0001
,
0010
1000
0100
0010
0001
0100
0010
0001
,
0010
0100
0001
0010
0100
1000
0100
0001
,
0100
1000
0010
0001
0010
0100
1000
0010
,
0100
0010
0001
0100
0010
1000
0100
0001
,
0100
1000
0001
0100
0010
1000
0100
0010
,
0001
0100
0010
1000
0010
0001
0010
1000
,
0202
0000
0000
0000
0000
0000
0000
0000
0000
0000
0000
0000
0000
0000
0000
0000
0000
0000
0000
0000
0000
0000
0000
0000
0000
0000
0000
0000
0000
0000
0000
0000
0000
0000
0000
0000
0303
0000
0000
0000
1000
0000
0000
0000
0000
0000
0000
0000
0001
0000
0000
1000
0000
0000
0100
0000
0010
0000
0000
0001
0000
0000
0010
0000
,
0100
0000
0000
1000
0000
0000
0001
0000
1000
0000
0000
0000
0000
0000
0100
0000
0010
0000
0000
0000
0001
0000
1000
0000
0000
0000
0000
0000
0000
0000
0000
0000
0000
0000
0000
0000
0001
0000
0000
0000
0001
0000
0000
0000
0000
0000
1000
0000
0000
0000
0000
0000
0001
0000
0010
0000
0100
0000
0000
1000
0000
0000
0001
0000
,
0000
0000
0000
0000
0100
0000
0000
0000
0010
0000
0000
0000
0000
0000
1000
0000
0001
0000
0000
0010
0000
0000
0001
0000
0100
0000
0000
0000
0010
0000
0000
0000
1000
0000
0000
0000
0001
0000
0000
0000
0010
0000
0000
0000
0000
0000
0000
0000
0000
0000
0000
0000
0000
0000
0000
0000
0100
0000
0000
0000
0000
0000
1000
0000
,
0000
0000
0010
0000
0100
0000
0000
0001
0000
0000
0100
0000
0100
0000
0000
0010
0000
0000
1000
0000
0001
0000
0000
0000
0000
0000
0010
0000
0100
0000
0000
0000
,
1000
0001
0000
0000
0000
0000
0000
0000
0100
0000
0100
0000
0000
0010
0000
0000
,
1000
0000
0001
0000
0100
0000
0000
0010
0000
0000
1000
0000
0001
0000
0000
0010
0000
0000
0100
0000
1000
0000
0000
0000
0000
0000
0100
0000
0010
0000
0000
0000
,
0000
0001
0010
0000
0000
0100
1000
0000
0000
0001
0100
0000
0000
0100
0000
0000
,
0100
0000
0000
0000
0010
0000
1000
0000
0001
0000
0010
0000
0000
0100
0000
0000
,
1000
0000
0000
0001
0000
0000
0100
0000
0010
0000
1000
0000
0000
0100
0000
0000
,
0010
0000
0000
0000
0001
0000
0100
0000
0010
0000
1000
0000
0000
0100
0000
0000
,
0010
0000
0000
0001
0000
0000
0100
0000
0010
0000
1000
0000
0000
0100
0000
0000
,
0010
0000
0000
0001
0000
0000
1000
0000
0010
0000
0100
0000
0000
0001
0000
0000
,
0010
0000
0000
0100
0000
0000
0010
0000
0100
0000
0001
0000
0000
1000
0000
0000
,
0010
0000
0000
0100
0000
0000
1000
0000
0010
0000
0100
0000
0000
0001
0000
0000
,
0100
0000
0000
0010
0000
0000
1000
0000
0001
0000
1000
0000
0010
0000
0100
0000
,
0001
0010
0100
1000
1000
0001
0100
0010
,
1000
0100
0010
0100
0100
1000
0001
0100
,
0010
0000
0001
0000
0010
0000
1000
0000
1000
0000
0100
0000
0000
0010
0000
0000
,
0001
0000
0000
0010
0000
0000
0100
0000
1000
0000
0001
0000
0010
0000
0001
0000
,
0100
0010
1000
0010
0010
0100
0001
0010
,
0100
1000
0100
0010
0010
0001
0100
0010
,
0001
0000
0010
0000
1000
0000
0100
0000
0010
0000
0100
0000
0000
1000
0000
0000
,
0100
0000
0000
0010
0000
0000
0001
0000
1000
0000
0101
0000
0000
0000
0000
0000
,
1000
0000
0000
0000
0100
0001
0000
0000
,
0100
0000
1100
1100
0000
0010
0000
0000
,
0001
0000
0000
0000
0000
0000
0000
0000
1000
0000
0110
0000
0000
1000
0000
0000
,
0101
0000
0010
0010
0001
1000
0100
0010
,
0001
0010
0100
1000
0010
0001
0010
1000
,
0100
0010
0001
0100
0010
1000
0100
0010
,
0001
0000
0010
0000
0100
0000
1000
0000
0100
0000
0010
0000
0000
0001
0000
0000
,
0100
0000
0010
1000
0001
2020
0000
0000
,
0000
0000
0000
0000
,
0000
3030
0000
0000
0000
0000
0000
0000
;

//---------------dance-single - ----------------
#NOTES:
     dance-single:
     :
     Easy:
     5:
     0.318,0.397,0.137,0.030,0.042,270.000,18.000,4.000,0.000,0.000:
0000
0000
0000
0000
,
0001
0100
0010
1000
,
0001
0010
0100
1000
,
0010
0100
0001
1000
,
0100
0000
0010
0000
0001
0000
0001
1000
,
0001
0000
0010
0000
0100
0000
0100
1000
,
0010
0000
0100
0000
0001
0000
0001
0100
,
0010
0000
1000
0000
0001
0000
0001
0100
,
0010
0100
0001
1000
,
0001
0001
0010
0010
,
0100
0100
1000
1000
,
0001
0001
0100
0100
,
0010
1000
0001
0100
,
0010
0010
0100
0100
,
0001
0001
1000
1000
,
0001
0001
0010
0010
,
0100
1000
0010
0100
,
1001
0000
0000
0011
0000
0000
0000
0000
,
1001
0000
0000
1010
0000
0000
0000
0000
,
0110
0000
0000
0101
0000
0000
0000
0000
,
1010
0000
0000
1001
0000
0000
1001
0000
,
1000
0000
0010
1000
0000
0000
0010
1000
,
0001
0000
0010
0001
0000
0100
0100
0000
,
0010
0000
1000
0001
0000
0000
0000
0100
,
0010
0000
0000
1000
0000
0000
0010
0000
0000
0000
0100
0000
0100
0000
0010
0000
,
1000
0000
0000
0010
0000
0000
0100
0100
,
0010
0000
0000
1000
0000
0000
0001
0001
,
1000
0000
0000
0010
0000
0000
0100
0100
,
0001
0000
0000
1000
0000
0000
0010
0010
,
0100
0000
0000
0010
0000
0000
1000
1000
,
0100
0000
0000
0010
0000
0000
0001
0001
,
0100
0000
0000
0010
0000
0000
1000
1000
,
0001
0100
0010
1000
,
0202
0000
0000
0000
0303
1000
0010
1000
,
0001
0000
0000
0000
1000
0000
0000
0000
0100
0000
0000
0000
0000
0000
0000
0000
0000
0000
1000
0000
1000
0000
0000
0001
0000
0000
0000
0000
0100
0000
0000
0010
,
0000
0000
1000
0000
0001
0000
0100
0100
0100
0010
1000
0000
0000
0000
0001
0000
,
0000
0100
0000
0010
0000
1000
0000
0100
,
0000
0010
0000
0001
0000
0100
0000
0010
,
0000
0000
1000
0000
0000
0000
0001
0000
0000
0000
0100
0000
0000
0010
1000
0000
,
0000
0001
0010
0000
0000
0100
1000
0000
0000
0001
0010
0000
0000
0000
0100
0000
,
0000
0010
0000
0001
0000
0100
0000
0010
,
0000
1000
0000
0001
0000
0010
0000
0100
,
0000
1000
0000
1000
0000
0100
0000
0010
,
0000
0001
0000
0001
1000
0001
0000
0010
,
0000
0100
0000
0100
1000
0010
0000
0100
,
0000
0001
0000
0001
0100
0010
0000
1000
,
0000
0001
0000
0001
0100
0010
0000
0100
,
0000
0001
0000
1000
0000
0010
0000
0010
,
0000
1000
0000
1000
0000
0001
0000
0001
,
0000
0100
0000
0100
0000
0010
0000
0010
,
0000
0100
0000
0100
0000
0001
0000
0010
,
0000
0001
0000
0100
0000
0010
0000
0010
,
0000
0100
0000
0100
0000
0001
0000
0001
,
0000
1000
0000
1000
0000
0001
0000
0001
,
0000
0010
0000
0010
0000
0100
0000
1000
,
0000
0010
0000
0100
0000
1001
0000
0000
,
0010
0000
0000
0000
0000
1100
0000
0000
,
0011
0000
0100
0100
0000
1001
0000
0000
,
1010
0000
0000
0000
0000
0101
0000
0000
,
1001
0000
1000
1000
0001
0100
0000
0001
,
0000
0100
0000
0010
1000
0010
0000
0010
,
0000
0100
0000
0001
0010
0001
0000
0100
,
0000
0000
1000
0000
0000
0000
0100
0000
0001
0000
0100
0000
0000
0010
0000
0000
,
1000
0000
0010
0100
0010
2002
0000
0000
,
0000
0000
0000
0000
,
0000
3003
0000
0000
0000
0000
0000
0000
;
