#TITLE:Gotta Go Fast;
#SUBTITLE:Sonic X;
#ARTIST:4Kids - Under Liscensing;
#TITLETRANSLIT:;
#SUBTITLETRANSLIT:;
#ARTISTTRANSLIT:;
#CREDIT:;
#BANNER:Sonic X-bn.jpg;
#BACKGROUND:BBground.jpg;
#LYRICSPATH:;
#CDTITLE:CDTitle.png;
#MUSIC:Gotta Go Fast - 4Kids.mp3;
#OFFSET:1.678;
#SAMPLESTART:10.000;
#SAMPLELENGTH:13.000;
#SELECTABLE:YES;
#BPMS:0.000=124.990,88.000=249.981;
#STOPS:86.000=0.360
,87.000=0.580
;
#BGCHANGES:3.500=Sonic X.avi=1.000=0=0=0,
164.000=BBground.jpg=2.000=1=0=0,
99999=-nosongbg-=1.000=0=0=0 // don't automatically add -songbackground-
;
// cache tags:
#FIRSTBEAT:8.000;
#LASTBEAT:163.000;
#SONGFILENAME:Songs/keyboard/Sonic X - Gotta Go Fast/Sonic X.sm;
#HASMUSIC:1;
#HASBANNER:1;
#MUSICLENGTH:60.216;
// end cache tags

//---------------dance-single - ----------------
#NOTES:
     dance-single:
     :
     Hard:
     10:
     0.854,1.000,0.515,0.166,0.507,319.000,31.000,10.000,0.000,0.000:
0000
0000
0000
0000
,
0000
0000
0000
0000
,
1000
0100
1000
0100
0010
0100
1000
0001
0010
0100
0010
0001
0010
0100
1000
0100
,
0010
0001
0010
0100
1000
0100
0010
0001
0010
0100
1000
0001
0010
0100
1000
0000
,
1100
0000
0001
0000
0101
0000
1000
0000
0010
1000
0100
1000
0010
0000
0100
0000
,
0002
2000
0000
3003
,
1000
0100
1000
0001
0100
0010
0100
0001
,
1000
0100
0010
0001
1000
0100
0010
0001
,
0010
0100
1000
0001
0100
0010
1000
0001
,
0000
0000
0001
0100
0001
1000
0100
0010
0001
1000
0100
1000
0001
0100
0010
0000
,
1000
0000
1000
0100
0000
0100
0010
0000
0010
0001
0000
0001
1000
0000
1000
0010
,
0000
0010
0100
0000
0100
0001
0000
0001
1000
0100
1000
0001
1000
0100
1000
0001
,
1000
1000
0001
0001
1100
0000
0101
0000
,
0001
1000
0001
0000
0100
0010
0100
0000
0001
1000
0001
0100
0010
1000
0100
0010
,
0001
0010
0001
1000
0010
1000
0001
0010
0001
1000
0010
1000
0001
0010
0001
1000
,
0100
0010
0001
1000
0001
0100
0010
0000
1000
0010
0100
0001
0100
0010
1000
0000
,
2020
0000
3030
0000
1000
1010
0001
0011
,
0010
0100
1000
0010
0100
0001
1000
0000
0001
0000
0011
0000
1000
0000
1010
0000
,
0010
0100
0001
0010
0100
1000
0001
0000
0001
0000
1000
0000
1100
0000
0001
0000
,
1000
0100
0010
0001
1000
0001
0101
1000
,
0001
0010
0100
1000
0001
1000
1010
0100
,
0001
0000
0000
0000
0000
0000
0000
0000
0100
0000
0000
0000
0000
0000
0000
0000
0001
0000
0000
0000
0000
0000
0000
0000
1000
0000
0000
0000
0000
0000
0000
0000
2002
0000
0000
0000
0000
0000
0000
0000
0000
0000
0000
0000
0000
0000
0000
0000
0000
3003
0000
0000
0000
0000
0000
0000
0000
0000
0000
0000
0000
0000
0000
0000
,
1000
0100
1000
0001
0100
0010
1000
0100
,
0010
0001
0100
0010
1000
0100
0010
0001
,
0100
0010
1000
0100
0010
0001
1000
0100
,
0010
0001
1000
0100
0010
0001
1000
0100
,
1100
1001
0101
1001
,
1000
0100
0010
0001
0011
0000
1100
0000
,
1001
0000
0001
0100
0000
0100
0010
0000
,
1000
0010
1000
0000
1010
0000
0101
0000
,
0001
0100
0010
1000
0100
0010
0001
0100
,
0010
1000
0100
0010
0001
0100
0010
1000
,
0100
0010
0001
0100
0010
1000
0100
0010
,
0001
0100
0010
1000
0100
0010
0001
0100
,
0010
1000
0100
0010
0001
0100
0010
1000
,
0100
0010
0001
0100
0010
1000
0001
0100
,
0101
1010
0101
1010
,
1000
0001
0100
0001
0101
0000
1100
0000
,
2002
0000
0000
3003
,
1001
0000
0001
0100
0000
1000
0100
0000
,
2002
0000
0000
3003
;

//---------------dance-single - ----------------
#NOTES:
     dance-single:
     :
     Medium:
     7:
     0.579,0.677,0.515,0.216,0.000,200.000,31.000,13.000,0.000,0.000:
0000
0000
0000
0000
,
0000
0000
0000
0000
,
1000
0100
1000
0001
0100
0010
0100
0001
,
0101
0100
0010
1000
0100
0010
0100
1000
,
1100
0001
0010
0001
0010
0100
0100
0100
,
0110
0000
1001
0000
1000
0001
0100
0001
,
1001
1000
0100
0010
0010
0001
1000
0010
,
1010
0010
0100
0001
1000
1000
0100
0010
,
0110
0011
1100
1001
,
0001
1000
0100
0010
0001
1000
0100
0010
,
0110
0000
0001
0100
0001
1000
0100
0010
,
0001
1000
0001
2002
0000
0000
3003
0000
,
1000
1000
0001
0001
1000
1000
2002
3003
,
1001
0000
0110
0000
0001
1000
0010
0100
,
0001
0001
1000
1000
0100
0100
0010
0010
,
0001
1000
0100
0010
0001
1000
1001
1001
,
2002
0000
3003
0000
1000
0100
1000
0001
,
0100
0001
1000
0001
1000
1000
0001
0001
,
1000
0100
0010
0001
1001
0000
0101
0000
,
0001
1000
1000
0001
1001
0000
1100
0000
,
1000
0001
0100
0001
2000
0000
3100
0000
,
1000
0100
0010
0001
2002
0000
3003
0000
,
1000
0100
0010
0001
,
1000
0010
0100
0001
,
1000
0100
0010
0001
,
1000
0010
0100
0001
,
1000
1000
0001
0001
,
0010
0100
1000
1000
,
1001
0000
0101
0000
,
1001
0000
1100
0000
,
1000
1000
0100
0100
,
0010
0010
0001
0001
,
1000
0100
0010
0001
,
0010
0100
1000
0001
,
0100
0010
1000
0001
,
0100
0100
0100
0010
,
0010
0010
1000
0100
,
0010
0100
0010
0110
,
2002
0000
0000
3003
,
1001
1000
0001
1000
,
2002
0000
0000
3003
;

//---------------dance-single - ----------------
#NOTES:
     dance-single:
     :
     Easy:
     4:
     0.320,0.474,0.399,0.482,0.000,82.000,24.000,29.000,0.000,0.000:
0000
0000
0000
0000
,
0000
0000
0000
0000
,
1000
0000
1000
0000
,
0001
0000
0001
0000
,
1001
0000
0110
0000
,
2002
0000
0000
3003
,
1000
0100
1000
0000
,
0001
0100
0001
0000
,
1000
0001
1000
0000
,
1001
0000
0110
0000
,
2001
0001
0001
3001
,
2002
0000
0000
3003
,
1000
0100
1000
0001
,
2002
3003
2002
3003
,
2002
3003
0100
0000
,
2002
3003
0010
0010
,
1001
1000
0001
1000
,
0100
0010
0100
0010
,
0001
1000
2002
3003
,
0100
0100
2002
3003
,
0010
0010
2002
3003
,
1000
0000
0001
0000
2002
3003
0000
0000
,
1000
0000
0000
0000
,
1000
0000
0000
0000
,
0001
0000
0000
0000
,
0001
0000
0000
0000
,
1001
0000
0000
0000
,
1001
0000
0000
0000
,
1000
0000
0000
0000
,
0001
0000
1001
0000
,
2000
0000
0000
0000
,
3200
0000
0000
0000
,
0320
0000
0000
0000
,
0032
0000
1003
0000
,
1001
0000
0001
0000
,
1001
0000
1000
0000
,
0001
0000
0001
0000
,
1000
0100
0010
0001
,
2002
0000
0000
3003
,
1001
0000
0010
0000
,
2002
0000
0000
3003
;

//---------------dance-double - ----------------
#NOTES:
     dance-double:
     :
     Challenge:
     9:
     0.641,0.744,0.548,0.316,0.116,218.000,33.000,19.000,0.000,0.000:
00000000
00000000
00000000
00000000
,
00000000
00000000
00000000
00000000
,
10000000
01000000
10000000
00010000
01000000
00001000
00100000
00001000
,
00010000
00000100
00001000
00000010
00000100
00000001
00000010
00000100
,
00001000
00001000
00000100
00010000
00001000
00100000
00010000
10000000
,
10010000
10000000
11000000
10000000
10010000
00010000
01010000
00010000
,
10010000
10000000
01000000
00100000
00010000
01000000
00010000
00100000
,
00001000
00010000
00000100
00000010
00000001
00001000
00000001
00000100
,
00000001
00000001
00001000
00000100
00000010
00000001
00001000
00001001
,
00000000
00000100
00000010
00001000
00000100
00010000
00001000
00010000
,
00011000
00000000
00000000
00110000
00000000
00000000
00011000
00000000
00000000
00001010
00000000
00000000
00011000
00000000
00000000
00010100
,
00000000
00000000
00011000
00000000
00000000
01001000
00000000
00000000
00001000
00000000
00010000
00000000
00011000
00000000
00000000
00000000
,
00010000
01000000
10000000
00100000
01000000
00010000
10010000
00000000
,
10000000
00010000
10000000
00000000
00010000
10000000
00010000
00000000
00100000
01000000
00100000
00000000
01000000
00100000
01000000
00000000
,
00010000
01000000
00001000
00010000
00000010
00001000
00000001
00000100
,
00000010
00000000
00000000
00000000
00001010
00000000
00000000
00000000
00000001
00000100
00000001
00000100
00000001
00000000
00001000
00000000
,
00002002
00000000
00003003
00000000
00001000
00001000
00000100
00000100
,
00010000
00001000
00010000
00000000
00001000
00010000
00001000
00000000
00100000
00000000
00100000
00000000
00010000
00000000
00010000
00000000
,
10000000
01000000
10000000
00000000
01000000
10000000
01000000
00000000
21000000
00000000
00000000
00000000
30010000
00000000
00000000
00000000
,
01000000
00010000
01010000
00000000
00210000
00000000
00301000
00000000
,
00010000
00000100
00001000
00000000
00000102
00000000
00001003
00000000
,
00000010
00000000
00000000
00000000
00000000
00000000
00000000
00000000
00001000
00000000
00000000
00000000
00000000
00000000
00000000
00000000
00000100
00000000
00000000
00000000
00000000
00000000
00000000
00000000
00010000
00000000
00000000
00000000
00000000
00000000
00000000
00000000
00022000
00000000
00000000
00000000
00000000
00000000
00000000
00000000
00000000
00000000
00000000
00000000
00000000
00000000
00000000
00000000
00000000
00033000
00000000
00000000
00000000
00000000
00000000
00000000
00000000
00000000
00000000
00000000
00000000
00000000
00000000
00000000
,
00020000
00000100
00032000
01000000
,
00023000
00000010
00032000
00100000
,
00023000
00000001
00032000
10000000
,
00013000
00001000
00100000
01000000
,
11000000
01000000
11000000
01000000
,
10000000
01000000
10000000
01000000
10000000
00000000
00110000
00000000
,
00001000
00000000
00000000
00010000
00000000
00000000
00000100
00000000
,
00001000
00000100
00000010
00000001
,
00000100
00000001
00001000
00000100
,
00010000
00001000
00010000
00000010
,
00000100
00000010
00010000
00000100
,
00010000
00001000
00100000
00010000
,
10000000
00010000
01000000
00100000
,
10000000
00010000
01000000
00001000
,
00020000
00030100
00002000
01003000
,
00011000
00000000
00010000
00001000
00010000
00000000
00011000
00000000
,
00022000
00000000
00000000
00033000
,
00110000
00000000
00000000
00001010
00000000
00000000
00011000
00000000
,
00022000
00000000
00000000
00033000
;
