#TITLE:Duel;
#SUBTITLE:;
#ARTIST:Bond;
#TITLETRANSLIT:;
#SUBTITLETRANSLIT:;
#ARTISTTRANSLIT:;
#CREDIT:;
#BANNER:Disc.png;
#BACKGROUND:Bakaground-bg.jpg;
#LYRICSPATH:;
#CDTITLE:KOMBO.png;
#MUSIC:Song.mp3;
#OFFSET:-0.340;
#SAMPLESTART:129.970;
#SAMPLELENGTH:17.360;
#SELECTABLE:YES;
#BPMS:0.000=246.004;
#STOPS:;
#BGCHANGES:;
// cache tags:
#FIRSTBEAT:12.000;
#LASTBEAT:1032.667;
#SONGFILENAME:Songs/Definitive Keyboard Megapack/Duel [KOMBO]/Duel.sm;
#HASMUSIC:1;
#HASBANNER:1;
#MUSICLENGTH:260.370;
// end cache tags

//---------------dance-single - Kombo special and or----------------
#NOTES:
     dance-single:
     Kombo special and or:
     Hard:
     10:
     0.922,1.000,1.000,0.357,0.031,1213.000,372.000,93.000,0.000,12.000:

0000
0000
0000
0000
,
0000
0000
0000
0000
,
0000
0000
0000
0000
,
1111
0000
0000
0000
,
0000
0000
0000
0000
,
0000
0000
0000
0000
,
0000
0000
0000
0000
,
1001
0100
0010
1001
,
0001
1010
0001
1000
,
0110
1000
0001
1100
,
0001
0110
1000
0100
,
1001
0010
1000
0110
,
0100
0110
0010
0001
,
0101
0010
0100
1001
,
0010
0101
1000
0010
,
1010
0100
2000
0000
,
3200
0000
0320
0000
,
0032
0000
0223
0000
,
0330
0001
0010
0100
2000
0000
0000
0000
,
3000
0000
0002
0000
,
0023
0000
0230
0000
,
2300
0000
3220
0000
,
0330
1000
0100
0010
0002
0000
0000
0000
,
0003
0000
0010
0100
1001
0100
0010
0100
,
2002
0000
0000
0000
0000
0000
0000
3003
,
0000
0000
0010
0100
1001
0100
0010
0100
,
2002
0000
0000
0000
0000
0000
0000
3003
,
2002
0000
0000
0000
,
0000
0000
0000
0000
,
0000
0000
0000
0000
,
3003
0011
0011
1100
,
1100
0000
0110
0110
,
1001
0000
1001
0110
,
1001
0000
1001
0110
,
1001
0110
0101
0110
,
0101
0000
0011
0110
,
1100
0000
1100
0110
,
0011
0000
0011
0110
,
1100
0011
0110
0011
,
0110
0000
1001
0010
,
0100
0010
1001
0001
,
1000
0010
1010
0001
,
0100
0001
0101
0001
,
1000
0010
1010
0001
,
0100
0010
0101
0001
,
1000
0010
1010
0001
,
0100
0010
1001
1001
,
1001
0000
0000
0000
,
0000
0000
0000
0000
,
0000
0000
0000
0000
,
0000
0000
0000
0000
,
1000
0100
0010
0001
1000
0000
0000
0011
,
1100
0000
0000
0000
0001
0010
0001
1000
,
0001
0000
0000
0000
1000
0010
1000
0001
,
1000
0000
0000
0000
,
0001
0010
0100
1000
0001
0000
0000
1100
,
0011
0000
0000
0000
0001
1000
0001
1000
,
0010
0000
0000
0000
1000
0001
1000
0001
,
0010
0000
1000
0001
1000
0001
1000
0000
,
0010
0100
0010
0100
0010
0100
0001
0000
,
0001
1000
0001
0000
0010
1000
0010
1000
,
0001
0000
0001
0010
0001
0010
0001
0000
,
1000
0001
1000
0001
1000
0000
1000
0100
,
0001
0110
0011
0110
,
1010
0000
0000
0000
0000
0000
0001
0100
,
1000
0011
0101
1001
,
0011
0000
0000
0000
0000
0000
0010
1000
,
0110
0001
1010
0001
,
0101
0010
1001
0010
,
0110
0001
1000
0010
,
0200
0000
0000
0000
,
0300
0011
1100
1001
,
0110
0000
0000
0000
,
1001
0010
0100
1000
0010
0000
0000
0110
,
0011
0000
0000
0000
1001
0100
0001
0100
,
0010
0000
0000
0000
0011
1000
0100
1000
,
0010
0000
1000
0010
1000
0001
0100
0000
,
0101
0010
0001
0010
0100
0000
0000
0110
,
1100
0000
0000
0000
0110
0001
0010
0100
,
1000
0000
0000
0000
0011
1000
0001
1000
,
0010
0000
1010
0100
0010
1000
0010
0000
,
0011
1000
0001
1000
0001
0100
0001
0000
,
1000
0010
1000
0000
0011
0100
0001
0100
,
0010
0000
1001
0010
0001
0010
0001
0000
,
1001
0100
1000
0100
1000
0000
0100
0010
,
0100
0110
0101
1100
,
0002
0000
0000
0000
0000
0000
0103
0010
,
0100
1001
1010
1100
,
0020
0000
0000
0000
0000
0030
0001
1000
,
0001
0010
0101
0010
,
1001
0010
0101
0010
,
1001
0010
0100
0001
,
2002
0000
0000
0000
0000
0000
0000
3003
,
0000
1100
0011
1100
,
0011
0000
0000
0000
,
0000
0011
1100
0011
,
1100
0000
0000
0000
,
0000
1010
0101
1010
,
0101
0000
0000
0000
,
0000
0101
1010
0101
,
1010
0000
0000
0000
,
0000
1010
0101
1010
,
0011
1100
0011
1100
0011
1100
0011
1100
,
0011
0011
1100
0011
,
1001
0110
1001
0110
1001
0110
1001
0110
,
1001
0011
0110
0011
,
1100
0011
1100
0011
1100
0011
1100
0011
,
1100
1010
1100
1010
,
0101
1010
0101
1010
0101
1010
0101
1010
,
0101
0110
1100
0011
,
1001
0010
0110
1000
,
0001
1000
1010
0001
,
0100
0010
1001
0010
,
0100
0001
1001
0010
,
0100
0001
1001
0010
,
0100
0001
1001
1001
,
1001
0000
0000
0000
,
0001
1000
0001
1000
0001
1000
0001
1000
,
0011
1000
0010
1000
0001
0100
0001
0100
,
0001
0100
0001
0100
0001
0010
0001
0010
,
0101
1000
0100
1000
0100
1000
0100
1000
,
0001
0100
0001
0100
0010
0100
0010
1000
,
0011
1000
0010
1000
0001
0100
0001
0100
,
0001
0010
0001
0010
0001
0010
0100
0010
,
1100
0010
1000
0100
1000
0100
1000
0100
,
0010
0100
0010
0100
0001
0100
0001
0100
,
0011
1000
0001
1000
0010
1000
0010
1000
,
0001
0100
0001
0100
0001
0100
0001
0100
,
1001
0100
0001
0100
0010
1000
0010
1000
,
0010
1000
0010
0100
0010
0100
0001
0100
,
1001
1000
0100
0001
,
0110
1000
0100
0001
,
0110
1000
0110
0001
,
0100
0001
0100
0001
0100
0001
0100
0001
,
0110
1000
0010
1000
0011
0100
0010
0100
,
0001
0100
0001
0100
0011
1000
0001
1000
,
0010
1000
0010
1000
0011
0100
0010
0100
,
0001
1000
0001
0010
0101
0010
0100
1000
,
0100
1000
0100
1000
0110
0001
0010
0001
,
0010
0001
0010
1000
0110
1000
0100
1000
,
0100
0010
0100
0010
1100
0010
0001
0010
,
0001
0010
0100
1000
0101
1000
0010
1000
,
0100
1000
0010
1000
0101
1000
0010
1000
,
0100
1000
0010
1000
0101
1000
0010
1000
,
0100
1000
0010
1000
0101
1000
0010
1000
,
0100
1000
0010
1000
0101
1000
0010
1000
,
0001
0100
0011
0100
,
1000
0001
0010
0100
,
0001
0010
0100
1000
0001
0010
0100
1000
,
0001
0010
0100
1000
0001
0010
0100
1000
,
0220
0000
0330
0000
,
0000
0000
1001
0010
0100
0010
0001
0010
,
1001
0000
0000
0000
,
0000
0000
0000
0000
,
0101
1000
0010
1000
0010
0000
0000
1100
,
0011
0000
0000
0000
1001
0100
0001
0100
,
0010
0000
0000
0000
1001
0010
1000
0010
,
0100
0000
0101
1000
0001
1000
0010
0000
,
0011
1000
0001
1000
0001
0000
0000
0011
,
1100
0000
0000
0000
0101
1000
0001
1000
,
0010
0000
0000
0000
0101
1000
0001
1000
,
0010
0000
0101
0010
0100
0010
0100
0000
,
0011
1000
0001
1000
0010
0100
0010
0000
,
0001
1000
0001
0000
0110
0001
0010
0001
,
1000
0000
1010
0100
1000
0100
1000
0000
,
0101
0010
0001
0010
0100
0000
1000
0100
,
1000
0011
0101
1001
,
0202
0000
0000
0000
0303
0000
0100
1000
,
0100
1001
1001
0110
,
2002
0000
0000
0000
3003
0000
0001
0010
,
0100
1100
0001
0110
,
0001
1100
0010
0110
,
0001
0110
0011
1100
,
0220
0000
0000
0000
,
0000
0330
0011
0000
1100
0000
0110
0000
,
0011
0000
0000
0000
,
0000
1100
0110
0011
,
1001
0000
0000
0000
,
0000
0101
1001
0011
,
1100
0000
0000
0000
,
0000
0011
0110
0011
,
1100
0000
0000
0000
,
0000
1010
0110
1010
,
0101
1010
0101
1010
0101
1010
0101
1010
,
0101
0011
1100
0110
,
0011
1100
0011
1100
0011
1100
0011
1100
,
0011
0110
1010
0101
,
1001
0110
1001
0110
1001
0110
1001
0110
,
1001
0110
0011
1100
,
0101
1010
0101
1010
0101
1010
0101
1010
,
0101
0110
0101
1010
,
0101
0012
0000
2013
,
0000
3021
0000
0230
,
0312
0000
2013
0000
,
0000
0000
0000
0000
,
0000
0000
0000
0000
0000
0000
0000
3000
,
1001
0000
0000
0000
2002
0000
0000
3003
,
0220
0000
0000
0330
0022
0000
0000
0033
,
2200
0000
0000
3300
2020
0000
0000
0000
,
3030
0011
0011
1100
1100
0000
0000
0000
,
0000
0000
0000
0000
2002
0000
0000
3003
,
0220
0000
0000
0330
0022
0000
0000
0033
,
2200
0000
0000
3300
2002
0000
0000
0000
,
3003
0100
1000
0100
0010
0001
0010
0100
,
1000
0100
0010
0000
0000
0000
0000
0000
0000
0000
0000
0000
0001
0010
0100
0000
0000
0000
0000
0000
0000
0000
0000
0000
,
0202
2323
3030
0000
,
0010
0100
0001
0000
0000
0000
0000
0000
0000
0000
0000
0000
0010
1000
0100
0000
0000
0000
0000
0000
0000
0000
0000
0000
,
0220
2332
3003
0000
,
1000
0100
0010
0000
0000
0000
0000
0000
0000
0000
0000
0000
0001
0010
0100
0000
0000
0000
0000
0000
0000
0000
0000
0000
,
0202
2323
3030
0000
,
1000
0001
1000
0000
0000
0000
0000
0000
0000
0000
0000
0000
0001
1000
0001
0000
0000
0000
0000
0000
0000
0000
0000
0000
,
0202
2323
3030
0110
,
1001
0000
0100
0010
0100
0001
0100
0010
,
0100
1000
0100
0010
0100
0001
0100
0010
,
0100
1000
0100
0010
0100
0001
0100
0010
,
0100
1000
0100
0010
0100
0001
0100
0010
,
0100
1000
0100
0010
0100
0001
0100
0010
,
0100
1000
0100
0010
0100
0001
0100
0010
,
0100
1000
0100
0010
0100
0001
0100
0000
,
0000
1000
0001
1000
0001
1000
0001
1000
,
0110
1000
0001
1000
0011
1000
0010
1000
,
0001
1000
0010
1000
0011
1000
0010
1000
,
0001
1000
0010
1000
0101
1000
0010
0100
,
0001
0100
0001
0100
0011
1000
0010
1000
,
0001
0100
0010
0100
0011
0100
0010
0100
,
0001
0100
0010
0100
1001
0100
0010
0100
,
0001
0100
0010
0100
1001
0100
0010
0100
,
0001
1000
0001
1000
0110
1000
0010
0100
,
0010
1000
0010
0100
0011
1000
0010
0100
,
0010
1000
0010
0100
0011
1000
0010
0100
,
0010
1000
0010
0100
0011
1000
0010
0100
,
0010
1000
0010
0100
0011
0100
0010
0000
,
0002
2003
3002
2003
,
3002
2003
3002
2003
,
3001
1000
0001
0000
2000
0000
3002
0000
,
2003
3002
2003
3002
,
0103
1000
0001
1000
0100
0010
0001
1000
,
0100
0010
0001
1000
0010
0100
0001
1000
,
0010
0100
0001
0010
0100
1000
0001
0010
,
0100
1000
0100
0010
0001
0010
0100
1000
,
0001
1000
0100
0010
0001
1000
0100
1000
,
0010
0100
0001
0010
0100
1000
0001
1000
,
0010
1000
0001
0100
1000
0010
0001
1000
,
0100
0010
0001
0010
0100
0010
0001
0010
,
0100
1000
0001
0010
0100
1000
0001
0010
,
0100
1000
0001
0010
0100
0010
0001
1000
,
0001
0010
0100
1000
0001
1000
0010
0100
,
0010
1000
0001
0100
0010
1000
0010
0100
,
0001
0010
0100
1000
0001
0010
0100
1000
,
0001
1000
0010
0100
0001
1000
0010
1000
,
0001
0100
0001
0100
0010
1000
0010
0100
,
0001
0010
0100
1000
0001
1000
0010
0000
,
1001
0110
1001
0110
1001
0110
1001
0110
,
1001
0110
1001
0110
1001
0110
1001
0110
,
2002
0000
0000
0000
,
0000
0000
0000
0000
,
0000
0000
0000
0000
,
0000
0000
0000
0000
,
0000
0000
0000
3223
0330
0000
0000
0000
0000
0000
0000
0000
0000
0000
0000
0000
0000
0000
0000
0000
0000
0000
0000
0000
;
