#TITLE:Kimi ga Ita Monogatari;
#SUBTITLE:- .hack/Liminality 3rd Opening;
#ARTIST:See-Saw;
#TITLETRANSLIT:;
#SUBTITLETRANSLIT:;
#ARTISTTRANSLIT:;
#CREDIT:;
#BANNER:kimigaitamonogatari-bn.png;
#BACKGROUND:kimigaitamonogatari-bg.png;
#LYRICSPATH:kimigaitamonogatari.lrc;
#CDTITLE:!cdtitle.png;
#MUSIC:kimigaitamonogatari.mp3;
#OFFSET:-0.240;
#SAMPLESTART:77.800;
#SAMPLELENGTH:15.800;
#SELECTABLE:YES;
#BPMS:0.000=133.000;
#STOPS:;
#BGCHANGES:;
// cache tags:
#FIRSTBEAT:12.500;
#LASTBEAT:283.000;
#SONGFILENAME:Songs/Otaku's Dream 1st Anime Mix/PlatinumHawke - Kimi ga Ita Monogatari/kimigaitamonogatari.sm;
#HASMUSIC:1;
#HASBANNER:1;
#MUSICLENGTH:131.977;
// end cache tags

//---------------dance-single - ----------------
#NOTES:
     dance-single:
     :
     Easy:
     3:
     0.234,0.268,0.023,0.174,0.000,190.000,3.000,23.000,0.000,0.000:
0000
0000
0000
0000
,
0000
0000
0000
0000
,
0000
0000
0000
0000
,
0000
0000
0000
0000
,
1000
0100
0010
0000
,
0001
1000
0001
2000
,
0000
0000
3000
0001
,
2000
0000
0000
3000
,
0100
0010
0100
0010
,
0002
0000
0000
0003
,
1000
0020
0000
0000
,
0030
0000
0000
1000
,
0100
1000
2000
0000
,
3001
0001
0000
0001
,
1000
0001
0000
0010
,
0001
0001
0000
0001
,
0100
0001
0002
0000
,
1003
1000
0000
1000
,
0001
1000
0000
0100
,
1000
1000
0000
0001
,
0002
0000
0023
0000
,
0230
0000
0300
1000
,
0100
0010
0100
0010
,
0002
0000
1003
0001
,
0200
0000
0000
0300
,
0010
0010
0010
0000
,
0010
1000
0010
0000
,
1000
0100
1000
0001
,
0001
0000
0001
1000
,
1000
0000
1000
0100
,
0010
0001
0010
0100
,
1000
1000
0000
0010
,
0010
0000
0100
0001
,
0001
0000
0001
1000
,
0100
1000
0001
1000
,
0100
1000
0000
0001
,
0010
0001
0010
0100
,
1000
0001
0000
1000
,
0001
1000
0100
0000
,
1000
0100
0010
0000
,
1000
0001
1000
0000
,
0001
0100
0001
0000
,
1000
0100
1000
0000
,
0002
0000
0000
0003
,
1000
0001
1000
0010
,
0200
0000
0300
0001
,
0010
0001
0001
0010
,
0002
0000
0003
1000
,
1000
0100
0001
0010
,
1000
1000
0000
0001
,
0010
0100
1000
1000
,
0100
0010
0001
1000
,
1000
0001
0010
0001
,
0200
0000
0300
0010
,
0100
0010
0100
0001
,
0020
0000
0030
0100
,
0100
1000
0100
0010
,
0002
0000
0003
1000
,
1000
0001
0100
0001
,
0001
1000
0100
0010
,
2002
0000
0000
3003
,
0010
0010
0010
0010
,
0100
0100
0100
0100
,
1000
1000
0010
0010
,
0100
0001
0010
0100
,
1000
0010
0100
0001
,
0010
0100
0220
0000
,
0000
0000
0000
0000
,
0330
0000
0000
2002
,
0000
0000
0000
0000
,
0000
0000
0000
3003
;

//---------------dance-single - ----------------
#NOTES:
     dance-single:
     :
     Medium:
     6:
     0.367,0.375,0.205,0.167,0.000,290.000,27.000,22.000,0.000,0.000:
0000
0000
0000
0000
,
0000
0000
0000
0000
,
0000
0000
0000
0000
,
0000
0200
0000
0000
0000
0000
0000
0000
,
0301
0000
0100
0000
0001
0000
0010
0100
,
1000
0000
0100
0010
0001
0000
1000
0000
,
1100
0100
0010
0001
,
0200
0000
0010
0000
,
0310
0000
1010
0000
1100
0000
0010
0001
,
0010
0000
0001
0100
0001
0000
1000
0100
,
0020
0000
0001
0000
,
0031
1000
0100
0100
,
0010
0000
0011
0000
0100
0000
1000
0100
,
1000
0000
0020
0000
0130
0000
0001
0010
,
0100
0000
0100
0000
1000
0001
0100
0000
,
0010
0000
1000
0000
0100
0000
0100
1000
,
0010
0100
0110
0001
,
1000
0000
0110
0000
1001
0000
0010
0100
,
1000
2000
3010
0002
,
0013
0000
1000
0000
0110
0000
1000
0100
,
0010
0000
0001
0000
0001
0000
0001
1000
,
0100
0000
0011
0000
1000
0000
0010
0100
,
0001
1100
0101
0010
,
0100
0000
1000
0000
0000
1000
0010
0100
,
0001
1100
0010
0100
,
0010
0011
1000
0010
,
1000
1001
0010
0100
,
1000
0000
1001
0000
0000
0000
1000
0100
,
0001
0000
0100
0000
0100
0000
1000
0010
,
0100
0000
0100
0000
1000
0000
0001
0010
,
0100
0000
0010
0100
1000
0000
1000
0001
,
1000
0001
0100
0000
1000
0000
0010
0100
,
0010
0000
0010
0000
1000
0000
1000
0100
,
1000
0100
0010
0001
,
0100
0000
0010
0000
0100
0000
0001
0010
,
0100
0010
0100
0000
0000
0000
1000
0100
,
1000
0000
0010
0000
0100
0000
0001
0010
,
0001
0100
0001
0000
1000
0000
0010
0000
,
0100
0000
0010
0000
0110
0000
1000
0100
,
0010
0001
1000
0000
0002
0000
0023
0000
,
0230
2300
3010
0010
,
0010
1000
0100
0000
0010
0001
0100
0000
,
0010
0100
0001
0000
1000
0010
0100
0000
,
2002
0000
0000
0000
3003
0000
0010
0100
,
0010
0100
0010
1001
,
0200
0000
0000
0000
1300
0000
1000
0010
,
0100
0000
0001
0100
0001
0100
0001
0000
,
2000
0000
0000
3000
0000
0000
0100
0010
,
0100
0010
0001
0010
,
1000
0000
0010
0000
0001
0000
0010
0100
,
1000
0000
1000
0100
0010
0000
0010
0100
,
1000
0001
1000
0001
0000
0000
0001
0010
,
0001
0010
0100
0010
,
0002
0000
0000
0000
0003
0000
0010
0100
,
1000
0010
0100
0010
,
0220
0000
0000
0330
0000
0000
0010
1000
,
0100
0000
0010
0001
0010
0000
0001
0100
,
0001
0000
1000
0000
0100
0000
0010
0100
,
0001
0010
0100
1100
,
1001
0101
0011
0010
,
0220
0000
0000
0000
,
0330
0000
0110
0000
1001
0000
0000
1000
,
0100
0100
0000
0001
0100
0100
0000
0000
,
0010
1000
0100
1000
,
0001
0010
0010
0000
0100
0100
1000
0000
,
1000
0010
0010
0000
0001
0010
0010
0100
,
0010
0100
1000
0010
0200
0000
0000
0000
,
0000
0000
0000
0000
,
0300
0000
0000
2002
,
0000
0000
0000
0000
,
0000
0000
0000
3003
;

//---------------dance-single - ----------------
#NOTES:
     dance-single:
     :
     Hard:
     8:
     0.511,0.563,0.015,0.129,0.102,453.000,2.000,17.000,0.000,0.000:
0000
0000
0000
0000
,
0000
0000
0000
0000
,
0000
0000
0000
0000
,
0000
0120
0000
0000
0000
0000
0000
0000
,
0130
0001
0010
0100
1000
0010
0100
0000
,
0100
0001
0100
0001
1000
0100
0010
0001
,
0000
0100
1000
0001
1000
0001
0100
0010
,
1000
0100
0000
0100
1000
0001
1000
0000
,
0010
0100
0001
0010
0100
0010
0100
0000
,
0100
1000
0010
0001
0010
0100
0001
1000
,
0000
0100
0010
0001
0000
0100
0010
0100
,
0000
0010
1000
0010
0000
1000
0100
0010
,
0002
0000
0100
0000
0103
0000
0100
0010
,
2000
0000
0100
0000
3100
0000
0010
0001
,
0100
0000
0010
1000
0010
1000
0100
0010
,
0001
0010
0100
1000
0000
0001
1000
0001
,
0200
0000
1000
0000
0310
0000
0001
0010
,
0200
0000
0010
0000
1300
0000
0010
0100
,
0001
0010
0100
0000
0100
0010
0001
0010
,
1000
0010
0001
0000
0000
0100
0010
0100
,
1000
0100
0001
0010
0001
0010
0100
1000
,
0100
0001
1000
0001
1000
0000
0010
0100
,
0010
0100
0001
0010
0100
1000
0010
0100
,
1000
0100
0010
0100
0001
1000
0010
0001
,
0010
0000
0000
1000
0000
0000
0001
0000
1000
0000
0001
0000
1000
0100
0000
0010
,
0001
0010
0000
0001
0000
0000
0100
0000
0010
0000
0100
0000
0001
0100
0001
0000
,
0100
0000
0000
0001
0000
0000
0010
0000
0100
0000
1000
0000
0001
1000
0000
0000
,
0010
1000
0000
1000
0000
0000
0001
0000
0010
0000
0001
0000
0100
0000
0001
0000
,
2000
0000
0010
0000
3010
0000
1000
0010
,
0002
0000
0010
0000
0013
0000
0010
1000
,
0010
0000
1000
0100
0010
0000
1000
0010
,
0100
0001
0010
0100
0000
1000
0010
1000
,
0020
0000
0100
0000
0031
0000
0010
1000
,
0200
0000
0001
0000
0310
0000
0100
1000
,
0001
0010
0001
0100
0010
0100
0001
0010
,
0100
1000
0001
0000
0000
1000
0010
0100
,
0001
0010
0100
0010
0100
1000
0010
0001
,
0010
1000
0100
0010
0001
0000
1000
0010
,
1000
0010
0100
0001
0010
0100
0010
0001
,
1000
0000
0010
0000
0100
0000
0000
0000
0001
0000
0000
0010
0000
0000
0100
0000
,
1000
0200
0000
0000
0000
0000
0300
0000
,
0100
0000
0100
0000
1000
0001
0100
0000
,
0010
0000
0010
0000
1000
0001
1000
0100
,
0010
0001
0000
0100
0010
0000
1000
0000
0100
0000
0010
0100
0010
0000
0100
0000
,
0010
0001
1000
0010
0100
0001
0010
0100
,
1000
0001
1000
0000
0100
1000
0100
0000
0010
0000
0001
0000
0100
0000
0010
0000
,
0001
0010
1000
0100
0010
0002
0000
0000
,
0200
0000
0000
0303
0000
1000
0100
0001
,
0100
1000
0010
0100
0000
1000
0010
0100
,
0001
0010
0001
0000
0010
0100
0010
0000
0100
0000
1000
0000
0010
0000
0100
0000
,
0001
0010
0100
2000
0000
3010
0100
0010
,
0100
0001
0010
0100
1000
0010
0100
0010
,
1000
0100
0001
0100
0010
0001
1000
0010
,
0100
0001
0100
0000
0001
1000
0001
0000
0010
0000
0100
0000
1000
0000
0010
0000
,
0001
0010
0100
0001
0010
0200
0000
0000
,
2000
0000
0000
3300
0000
1000
0010
1000
,
0001
0010
0100
0010
0001
1000
0010
0100
,
0001
0100
0001
0000
0001
1000
0100
1000
,
0001
1000
0010
0001
0010
1000
0100
0000
,
0100
0010
0100
0010
0001
1000
0010
0100
,
0001
0010
1000
0010
0100
0010
1000
0010
,
0001
0100
0010
1000
0100
0001
1000
0001
,
1000
0010
1000
0100
0010
0001
0100
0010
,
1000
0010
0001
0010
1000
1000
0100
0010
,
0010
0001
0100
1000
0100
0010
0100
0010
,
1000
0100
0001
0100
1000
0010
0001
0010
,
1000
0000
0100
0000
0010
0000
0001
0000
1000
0010
0000
0100
0001
0000
0010
0100
,
0000
1000
0010
0000
0100
0000
0001
1000
0001
0000
1000
0000
0001
1000
0001
0100
,
0000
0000
0000
0220
,
0000
0000
0000
0000
,
0000
0000
0000
0330
;
