#TITLE:Love Is Eternity;
#SUBTITLE:-SF Synth Trance Mix-;
#ARTIST:kors k (remixed by Sota Fujimori);
#TITLETRANSLIT:;
#SUBTITLETRANSLIT:;
#ARTISTTRANSLIT:;
#CREDIT:;
#BANNER:Love Is Eternity -SF Synth Trance Mix--bn.png;
#BACKGROUND:Love Is Eternity -SF Synth Trance Mix--bg.png;
#LYRICSPATH:;
#CDTITLE:paranoivm.png;
#MUSIC:Love Is Eternity (SF Synth Trance Mix).mp3;
#OFFSET:-1.040;
#SAMPLESTART:41.096;
#SAMPLELENGTH:12.000;
#SELECTABLE:YES;
#BPMS:0.000=145.000;
#STOPS:;
#BGCHANGES:;
// cache tags:
#FIRSTBEAT:8.000;
#LASTBEAT:280.000;
#SONGFILENAME:Songs/juju steps/Love Is Eternity -SF Synth Trance Mix-/Love Is Eternity (SF Synth Trance Mix).sm;
#HASMUSIC:1;
#HASBANNER:1;
#MUSICLENGTH:118.308;
// end cache tags

//---------------dance-single - ----------------
#NOTES:
     dance-single:
     :
     Challenge:
     10:
     0.930,0.947,0.718,0.135,1.000,669.000,85.000,16.000,0.000,0.000:
0000
0000
0000
0000
,
0000
0000
0000
0000
,
2002
0000
0000
0000
,
3003
0000
0000
0000
,
0001
0100
0000
0101
0000
0100
1000
0000
1000
0100
0010
0000
0010
1000
0001
0010
,
0000
0010
0001
0000
1000
0010
0100
0010
0000
0010
0100
0000
0100
0001
1000
0100
,
0010
0000
0010
0001
0000
0001
0010
0000
0001
1000
0100
0000
0100
1000
0010
0100
,
0001
1000
0000
1000
0100
0000
0100
1000
0000
1000
0010
0100
0001
1000
0000
1000
,
0001
0010
0001
0100
0000
0100
1000
0000
1000
0100
0010
0100
0001
0000
0001
0100
,
0000
0101
0000
0001
0100
0001
1000
0100
0000
0100
1000
0000
1100
0000
1000
0100
,
0010
0001
1000
0100
0000
0100
1000
0000
1000
0001
0000
0010
0000
0011
0000
1001
,
0000
1000
0010
0100
0001
1000
0001
0000
0010
0001
0000
0001
0010
0001
0100
0010
,
1010
0000
1001
0000
0011
0000
0000
0010
0100
0010
0000
1010
0000
0101
0000
1001
,
0000
1000
0010
0000
0010
1000
0001
0010
0000
0011
0000
0001
1000
0100
0010
0001
,
0000
0001
0010
0000
0010
0001
1000
0010
0100
0001
1000
0000
0100
0000
1001
0000
,
0011
0000
0001
0100
0000
0100
0010
0000
1010
0000
0110
0000
0100
1000
0000
1000
,
0000
0100
0010
0000
0010
0100
0001
1000
0100
0000
0100
0000
1000
0100
0010
0001
,
0000
0001
0010
0000
0011
0000
0001
1000
0100
0010
0001
0010
0011
0000
0001
0000
,
0100
0001
0100
0010
1000
0010
0100
0001
1000
0100
0010
0001
1000
0100
0010
0001
,
0000
0001
0010
0001
1000
0100
1000
0001
0010
0001
0100
0001
0100
0010
1000
0010
,
0100
0000
0000
0010
1000
0000
0010
0000
0100
0001
0000
0001
1000
0000
1001
0000
,
0011
0000
0000
0010
0011
0000
0001
0000
1000
0001
0010
0001
2000
0000
3010
0000
,
1001
0000
0000
0001
0100
0000
1001
0000
0100
0000
0000
0001
0010
0000
1001
0000
,
1010
0010
0000
0010
0000
0000
0110
0000
0101
0000
0000
0101
0000
0000
1001
0000
,
0000
1000
0000
0001
0010
0000
0011
0000
0001
1000
0000
1000
0010
0000
0000
0110
,
0000
0000
0100
0000
0010
0100
0000
0100
0010
0000
0010
1000
0000
0010
0100
0001
,
1000
0100
0000
0100
1000
0000
0000
1001
0000
0000
0101
0000
0000
0110
0000
0010
,
1000
0010
0100
0001
1000
0000
0011
0000
1001
0000
1010
0000
0000
0010
0000
0110
,
0000
0100
0000
0001
1000
0100
0010
0001
1000
0000
1100
0000
1000
0000
0000
0002
,
0000
0013
0000
0011
0000
0010
0001
1000
0100
0010
0001
1000
0010
0000
0110
0000
,
0100
0001
0000
0001
0000
1000
0100
0000
0100
1000
0000
1000
0010
0100
0001
1000
,
0000
0001
0010
0000
0011
0000
0010
0001
1000
0100
0010
0001
1000
0010
0100
0001
,
1000
0000
0001
0010
0000
0011
0000
0001
0010
0001
1000
0000
1000
0010
0000
1010
,
0000
0010
0100
0000
0100
0001
1000
0000
0100
1000
0010
0100
0000
0100
0001
0000
,
0001
1000
0100
0010
0001
0000
0001
0010
0000
0010
0001
0100
0000
0100
0010
0000
,
1010
0000
0110
0000
0101
0000
1001
0000
1000
0100
1000
0010
0100
0001
0010
0001
,
0200
0000
0010
0000
0000
0010
0000
0000
0010
0000
0000
0000
0010
0000
0000
0010
,
0300
1000
0010
0000
0010
0100
0000
0100
0001
0000
0002
1000
0103
0010
0000
0001
,
0010
0000
0001
1000
0010
0000
0010
1000
0000
1000
0010
0100
0001
1000
0000
0001
,
0000
0010
0001
1000
0000
1000
0010
0000
0010
0100
0001
1000
0100
0010
0000
0010
,
0001
0010
0001
0100
0000
0100
0000
0010
1000
0000
1010
0000
0010
1000
0001
0010
,
0000
0011
0000
0001
1000
0100
0000
0100
1000
0010
0000
1010
0000
1001
0000
0001
,
0010
0001
0100
0010
0000
1000
0010
0100
0001
1000
0001
0000
0011
0000
0000
0001
,
1000
0000
1000
0100
0000
0100
1000
0010
0100
0001
0000
1001
0000
0001
0010
0001
,
0101
0000
0100
0010
0000
1000
0010
0010
0000
0100
0000
0001
1000
0100
0010
0001
,
0000
0001
1000
0100
0010
0000
0001
0010
0000
0010
0001
0000
0100
0010
0000
0010
,
0000
1000
0010
0100
0001
1000
0000
1000
0100
1000
0010
0100
0000
0100
0000
1001
,
0000
0001
0000
0010
0001
0100
0000
0110
0000
0010
1000
0000
1000
0010
0000
0010
,
0000
0100
0001
1000
0100
0010
0000
0010
0001
0010
0001
0000
0001
0100
0010
1000
,
0000
1000
0010
0000
1010
0000
1001
0000
1000
0100
0010
0001
0000
0001
0010
0001
,
0000
0001
0100
0010
1000
0010
0100
0000
1000
0100
0010
0001
0000
0010
0001
0100
,
0000
0010
0000
1000
0010
0100
0001
0000
0001
0010
0000
0010
0000
0011
0000
0010
,
0001
0100
0010
1000
0100
1000
0100
0010
0001
1000
0100
0100
1000
0010
0000
0010
,
0200
0000
0310
0000
0002
0000
1003
0100
,
0002
1003
2000
0100
,
3100
0000
0021
0000
0031
0000
1000
0001
,
0101
0000
0010
0000
1000
0000
0010
0000
0100
0001
0000
0001
1000
0000
1100
0000
,
1002
0103
2001
3100
,
1020
0000
0031
0000
0021
0000
1030
0010
,
0001
0100
1000
0001
0010
1000
0100
0001
,
1000
0010
1000
0001
1000
0010
0001
0100
,
0110
0000
0000
0100
0001
0000
0101
0000
1001
0000
0000
1000
0100
0000
1100
0000
,
0110
0000
0000
0100
0001
0000
0100
0000
1000
0000
0000
1000
0010
0000
1010
0000
,
1001
0000
0000
0001
0100
0000
0001
0000
1000
0100
0000
0100
1000
0000
0010
0000
,
0100
0000
0001
0000
1001
0000
0000
0000
0001
0000
0000
0011
0000
0000
1001
0000
,
0000
1000
0000
0010
1000
0000
0010
0000
0110
0000
0000
0100
0000
0010
0100
0000
,
0100
0010
0000
0010
1000
0000
1001
0000
0101
0000
0000
0100
0001
0000
1001
0000
,
1000
0001
0000
0001
1000
0000
1000
0010
0000
0010
1000
0000
1000
0100
0010
0001
,
0000
0001
0010
0000
0010
0001
0100
0010
0000
0010
1000
0000
1010
0000
1001
0000
,
1200
0000
0000
0000
,
0300
0000
0000
0000
;
