#TITLE:s!o!c!o!p!o!g!o!g!o!;
#SUBTITLE:;
#ARTIST:Sonic Coaster Pop;
#TITLETRANSLIT:;
#SUBTITLETRANSLIT:;
#ARTISTTRANSLIT:;
#CREDIT:;
#BANNER:../bn.png;
#BACKGROUND:../veyron.png;
#LYRICSPATH:;
#CDTITLE:!dethev.png;
#MUSIC:s!o!c!o!p!o!g!o!g!o!.ogg;
#OFFSET:1.099;
#SAMPLESTART:66.347;
#SAMPLELENGTH:14.856;
#SELECTABLE:YES;
#DISPLAYBPM:210.000;
#BPMS:0.000=209.000,28.000=210.000,188.000=210.500,288.000=210.000;
#STOPS:;
#BGCHANGES:;
// cache tags:
#FIRSTBEAT:4.000;
#LASTBEAT:512.000;
#SONGFILENAME:Songs/Cirque du Veyron/Zaia - s!o!c!o!p!o!g!o!g!o!/s!o!c!o!p!o!g!o!g!o!.sm;
#HASMUSIC:1;
#HASBANNER:1;
#MUSICLENGTH:145.397;
// end cache tags

//---------------dance-single - Zaia----------------
#NOTES:
     dance-single:
     Zaia:
     Challenge:
     16:
     1.000,1.000,0.138,0.275,1.000,1325.000,20.000,40.000,2.000,0.000:
0000
0000
0000
0000
,
1000
0010
1000
0010
1000
0001
1000
0001
,
1000
0100
1000
0100
1000
0001
0100
0001
,
0100
0010
1000
0001
0010
0001
1000
0010
,
0100
0010
1000
0001
0100
0001
0010
0100
,
1000
0001
1000
0001
1000
0100
1000
0100
,
1000
0010
1000
0010
1000
0001
0010
0001
,
0010
0100
1000
0001
0100
0001
1000
0100
,
0010
0100
1000
0001
0010
0001
0100
0010
,
1000
1000
0020
0000
,
0000
0230
0000
0302
0000
1003
0010
0100
,
0002
0000
2003
0000
3002
0000
0013
0100
,
0000
0000
1000
0000
0001
0100
0010
0100
0001
0010
0100
0010
0001
1000
0100
0010
,
0001
0001
0020
0000
,
0000
0230
0000
2300
0000
3001
0010
0100
,
2000
0000
3002
0000
2003
0000
3010
0100
,
0000
0000
0001
0000
1000
0100
0010
0001
1000
0010
1000
0100
1000
0001
0010
0001
,
1000
0010
0100
0001
1000
0001
0010
0001
,
1000
0010
0100
0010
1000
0001
0010
0100
,
1000
0010
0100
0010
0100
0001
1000
0100
,
1000
0010
0110
0100
0101
0001
0010
0100
,
1000
0010
1000
0100
1000
0100
0010
0001
,
1000
0010
1000
0001
0010
0100
1000
0010
,
0100
0001
1000
0010
1000
0001
1000
0100
,
0010
0000
0100
0000
1000
0001
0010
0100
0010
0001
1000
0100
0010
0001
0100
0010
,
1000
0001
1000
0010
0100
0001
1000
0100
0010
0001
0010
0100
1000
0010
0100
0001
,
1000
0001
1000
0100
0010
0001
1000
0010
0100
0001
0100
0010
1000
0001
0010
0100
,
1000
0001
1000
0010
0100
0001
1000
0100
0010
0001
0010
0100
1000
0010
0100
0010
,
1000
0001
1000
0010
0100
0001
1000
0010
0100
0001
0100
0010
1000
0100
0010
0001
,
1000
0001
1000
0010
0100
0001
1000
0100
0010
0001
0010
0100
1000
0001
0010
0001
,
1000
0010
1000
0100
0010
0001
1000
0010
0100
0001
1000
0001
0100
0010
1000
0100
,
0010
0001
0010
0001
1000
0010
1000
0001
,
0010
0100
1000
0010
0100
0001
1000
0010
,
1000
0001
0010
0100
0010
0100
1000
0001
,
1000
0020
0230
0302
2003
3200
0320
0230
,
1300
0010
1000
0001
0100
0010
0100
0001
,
1000
0010
1000
0100
0010
0100
1000
0010
,
0100
0001
1000
0001
0010
0100
1000
0001
,
0010
0000
0001
0000
1000
0010
1000
0001
1000
0100
0010
0001
1000
0100
0010
0100
,
1000
0001
1000
0100
0010
0001
1000
0010
0100
0001
0100
0010
1000
0100
0010
0001
,
1000
0001
1000
0010
0100
0001
1000
0100
0010
0001
0010
0100
1000
0001
0100
0010
,
1000
0001
1000
0100
0010
0001
1000
0010
0100
0001
0100
0010
1000
0100
0010
0100
,
1000
0001
1000
0100
0010
0001
1000
0100
0010
0001
0010
0100
1000
0010
0100
0001
,
1000
0001
1000
0100
0010
0001
1000
0010
0100
0001
0100
0010
1000
0001
0100
0001
,
1000
0100
1000
0010
0100
0001
1000
0100
0010
0001
1000
0001
0010
0100
1000
0010
,
0100
0001
0100
0010
1000
0001
1000
0100
0010
0100
1000
0010
0100
0001
0010
0001
,
1000
0100
0010
0100
1000
0010
0100
0010
1000
0100
0010
0001
1000
0010
0100
0001
,
0010
0100
0010
0100
1000
0100
1000
0100
,
1000
0010
0100
0001
1000
0100
1100
1000
,
1001
0001
0100
0010
1000
0100
0010
0001
,
1000
0000
0001
0000
0100
0010
1000
0001
1000
0100
1000
0010
0100
0001
1000
0001
,
0010
0100
0010
0100
1000
0100
1000
0010
,
1000
0100
0010
0001
1000
0010
1010
1000
,
0011
0001
0010
0100
1000
0010
0100
0001
,
1MM0
0000
0001
0000
0010
0100
1000
0001
1000
0010
1000
0100
0010
0001
1000
0001
,
0100
0001
0100
0001
1100
0001
0100
0001
,
0100
0001
1100
0001
1100
0001
1100
0010
,
1000
0001
0010
0001
1010
0001
0010
0001
,
1010
0001
1000
0001
1010
0001
1010
0001
,
1000
0010
0100
0001
1100
0001
1000
0001
,
1000
0001
1100
0001
1100
0001
1100
0010
,
1000
0001
1000
0001
1010
0001
1000
0001
,
1010
0000
0001
0000
1000
0000
0001
0000
0010
0100
1000
0001
1000
0001
0010
0100
,
1000
0001
0100
0001
0010
0000
0100
0000
1000
0000
0100
0000
1000
0000
0100
0000
,
0010
0001
0010
0001
0010
0001
0010
0001
,
1000
0001
1000
0010
0100
0000
0010
0000
1000
0000
0010
0000
0100
0000
0010
0000
,
1000
0010
0100
0010
1000
0010
0100
0010
,
1000
0001
0010
0001
1000
0100
0010
0001
,
0010
0100
0010
0001
1000
0010
0100
0010
,
0100
0000
0001
0000
1000
0000
0010
0000
1000
0001
0010
0001
1000
0010
0200
0000
,
0000
0000
0000
0000
,
0310
1000
0001
1000
0001
0100
0010
1000
0001
1000
0010
0100
0010
0100
0001
1000
,
0010
1000
0100
1000
0001
0100
0001
1000
,
0100
0010
0001
0100
0010
1000
0001
0100
,
0001
1000
0100
0010
0100
0010
0001
1000
,
0001
0200
0320
2030
3002
0023
0230
0320
,
0031
0100
0001
1000
0010
0100
0010
1000
,
0001
0100
0001
0010
0100
0010
0001
0100
,
0010
1000
0001
1000
0100
0010
0001
1000
,
0100
0000
1000
0000
0001
0100
0001
1000
0001
0010
0100
1000
0001
0010
0100
0010
,
0001
1000
0001
0100
0001
0010
0100
0010
,
0001
1000
0010
1000
0010
0100
0001
1000
,
0100
0010
0100
1000
0001
0010
0001
0100
,
0010
2000
3020
0230
0302
0023
0032
0203
,
0310
1000
0010
0100
0001
1000
0100
0010
,
0100
1000
0001
0010
0001
0100
0010
1000
,
0100
1000
0001
0100
0010
0100
0010
1000
,
0001
1000
0010
0100
0001
0100
0010
0100
,
0001
1000
0001
0100
0010
1000
0001
0010
0100
1000
0100
0010
0001
0100
0010
1000
,
0001
1000
0001
0010
0100
1000
0001
0100
0010
1000
0010
0100
0001
1000
0100
0010
,
0001
1000
0001
0100
0010
1000
0001
0010
0100
1000
0100
0010
0001
0100
0010
0100
,
0001
1000
0001
0100
0010
1000
0001
0100
0010
1000
0010
0100
0001
0010
0100
1000
,
0001
1000
0001
0100
0010
1000
0001
0010
0100
1000
0100
0010
0001
1000
0100
1000
,
0001
0100
0001
0010
0100
1000
0001
0100
0010
1000
0001
1000
0010
0100
0001
0010
,
0100
1000
0100
1000
0001
0100
0010
0100
,
0001
0100
0010
1000
0001
0010
0100
1000
0100
0010
0001
1000
0010
0000
0000
0000
,
0100
0000
0100
0000
0001
0100
0000
0010
,
0000
0010
0000
1000
0001
0000
0010
0000
,
0100
0000
0100
0000
1000
0001
0000
0100
,
0000
0010
0000
2000
0000
0000
3000
0000
,
0001
0000
1000
0000
0010
0100
0000
0001
,
0000
1000
0000
0010
0100
0000
0001
0000
,
1000
0000
1000
0000
0001
0100
0000
0001
,
0000
0010
0000
0200
0000
0000
0000
0300
,
0010
0100
1000
0100
0010
0001
0100
0001
,
0010
0100
1000
0010
1000
0001
1000
0100
,
0010
0100
1000
0010
0100
0001
1000
0010
,
1000
0001
0200
0000
0320
0000
2030
0000
,
3001
0100
0010
1000
0001
0010
0001
1000
0100
0010
0100
1000
0001
0100
0010
0100
,
0010
1000
0001
0010
0100
1000
0001
1000
0100
0010
0100
1000
0001
0100
0001
1000
,
0100
1000
0010
0100
0001
0100
0010
1000
0001
0010
0001
1000
0100
1000
0001
1000
,
0001
0100
0010
1000
0001
0010
0100
0010
0001
1000
0010
0100
0010
1000
0001
0100
,
0001
1000
0010
0100
0001
1000
0100
0010
0001
1000
0010
0100
0001
1000
0100
0010
,
0001
0100
0010
1000
0010
0100
0001
1000
0010
1000
0001
1000
0100
1000
0001
0010
,
0001
0100
0010
1000
0100
1000
0001
1000
0010
0100
0001
0010
0001
1000
0100
0010
,
0100
1000
0001
0010
0001
0100
0010
1000
0100
0010
0100
1000
0010
0100
0010
0100
,
0001
0010
0100
1000
0001
0100
0010
1000
0001
0010
0100
1000
0001
0100
0010
1000
,
0001
1000
0001
0100
0010
1000
0001
0010
0100
1000
0001
1000
0100
0010
0001
1000
,
0001
0100
0010
0100
0001
1000
0010
1000
0001
0010
0100
0010
0001
0100
0010
1000
,
0001
1000
0100
1000
0010
1000
0001
0010
0100
1000
0001
1000
0010
0100
0001
1000
,
0010
0100
0010
0100
0001
1000
0010
0100
0001
1000
0001
1000
0010
0100
0001
1000
,
0100
0010
0100
0010
0001
1000
0100
0010
0001
1000
0001
1000
0010
0100
0001
1000
,
0010
0100
0010
0100
0001
1000
0100
0010
0001
1000
0001
1000
0010
0100
0001
1000
,
0100
0010
0100
0010
0001
1000
0010
0100
0001
1000
0001
1000
0010
0100
0001
1000
,
0010
0100
0001
1000
0001
0010
0100
0010
0001
1000
0100
1000
0010
0100
0010
0100
,
0001
1000
0001
0010
0100
1000
0001
1000
0010
0100
0001
1000
0010
1000
0001
0010
,
0001
1000
0100
0010
0100
1000
0001
0010
0001
0100
0010
1000
0100
0010
0001
1000
,
0001
0100
0010
1000
0001
0000
2000
0000
0000
0000
0000
0000
0000
0000
0000
0000
,
3000
0000
0000
0000
;
