#TITLE:Our Xenopittan;
#SUBTITLE:;
#ARTIST:Xenosaga Freaks;
#TITLETRANSLIT:;
#SUBTITLETRANSLIT:;
#ARTISTTRANSLIT:;
#CREDIT:;
#BANNER:../Zeppelin_bn.png;
#BACKGROUND:../bg_Zeppelin.png;
#LYRICSPATH:;
#CDTITLE:../cdtitle_ZAiA.png;
#MUSIC:Xenosaga Freaks - Our Xenopittan.ogg;
#OFFSET:-0.140;
#SAMPLESTART:66.529;
#SAMPLELENGTH:22.680;
#SELECTABLE:YES;
#BPMS:0.000=170.000;
#STOPS:;
#BGCHANGES:;
// cache tags:
#FIRSTBEAT:0.000;
#LASTBEAT:366.500;
#SONGFILENAME:Songs/Cirque du Zeppelin/Our Xenopittan - [Zaia]/Our Xenopittan.sm;
#HASMUSIC:1;
#HASBANNER:1;
#MUSICLENGTH:134.452;
// end cache tags

//---------------dance-single - ----------------
#NOTES:
     dance-single:
     :
     Hard:
     11:
     1.000,1.000,0.156,1.000,0.424,759.000,21.000,182.000,0.000,0.000:
0002
0003
1000
2000
3020
0030
0100
0002
,
0003
0020
0030
0002
0203
0300
0000
0000
,
0020
0030
0020
0030
2000
3002
0003
0020
,
0130
0000
1000
0000
0010
0000
0100
0000
0001
0000
0010
0001
1000
0000
0010
0100
,
0002
0023
0032
0203
0320
2030
3200
2300
,
3020
0230
0302
0023
0032
2003
3020
2030
,
3200
0320
0230
2300
3002
0203
0320
2030
,
3002
0010
0010
1000
0100
1000
1000
0010
,
1003
0000
0100
0000
0010
0000
0001
1000
0010
0000
0100
0000
0001
0000
1000
0000
,
0100
0000
0010
0000
0100
0000
1000
0010
0100
0000
0001
0000
1000
0000
0000
0010
,
0100
0000
0001
0000
1000
0000
0000
0100
0010
0000
0001
0000
1000
0000
0001
0000
,
0100
0000
0001
0000
0010
0000
0100
1000
0001
0000
0010
0000
0001
0000
0000
0100
,
0010
0000
1000
0000
0001
0000
0000
0010
0001
0000
1000
0000
0010
0000
0100
0000
,
0001
0000
0010
0000
0001
0000
1000
0010
0100
0000
0010
0000
1000
0000
0000
0100
,
1000
0000
0001
0000
0100
0000
0000
0010
1000
0000
0001
0000
0010
0000
0100
0000
,
1000
0000
0001
0000
1000
0000
0010
1000
0100
0010
0001
1000
0001
0100
0010
1000
,
0002
0003
0010
0000
0001
0000
0200
0300
0020
0030
1000
0000
0002
0003
2000
3000
,
0100
0000
0020
0030
0100
0000
2000
3000
0020
0030
0100
0000
0001
0000
1000
0000
,
0002
0003
0010
0000
0002
0003
0100
0000
0020
0030
2000
3000
0001
0000
2000
3000
,
0100
0000
1000
0000
0010
0000
0100
0000
0001
0000
1000
0000
0001
0000
0010
0100
,
2000
3000
0010
0000
1000
0000
0200
0300
0020
0030
0001
0000
1000
0000
0002
0003
,
0100
0000
0020
0030
0100
0000
0002
0003
0020
0030
0100
0000
1000
0000
0001
0000
,
2000
3000
0010
0000
2000
3000
0100
0000
0020
0030
0002
0003
1000
0000
0002
0003
,
0100
0010
1000
0001
0010
0100
0010
0100
1000
0001
0100
0010
0100
0001
0010
0001
,
1000
0010
0100
0001
1000
0100
0010
0001
,
1000
0010
0100
0001
0010
0001
1000
0100
,
0010
0010
0001
0001
1000
1000
0010
0100
,
0002
0000
0000
0000
0023
0000
0000
0000
0130
1000
0001
1000
0001
0100
0010
1000
,
0001
0010
0100
1000
0001
0100
0010
1000
,
0100
1000
0001
0010
0001
1000
0010
0100
,
0002
0023
0230
2300
,
3001
0100
0010
1000
0001
0010
0100
0010
0001
0100
0001
1000
0010
1000
0100
1000
,
0001
0100
0101
0001
1000
0100
0100
1000
,
0010
0000
0010
0000
0100
0000
0100
0000
0001
0000
0010
0100
1000
0000
0001
0000
,
1001
0100
1001
0010
1001
1000
0010
0100
,
0000
0000
0001
0000
0000
0000
1000
0000
1100
0000
0000
0000
0011
0000
0001
1000
,
0100
0010
0011
0001
1000
0010
0010
1000
,
0100
0000
0100
0000
0010
0000
0010
0000
0001
0000
0100
0010
1000
0000
0001
0000
,
1001
0010
1001
0100
1001
1000
0100
0010
,
0000
0000
0001
0000
0000
0000
1000
0000
0001
1000
0100
1000
0100
0010
0100
1000
,
0002
0203
0302
0023
0032
2003
3020
2030
,
3200
0320
0230
2300
3002
0203
0302
0023
,
0230
2300
3020
2030
3200
2300
3002
0203
,
0320
0000
2030
0000
3002
0000
0023
0000
0130
1000
0001
0010
0001
1000
0001
0100
,
0020
0030
1000
0002
0023
0030
0100
2000
,
3000
0002
0003
0100
0020
0030
1000
0000
,
0002
0003
0002
0003
0020
0230
0300
2000
,
3004
0000
0000
0000
,
1003
0100
0010
0001
1000
0010
0100
0010
1000
0001
0010
0100
,
1000
0000
0010
0000
0100
0000
0001
0000
1000
0000
0100
0000
0010
0000
0000
0100
0000
0000
1000
0000
0000
0010
0000
0000
,
0100
0001
0010
0001
1000
0010
1000
0100
0010
0001
1000
0100
,
1000
0001
1000
0010
0000
0000
0000
0000
0000
0000
0000
0000
,
0100
0001
0100
0001
1000
0100
1000
0100
,
0010
0001
0010
0001
0100
0001
0100
0001
,
1000
0010
1000
0010
1000
0001
1000
0001
,
0010
0100
0010
0100
1000
1000
1000
0000
,
0001
0000
0100
0000
0010
0000
1000
0001
0010
0000
0100
0000
1000
0000
0001
0000
,
0100
0000
0010
0000
0100
0000
0001
0010
0100
0000
1000
0000
0001
0000
0000
0010
,
0100
0000
1000
0000
0001
0000
0000
0100
0010
0000
1000
0000
0001
0000
1000
0000
,
0100
0000
1000
0000
0010
0000
0100
0001
1000
0000
0010
0000
1000
0000
0000
0100
,
0010
0000
0001
0000
1000
0000
0000
0010
1000
0000
0001
0000
0010
0000
0100
0000
,
1000
0000
0010
0000
1000
0000
0001
0010
0100
0000
0010
0000
0001
0000
0000
0100
,
0001
0000
1000
0000
0100
0000
0000
0010
0001
0000
1000
0000
0010
0000
0100
0000
,
0001
1000
0001
0010
0001
1000
0100
1000
0010
0100
0001
1000
0001
0010
0100
1000
,
0001
0010
0100
1000
0001
0100
0010
1000
,
0001
0010
0100
1000
0010
1000
0001
0100
,
0010
0010
1000
1000
0001
0001
0010
0100
,
2000
0000
0000
0000
3020
0000
0000
0000
0130
0001
1000
0001
1000
0100
0010
0001
,
1000
0010
0100
0001
1000
0100
0010
0001
,
0100
0001
1000
0010
1000
0001
0010
0100
,
2000
3020
0230
0302
,
1003
0100
0010
0001
1000
0010
0100
0010
1000
0100
1000
0001
0010
0001
0100
0001
,
1000
0100
1100
1000
0001
0100
0100
0001
,
0010
0000
0010
0000
0100
0000
0100
0000
1000
0000
0010
0100
0001
0000
1000
0000
,
1001
0100
1001
0010
1001
0001
0010
0100
,
0000
0000
1000
0000
0000
0000
0001
0000
0101
0000
0000
0000
1010
0000
1000
0001
,
0100
0010
1010
1000
0001
0010
0010
0001
,
0100
0000
0100
0000
0010
0000
0010
0000
1000
0000
0100
0010
0001
0000
1000
0000
,
1001
0010
1001
0100
1001
0001
0100
0010
,
0000
0000
1000
0000
0000
0000
0001
0000
1000
0001
0100
0001
0100
0010
0100
0001
,
2000
3200
2300
3020
2030
3002
0023
0032
,
0203
0320
0230
0302
2003
3200
2300
3020
,
0230
0302
0023
0032
0203
0302
2003
3200
,
0320
0000
0032
0000
2003
0000
3020
0000
0130
0001
1000
0010
1000
0100
1000
0001
,
0020
0030
0001
0002
0023
0030
0100
2000
,
3000
0020
0030
2000
3200
0300
0000
0000
,
0020
0030
0020
0030
0002
2003
3000
0020
,
0130
0000
0001
0000
0010
0000
0100
0000
1000
0000
0010
1000
0001
0000
0010
0100
,
2000
3020
2030
3200
0320
0032
0203
0302
,
0023
0230
2300
3020
2030
3002
0023
0032
,
0203
0320
0230
0302
2003
3200
0320
0032
,
0203
0320
0230
0302
2003
3000
0000
0000
;

//---------------dance-single - 9/9----------------
#NOTES:
     dance-single:
     9/9:
     Challenge:
     13:
     1.000,1.000,0.007,1.000,0.900,904.000,1.000,182.000,0.000,0.000:
0002
0003
1000
2000
3020
0030
0100
0002
,
0003
0020
0030
0002
0203
0300
0000
0000
,
0020
0030
0020
0030
2000
3002
0003
0020
,
0130
0000
1000
0000
0010
0000
0100
0000
0001
0000
0010
0001
1000
0000
0010
0100
,
0002
0023
0032
0203
0320
2030
3200
2300
,
3020
0230
0302
0023
0032
2003
3020
2030
,
3200
0320
0230
2300
3002
0203
0320
2030
,
3002
0010
0010
1000
0100
1000
1000
0010
,
1003
0000
0100
0000
0010
0000
0001
1000
0010
0000
0100
0000
0001
0000
1000
0000
,
0100
0000
0010
0000
0100
0000
1000
0010
0100
0000
0001
0000
1000
0000
0000
0010
,
0100
0000
0001
0000
1000
0000
0000
0100
0010
0000
0001
0000
1000
0000
0001
0000
,
0100
0000
0001
0000
0010
0000
0100
1000
0001
0000
0010
0000
0001
0000
0000
0100
,
0010
0000
1000
0000
0001
0000
0000
0010
0001
0000
1000
0000
0010
0000
0100
0000
,
0001
0000
0010
0000
0001
0000
1000
0010
0100
0000
0010
0000
1000
0000
0000
0100
,
1000
0000
0001
0000
0100
0000
0000
0010
1000
0000
0001
0000
0010
0000
0100
0000
,
1000
0000
0001
0000
1000
0000
0010
1000
0100
0010
0001
1000
0001
0100
0010
1000
,
0002
0003
0010
0000
0001
0000
0200
0300
0020
0030
1000
0000
0002
0003
2000
3000
,
0100
0000
0020
0030
0100
0000
2000
3000
0020
0030
0100
0000
0001
0000
1000
0000
,
0002
0003
0010
0000
0002
0003
0100
0000
0020
0030
2000
3000
0001
0000
2000
3000
,
0100
0000
1000
0000
0010
0000
0100
0000
0001
0000
1000
0000
0001
0000
0010
0100
,
2000
3000
0010
0000
1000
0000
0200
0300
0020
0030
0001
0000
1000
0000
0002
0003
,
0100
0000
0020
0030
0100
0000
0002
0003
0020
0030
0100
0000
1000
0000
0001
0000
,
2000
3000
0010
0000
2000
3000
0100
0000
0020
0030
0002
0003
1000
0000
0002
0003
,
0100
0010
1000
0001
0010
0100
0010
0100
1000
0001
0100
0010
0100
0001
0010
0001
,
1000
0010
0100
0001
1000
0100
0010
0001
,
1000
0010
0100
0001
0010
0001
1000
0100
,
0010
0010
0001
0001
1000
1000
0010
0100
,
0002
0000
0000
0000
0023
0000
0000
0000
0130
1000
0001
1000
0001
0100
0010
1000
,
0001
0010
0100
1000
0001
0100
0010
1000
,
0100
1000
0001
0010
0001
1000
0010
0100
,
0002
0023
0230
2300
,
3001
0100
0010
1000
0001
0010
0100
0010
0001
0100
0001
1000
0010
1000
0100
1000
,
0001
0010
0100
1000
0001
1000
0010
1000
0001
0100
0001
1000
0100
0010
0100
1000
,
0001
0100
0001
1000
0010
1000
0001
0010
0100
1000
0001
1000
0010
0100
0010
1000
,
0001
0100
0001
0010
0001
1000
0100
1000
0010
0100
0001
1000
0001
1000
0100
0010
,
0100
1000
0001
0100
0010
1000
0001
1000
0100
0010
0001
1000
0010
0100
0001
1000
,
0100
0010
0100
1000
0001
0100
0001
1000
0010
1000
0001
0010
0100
0010
0001
1000
,
0010
1000
0001
0100
0001
1000
0100
0010
0001
1000
0001
0100
0010
0100
0001
1000
,
0010
1000
0100
1000
0001
0010
0001
0100
0010
1000
0001
1000
0001
0010
0100
0010
,
0001
1000
0010
0100
0001
1000
0001
0010
0001
1000
0100
1000
0100
0010
0100
1000
,
0002
0203
0302
0023
0032
2003
3020
2030
,
3200
0320
0230
2300
3002
0203
0302
0023
,
0230
2300
3020
2030
3200
2300
3002
0203
,
0320
0000
2030
0000
3002
0000
0023
0000
0130
1000
0001
0010
0001
1000
0001
0100
,
0020
0030
1000
0002
0023
0030
0100
2000
,
3000
0002
0003
0100
0020
0030
1000
0000
,
0002
0003
0002
0003
0020
0230
0300
2000
,
3004
0000
0000
0000
,
1003
0010
1000
0001
1000
0100
0010
0100
1000
0010
1000
0001
0100
0000
0010
0000
1000
0000
0001
0000
0010
0000
0100
0000
,
1000
0001
0010
0001
1000
0010
0100
0001
0010
0001
1000
0001
0010
0000
0000
0100
0000
0000
1000
0000
0000
0010
0000
0000
,
0100
0010
1000
0001
1000
0100
0010
0100
1000
0001
0100
0001
1000
0000
0100
0000
0010
0000
0001
0000
1000
0000
0010
0000
,
1000
0100
1000
0010
1000
0001
0100
0000
0000
0000
0000
0000
0000
0000
0000
0000
0000
0000
0000
0000
0000
0000
0000
0000
,
0010
1000
0010
1000
0001
0010
0001
0010
,
0100
1000
0100
1000
0010
1000
0010
1000
,
0001
0100
0001
0100
0001
1000
0001
1000
,
0100
0010
0100
0010
0001
0001
0001
0000
,
1000
0000
0010
0000
0100
0000
0001
1000
0100
0000
0010
0000
0001
0000
1000
0000
,
0010
0000
0100
0000
0010
0000
1000
0100
0010
0000
0001
0000
1000
0000
0000
0100
,
0010
0000
0001
0000
1000
0000
0000
0010
0100
0000
0001
0000
1000
0000
0001
0000
,
0010
0000
0001
0000
0100
0000
0010
1000
0001
0000
0100
0000
0001
0000
0000
0010
,
0100
0000
1000
0000
0001
0000
0000
0100
0001
0000
1000
0000
0100
0000
0010
0000
,
0001
0000
0100
0000
0001
0000
1000
0100
0010
0000
0100
0000
1000
0000
0000
0010
,
1000
0000
0001
0000
0010
0000
0000
0100
1000
0000
0001
0000
0100
0000
0010
0000
,
1000
0001
1000
0100
1000
0001
0010
0001
0100
0010
1000
0001
1000
0100
0010
0001
,
1000
0100
0010
0001
1000
0010
0100
0001
,
1000
0100
0010
0001
0100
0001
1000
0010
,
0100
0100
0001
0001
1000
1000
0100
0010
,
0002
0000
0000
0000
0203
0000
0000
0000
0310
1000
0001
1000
0001
0010
0100
1000
,
0001
0100
0010
1000
0001
0010
0100
1000
,
0010
1000
0001
0100
0001
1000
0100
0010
,
0002
0203
0320
2030
,
3001
0010
0100
1000
0001
0100
0010
0100
0001
0010
0001
1000
0100
1000
0010
1000
,
0001
0100
0010
1000
0001
1000
0100
1000
0001
0010
0001
1000
0010
0100
0010
1000
,
0001
0010
0001
1000
0100
1000
0001
0100
0010
1000
0001
1000
0100
0010
0100
1000
,
0001
0010
0001
0100
0001
1000
0010
1000
0100
0010
0001
1000
0001
1000
0010
0100
,
0010
1000
0001
0010
0100
1000
0001
1000
0010
0100
0001
1000
0100
0010
0001
1000
,
0010
0100
0010
1000
0001
0010
0001
1000
0100
1000
0001
0100
0010
0100
0001
1000
,
0100
1000
0001
0010
0001
1000
0010
0100
0001
1000
0001
0010
0100
0010
0001
1000
,
0100
1000
0010
1000
0001
0100
0001
0010
0100
1000
0001
1000
0001
0100
0010
0100
,
0001
1000
0100
0010
0001
1000
0001
0100
0001
1000
0010
1000
0010
0100
0010
1000
,
0002
0023
0032
0203
0302
2003
3200
2300
,
3020
0230
0320
2030
3002
0023
0032
0203
,
0320
2030
3200
2300
3020
2030
3002
0023
,
0230
0000
2300
0000
3002
0000
0203
0000
0310
1000
0001
0100
0001
0010
0001
1000
,
0200
0300
1000
2000
3200
0300
0010
0002
,
0003
0200
0300
0002
0023
0030
0000
0000
,
0200
0300
0200
0300
2000
3002
0003
0200
,
0310
0000
1000
0000
0100
0000
0010
0000
0001
0000
0100
0001
1000
0000
0100
0010
,
0002
0203
0302
0023
0230
2300
3020
2030
,
3200
0320
0032
0203
0302
2003
3200
2300
,
3020
0230
0320
2030
3002
0023
0230
2300
,
3020
0230
0320
2030
3002
0003
0000
0000
;

//---------------dance-single - ----------------
#NOTES:
     dance-single:
     :
     Medium:
     9:
     0.952,1.000,0.156,1.000,0.160,681.000,21.000,192.000,0.000,0.000:
0002
0003
1000
2000
3020
0030
0100
0002
,
0003
0020
0030
0002
0203
0300
0000
0000
,
0020
0030
0020
0030
2000
3002
0003
0020
,
0130
0000
1000
0000
0010
0000
0100
0000
0001
0000
0010
0001
1000
0000
0010
0100
,
0002
0023
0032
0203
0320
2030
3200
2300
,
3020
0230
0302
0023
0032
2003
3020
2030
,
3200
0320
0230
2300
3002
0203
0320
2030
,
3001
1000
1000
0010
0100
0001
0001
1000
,
0001
0000
0010
0000
0100
0000
1000
0001
0100
0000
0010
0000
1000
0000
0001
0000
,
0010
0000
0100
0000
0010
0000
0001
0100
0010
0000
1000
0000
0001
0000
0200
0300
,
0010
0000
1000
0000
0001
0000
0020
0030
0100
0000
1000
0000
0001
0000
1000
0000
,
0010
0000
1000
0000
0100
0000
0010
0001
1000
0000
0100
0000
1000
0000
0020
0030
,
0100
0000
0001
0000
1000
0000
0200
0300
1000
0000
0001
0000
0100
0000
0010
0000
,
1000
0000
0100
0000
1000
0000
0001
0100
0010
0000
0100
0000
0001
0000
0020
0030
,
0001
0000
1000
0000
0010
0000
0200
0300
0001
0000
1000
0000
0100
0000
0010
0000
,
0001
1000
0001
0100
0001
0010
0100
1000
,
0002
0003
0010
0000
0001
0000
0200
0300
0020
0030
1000
0000
0002
0003
2000
3000
,
0100
0000
0020
0030
0100
0000
2000
3000
0020
0030
0100
0000
0001
0000
1000
0000
,
0002
0003
0010
0000
0002
0003
0100
0000
0020
0030
2000
3000
0001
0000
2000
3000
,
0100
0000
1000
0000
0010
0000
0100
0000
0001
0000
1000
0000
0001
0000
0010
0100
,
2000
3000
0010
0000
1000
0000
0200
0300
0020
0030
0001
0000
1000
0000
0002
0003
,
0100
0000
0020
0030
0100
0000
0002
0003
0020
0030
0100
0000
1000
0000
0001
0000
,
2000
3000
0010
0000
2000
3000
0100
0000
0020
0030
0002
0003
1000
0000
0002
0003
,
0100
0010
1000
0001
0010
0100
1000
0001
,
1000
0010
0100
0001
1000
0100
0010
0001
,
1000
0010
0100
0001
0010
0001
1000
0100
,
0010
0010
0001
0001
1000
1000
0010
0100
,
0002
0000
0000
0000
0023
0000
0000
0000
0130
1000
0001
0010
0100
1000
0001
1000
,
0001
0010
0100
1000
0001
0100
0010
1000
,
0100
1000
0001
0010
0001
1000
0010
0100
,
0002
0023
0230
2300
,
3001
0100
0001
0010
0001
1000
0100
1000
,
0001
0100
0101
0001
1000
0100
0100
1000
,
0010
0000
0010
0000
0100
0000
0100
0000
0001
0000
0010
0100
1000
0000
0001
0000
,
1000
1001
0000
1001
0001
1000
0010
0100
,
0000
0000
0001
0000
0000
0000
1000
0000
1100
0000
0000
0000
0011
0000
0001
1000
,
0100
0010
0011
0001
1000
0010
0010
1000
,
0100
0000
0100
0000
0010
0000
0010
0000
0001
0000
0100
0010
1000
0000
0001
0000
,
0010
1001
0000
1001
0001
1000
0100
0010
,
0000
0000
0001
0000
0000
0000
1000
0000
0001
1000
0010
0100
0001
1000
0010
0100
,
0002
0203
0302
0023
0032
2003
3020
2030
,
3200
0320
0230
2300
3002
0203
0302
0023
,
0230
2300
3020
2030
3200
2300
3002
0203
,
0320
2030
3002
0023
0430
0000
0000
0000
,
0320
0030
0001
2000
3200
0300
0010
0002
,
0003
2000
3000
0010
0200
0300
0001
0000
,
2000
3000
2000
3000
0200
0320
0030
0002
,
4003
0000
0000
0000
,
3004
0000
0000
0000
0000
0000
0013
0100
1000
0001
0100
0010
,
4000
0000
0000
0000
3100
0010
0001
1000
,
0040
0000
0000
0000
0000
0000
1030
0100
0010
0001
0100
0001
,
4000
3000
0000
0000
,
0010
1000
0010
1000
0001
0010
0001
0010
,
0100
1000
0100
1000
0010
1000
0010
1000
,
0001
0100
0001
0100
0001
1000
0001
1000
,
0100
0010
0100
0010
0001
0001
0001
0000
,
1000
0000
0100
0000
0010
0000
0001
1000
0010
0000
0100
0000
0001
0000
1000
0000
,
0100
0000
0010
0000
0100
0000
1000
0010
0100
0000
0001
0000
1000
0000
0020
0030
,
0100
0000
0001
0000
1000
0000
0200
0300
0010
0000
0001
0000
1000
0000
0001
0000
,
0100
0000
0001
0000
0010
0000
0100
1000
0001
0000
0010
0000
0001
0000
0200
0300
,
0010
0000
1000
0000
0001
0000
0020
0030
0001
0000
1000
0000
0010
0000
0100
0000
,
0001
0000
0010
0000
0001
0000
1000
0010
0100
0000
0010
0000
1000
0000
0200
0300
,
1000
0000
0001
0000
0100
0000
0020
0030
1000
0000
0001
0000
0010
0000
0100
0000
,
1000
0001
1000
0010
1000
0100
0010
0001
,
1000
0010
0100
0001
1000
0100
0010
0001
,
1000
0010
0100
0001
0010
0001
1000
0100
,
0010
0010
0001
0001
1000
1000
0010
0100
,
0002
0000
0000
0000
0023
0000
0000
0000
0130
1000
0001
0010
0100
1000
0001
1000
,
0001
0010
0100
1000
0001
0100
0010
1000
,
0100
1000
0001
0010
0001
1000
0010
0100
,
0002
0023
0230
2300
,
3001
0100
0001
0010
0001
1000
0100
1000
,
0001
0100
0101
0001
1000
0100
0100
1000
,
0010
0000
0010
0000
0100
0000
0100
0000
0001
0000
0010
0100
1000
0000
0001
0000
,
1000
1001
0000
1001
0001
1000
0010
0100
,
0000
0000
0001
0000
0000
0000
1000
0000
1100
0000
0000
0000
0011
0000
0001
1000
,
0100
0010
0011
0001
1000
0010
0010
1000
,
0100
0000
0100
0000
0010
0000
0010
0000
0001
0000
0100
0010
1000
0000
0001
0000
,
0010
1001
0000
1001
0001
1000
0100
0010
,
0000
0000
0001
0000
0000
0000
1000
0000
0001
1000
0010
0100
0001
1000
0010
0100
,
0002
0203
0302
0023
0032
2003
3020
2030
,
3200
0320
0230
2300
3002
0203
0302
0023
,
0230
2300
3020
2030
3200
2300
3002
0203
,
0320
2030
3002
0023
0430
0000
0000
0000
,
0320
0030
0001
2000
3200
0300
0010
0002
,
0003
2000
3000
0010
0200
0300
0001
0000
,
2000
3000
2000
3000
0200
0320
0030
0002
,
0013
0000
0001
0000
0100
0000
0010
0000
1000
0000
0100
1000
0001
0000
0100
0010
,
2000
3200
2300
3020
0230
0302
0023
0032
,
0203
0320
2030
3200
2300
3002
0203
0302
,
0023
0230
0320
0032
2003
3020
0230
0302
,
0023
0230
0320
0032
2003
3000
0000
0000
;
