#TITLE:Arcane Apparatus From Beyond;
#SUBTITLE:;
#ARTIST:Metea11;
#TITLETRANSLIT:;
#SUBTITLETRANSLIT:;
#ARTISTTRANSLIT:;
#CREDIT:Arvin;
#BANNER:../Tachyon Gamma-bn.png;
#BACKGROUND:../Tachyon Gamma-bg.png;
#LYRICSPATH:;
#CDTITLE:;
#MUSIC:Arcane Apparatus From Beyond.ogg;
#OFFSET:0.061;
#SAMPLESTART:23.650;
#SAMPLELENGTH:15.000;
#SELECTABLE:YES;
#DISPLAYBPM:161.995;
#BPMS:0.000=161.995;
#STOPS:;
#BGCHANGES:;
// cache tags:
#FIRSTBEAT:16.000;
#LASTBEAT:482.000;
#SONGFILENAME:Songs/Tachyon Gamma/Arcane Apparatus From Beyond - [Arvin]/Arcane Apparatus From Beyond.sm;
#HASMUSIC:1;
#HASBANNER:1;
#MUSICLENGTH:183.731;
// end cache tags

//---------------dance-single - Arvin----------------
#NOTES:
     dance-single:
     Arvin:
     Challenge:
     17:
     1.000,1.000,0.000,0.256,1.000,1544.000,0.000,47.000,0.000,0.000:

0000
0000
0000
0000
,
0000
0000
0000
0000
,
0000
0000
0000
0000
,
0000
0000
0000
0000
,
1000
0010
0100
0000
0001
0000
0100
0000
0010
0000
1000
0000
0100
0000
0010
0000
,
0001
0100
0001
1000
0100
1000
0001
0001
,
0100
0010
1000
1000
0010
0100
0001
0001
,
0100
0000
0010
0000
1000
0000
1000
0000
0010
0000
0100
0000
0001
0010
0100
0000
,
1000
0100
0010
0000
0001
0000
0010
0000
0100
0000
1000
0000
0010
0000
0100
0000
,
0001
0010
0001
1000
0010
1000
0001
0001
,
0010
0100
1000
1000
0100
0010
0001
0001
,
0010
0000
0100
0000
1000
0000
1000
0000
0100
0000
0010
0000
0001
1000
0010
0000
,
0100
0001
0100
0001
0100
0010
0100
0001
,
1000
0010
1000
0010
0100
0001
0100
0010
,
1000
0100
0100
0001
1000
0010
0010
0001
1000
0100
0100
0001
1000
0010
0010
0001
,
1000
0100
1000
0100
0010
0100
0010
0001
,
2000
0000
3020
0000
,
0230
0000
0000
0000
0000
0000
0301
0010
0100
1000
0001
1000
0001
0000
0000
0100
0000
0000
0001
0000
0000
1000
0000
0000
,
0001
0010
0100
0010
0100
1000
0001
0010
0100
1000
0100
0010
0001
1000
0010
0100
0010
0100
0001
1000
0010
0100
0001
0100
,
0010
1000
0001
1000
0001
0010
0100
1000
0001
1000
0001
0100
0010
1000
0001
1000
0001
0100
0010
1000
0010
0100
0001
1000
,
0001
0010
0100
1000
0001
0010
0100
1000
0001
0010
0100
1000
0001
0010
0100
1000
,
0001
0100
0010
1000
0001
0100
0010
1000
0001
1000
0100
0010
0001
1000
0100
0010
,
0001
1000
0010
0100
0001
1000
0010
0100
0001
1000
0010
0100
0001
1000
0010
0100
,
0001
0010
0100
1000
0001
0010
0001
1000
0100
1000
0001
0010
0100
1000
0001
0100
0001
1000
0010
1000
0001
0100
0010
1000
,
0001
0100
0010
1000
0010
0100
0001
1000
0100
0010
0001
0010
0100
1000
0100
0010
,
0001
1000
0010
0100
0001
0010
0100
1000
0010
0100
0001
1000
0100
0000
1000
0000
,
0002
0000
1003
0010
0100
0001
0100
0010
,
1000
0000
0100
0000
0010
0000
0001
0000
0100
0000
0001
0000
1000
0010
0100
0001
,
1000
0100
0010
0001
1000
0100
0010
0001
0100
0001
1000
0100
0010
0001
1000
0010
,
1000
0001
0010
0100
1000
0001
0100
0001
1000
0010
1000
0001
0010
0001
1000
0100
1000
0001
0010
0100
1000
0001
1000
0001
,
0010
0100
0010
0001
1000
0100
0010
0100
0010
0001
1000
0001
0100
0010
1000
0010
0100
0001
1000
0010
0100
0010
0100
0001
,
1000
0010
0100
0001
0100
0010
2000
0000
,
3001
0010
0010
0001
0010
0010
0001
1000
,
0100
0010
0010
0100
0010
0010
0100
1000
,
0001
0100
0100
0001
0100
0001
1000
0100
,
0010
0000
0000
0001
0000
0000
0010
0000
0000
0100
0000
0000
1000
0000
0010
0000
0100
0000
0001
0000
0010
0000
0100
0000
,
1000
0010
0100
0010
1000
0010
0100
0001
1000
0100
0010
0001
0010
0100
0010
0001
,
1000
0010
0100
0001
0100
0010
0100
0001
1000
0100
0010
0100
1000
0100
0010
0001
,
0100
0010
1000
0010
0100
0001
0010
0100
2000
0000
0000
0000
3001
0000
0010
0000
,
0001
0100
0010
0100
0001
1000
0200
0000
,
2300
0000
3020
0000
0130
0001
1000
0100
,
1000
0000
0100
0000
0010
0000
0001
0000
1000
0000
0001
0000
1000
0000
0000
0010
0000
0000
0100
0000
0000
0010
0000
0000
2000
0000
0000
0000
0000
0000
0000
0000
0000
0000
0000
0000
3001
0000
0000
0000
0000
0000
0010
0000
0000
0000
0000
0000
,
0200
0000
1300
0001
0020
0000
0230
0000
,
0320
0000
0000
0000
0000
0000
0031
1000
0100
0010
0001
0010
0100
1000
0001
1000
0001
0010
0100
1000
0001
0010
0001
1000
,
0010
1000
0001
0100
0001
1000
0010
0100
0001
0100
0010
1000
0001
1000
0001
0100
0010
1000
0001
0100
0001
1000
0100
1000
,
0001
0010
0100
1000
0100
0010
0001
0010
0100
1000
0001
1000
0001
0010
0100
1000
0100
0010
0001
1000
0100
1000
0001
0100
,
0001
1000
0010
0100
0001
1000
0010
0100
0001
1000
0001
1000
0010
0100
0001
1000
0010
1000
0001
0100
0001
1000
0100
1000
,
0001
0010
0100
1000
0001
1000
0001
0010
0100
1000
0001
0010
0001
1000
0100
1000
0001
0010
0100
1000
0100
0010
0001
1000
,
0010
0100
0001
1000
0010
0100
0001
0100
0010
1000
0010
0100
0001
1000
0010
1000
0001
0100
0001
1000
0100
1000
0001
0010
,
0100
1000
0100
0010
0001
1000
0100
1000
0001
0010
0001
1000
0100
0010
0001
1000
0001
1000
0100
0010
0001
1000
0100
1000
,
0001
0100
0010
1000
0001
1000
0010
0100
0001
0100
0010
1000
0001
0100
0001
1000
0010
1000
0001
1000
0100
1000
0001
0010
,
0100
1000
0100
0010
0001
1000
0100
0010
0001
0010
0100
1000
0001
1000
0001
0010
0100
1000
0100
0010
0001
1000
0001
1000
,
0010
0100
0001
2000
0000
0000
3002
0000
0000
0000
0000
0000
2003
0000
0000
0000
0000
0000
3100
0000
0000
0010
0000
0000
,
0002
0000
1003
0010
1000
0001
0100
0010
,
2000
0000
0000
0000
3100
0010
0001
1000
0100
0010
0000
0100
0010
0001
1000
0000
,
0001
0100
0010
0000
1000
0010
0100
0001
0010
0100
0010
0000
0001
0000
1000
0000
,
0010
0100
0001
1000
0010
0100
0010
1000
,
0001
0010
0100
1000
0001
0010
0100
1000
0001
0010
0100
0010
0001
0010
0100
1000
,
0001
0000
1000
0000
0001
0100
0010
1000
0010
0100
0001
1000
0001
0100
0010
1000
,
0001
0010
0100
1000
0010
1000
0001
0010
0100
1000
0001
0100
0001
0010
0100
1000
,
0001
1000
0100
0010
0100
1000
0010
1000
,
0001
0000
0100
0000
0001
0100
0100
1000
0001
0010
0010
1000
0001
0100
0100
1000
,
0001
0000
0000
0010
0000
0000
0010
0000
0000
1000
0000
0000
0001
0000
0000
0100
0000
0000
0100
0000
0000
1000
0000
0000
0001
0000
0100
0000
0010
0000
1000
0000
0001
0000
0100
0000
0001
0000
1000
0000
0010
0000
0100
0000
0001
0000
1000
0000
,
0001
0010
0100
1000
0001
1000
0001
0100
0010
1000
0010
0100
0001
1000
0001
1000
0100
0010
0001
0010
0100
1000
0001
1000
,
0001
0100
0010
1000
0001
0100
0010
1000
0100
1000
0001
0100
0010
1000
0001
0010
,
0100
1000
0100
0010
0002
0000
2003
0000
,
3001
0100
0010
1000
0200
0000
0320
0000
,
0031
0010
0100
1000
0100
0010
0001
1000
0001
1000
0100
0010
0001
0010
0100
1000
0001
1000
0001
0100
0010
1000
0010
0100
,
0002
2003
3002
0203
,
0320
2030
3020
0230
,
0302
0000
0000
0000
1003
0100
0010
0001
0010
0100
0010
0001
1000
0100
0010
0001
,
1000
0100
1000
0001
0100
0001
1000
0010
1000
0001
0010
0001
1000
0010
0100
0001
,
1000
0000
0000
1000
0000
0000
0010
0000
0100
0000
0000
0001
0000
0000
0100
0000
,
0010
0000
0000
0010
0000
0000
1000
0000
0001
0000
0000
0010
0000
0000
0001
0000
,
1000
0000
0000
1000
0000
0000
0001
0000
0100
0000
0000
0010
0000
0000
1000
0000
,
0001
0000
0000
0001
0000
0000
0010
0000
0100
0000
0000
1000
0000
0000
0001
0000
,
0100
0000
0001
0100
0000
0001
0100
0000
0010
0000
0010
1000
0000
1000
0001
0000
,
1000
0000
0100
1000
0000
0100
1000
0000
0001
0000
0001
0100
0000
0100
0010
0000
,
1000
0000
0001
1000
0000
0001
1000
0000
0010
0000
0010
0100
0000
0100
0001
0000
,
1000
0000
0010
1000
0000
0010
1000
0000
0001
0000
0001
0010
0000
0010
0100
0000
,
0010
0000
0001
0010
0000
0001
0010
0000
0100
0000
0100
1000
0000
1000
0001
0000
,
1000
0000
0010
1000
0000
0010
1000
0000
0001
0000
0001
0010
0000
0010
0100
0000
,
1000
0000
0001
1000
0000
0001
1000
0000
0100
0000
0100
0010
0000
0010
0001
0000
,
1000
0000
0100
1000
0000
0100
1000
0000
0001
0000
0200
0000
0000
0000
0000
0000
,
0310
0000
1000
0000
0001
0100
0100
1000
0001
0010
0010
1000
0001
0100
0100
1000
,
0001
0000
0010
0000
0001
0100
0100
1000
0100
0010
0010
1000
0001
0100
0100
1000
,
0001
0000
0100
0000
0001
0100
0100
0010
0001
0010
0010
1000
0001
0100
0100
1000
,
0001
0000
0100
0000
0001
0010
0010
1000
0001
0100
0100
1000
0001
0010
0010
1000
,
0001
0000
0010
0000
0001
0100
0100
1000
0100
0010
0010
1000
0010
0100
0100
1000
,
0001
0000
0010
0000
0001
0100
0100
0010
0001
0010
0010
0100
0001
0100
0100
0010
,
0001
0000
1000
0000
0001
0010
0010
1000
0010
0100
0100
1000
0100
0010
0010
1000
,
0001
0000
1000
0000
0001
0010
0010
0100
0001
0100
0100
0010
0002
0000
0000
0000
,
1003
0100
0010
0100
1000
0100
0010
0001
0100
0001
1000
0100
0010
0100
1000
0001
,
0100
0001
0010
0100
1000
0000
0001
0000
1000
0000
0100
0000
0010
0000
0001
0000
,
1000
0100
0010
0001
1000
0010
2000
0000
,
3002
0000
0023
0000
0130
1000
0100
0010
,
0001
0100
0010
1000
0010
0100
0001
1000
0010
1000
0001
0010
0001
1000
0100
0010
0001
1000
0001
1000
0100
0010
0100
1000
,
0001
0010
0001
1000
0010
0100
0001
1000
0010
1000
0001
0100
0001
1000
0010
0100
0001
1000
0100
1000
0001
0010
0100
1000
,
0001
0100
0001
0100
0010
0000
1000
0100
1000
0100
0010
0000
0001
1000
0001
1000
,
0020
0230
0302
2003
,
3001
0010
0001
0010
0100
1000
0100
0010
,
0001
0000
1000
0000
0001
0000
1000
0000
0001
0100
0010
1000
0010
0100
0001
1000
,
0001
0010
0100
1000
0001
0100
0010
1000
0001
0010
0100
1000
0001
0100
0010
1000
,
0001
1000
0001
1000
0100
0010
0001
1000
0001
1000
0100
0010
0001
1000
0010
1000
0001
0100
0010
0100
0001
1000
0100
0010
,
0001
0010
0100
1000
0001
0010
0100
1000
0100
0010
0001
1000
0001
0100
0010
0100
0001
1000
0010
0100
0001
0100
0010
1000
,
0001
1000
0001
0010
0100
1000
0001
0000
0000
0100
0000
0000
0001
0000
0000
0100
0000
0000
0010
0000
0000
0100
0000
0000
,
0001
1000
0100
0010
0001
0010
0100
1000
,
0001
0100
0010
0100
0001
0100
0010
0100
,
0001
1000
0001
1000
0100
0010
0001
1000
0001
1000
0100
0010
0001
1000
0001
1000
0010
0100
0001
1000
0001
1000
0010
0100
,
0001
1000
0001
1000
0100
0010
0001
0010
0100
1000
0001
0010
0100
1000
0100
0010
0001
1000
0100
1000
0001
0010
0001
1000
,
0010
0100
0001
1000
0010
1000
0001
0100
0010
1000
0010
0100
0001
1000
0001
1000
0100
0010
0001
1000
0100
1000
0001
0010
,
0001
1000
0100
0010
0001
1000
0001
0100
0001
1000
0010
0100
0001
0100
0010
1000
0001
1000
0002
0000
0000
0000
0000
0000
,
1003
0100
0010
0001
1000
0100
1000
0001
0100
0001
1000
0010
0100
0001
1000
0010
1000
0001
0010
0001
1000
0100
0010
0001
,
1000
0100
1000
0001
0100
0001
1000
0010
0100
0001
0100
0010
1000
0001
0100
0001
1000
0100
1000
0001
0010
0100
1000
0100
,
0010
0001
1000
0100
1000
0001
0100
0001
1000
0010
0100
0001
0100
0010
1000
0001
1000
0001
0010
0100
1000
0001
1000
0001
,
0100
0010
1000
0001
0100
0010
1000
0001
1000
0001
0010
0100
1000
0100
0010
0001
1000
0001
1000
0100
0010
0001
1000
0001
,
4000
0000
0000
0000
0000
0000
0000
3000
0004
0000
0000
0000
0000
0000
0000
0003
4000
0000
0000
0000
0000
0000
0000
3000
0004
0000
0000
0000
0000
0000
0000
0003
,
0400
0000
0000
0000
0000
0000
0000
0300
0040
0000
0000
0000
0000
0000
0000
0030
0400
0000
0000
0000
0000
0000
0000
0300
0040
0000
0000
0000
0000
0000
0000
0030
,
4000
0000
0000
0000
0000
0000
0000
3000
0004
0000
0000
0000
0000
0000
0000
0003
4000
0000
0000
0000
0000
0000
0000
3000
0004
0000
0000
0000
0000
0000
0000
0003
,
0200
0320
2030
3002
,
0023
0000
0030
0000
;
