#TITLE:Please Don't Go;
#SUBTITLE:;
#ARTIST:ASLETICS;
#TITLETRANSLIT:;
#SUBTITLETRANSLIT:;
#ARTISTTRANSLIT:;
#CREDIT:;
#BANNER:please don't go.png;
#BACKGROUND:please don't go-bg.png;
#LYRICSPATH:;
#CDTITLE:!csta.png;
#MUSIC:please don't go.mp3;
#OFFSET:-2.177;
#SAMPLESTART:15.000;
#SAMPLELENGTH:12.000;
#SELECTABLE:YES;
#BPMS:0.000=135.000;
#STOPS:;
#BGCHANGES:;
// cache tags:
#FIRSTBEAT:0.500;
#LASTBEAT:259.750;
#SONGFILENAME:Songs/Community Keyboard Megapack - Volume 1/(CStarFlare) Please Don't Go/please don't go.sm;
#HASMUSIC:1;
#HASBANNER:1;
#MUSICLENGTH:121.626;
// end cache tags

//---------------dance-single - ----------------
#NOTES:
     dance-single:
     :
     Hard:
     10:
     1.000,1.000,1.000,0.000,1.000,733.000,184.000,0.000,0.000,0.000:
0000
0000
0100
0000
0000
0100
0000
0000
0100
0100
0000
0100
0000
0100
0000
1100
,
0001
0000
0100
1000
0100
0000
1000
0100
1000
0000
0100
1000
0100
0000
1000
0100
,
1000
0000
0100
1000
0100
0000
1001
0100
1000
0000
0100
1000
0100
0000
1000
0110
,
1000
0000
0100
1000
0100
0000
1000
0100
1000
0000
0100
1000
0100
0000
1000
0100
,
1000
0000
1000
1000
0000
1000
0001
1000
0000
1000
0000
1000
1000
0000
1010
0001
,
0110
0000
0001
0010
0001
0000
0010
0001
0010
0000
0001
0010
0001
0000
0010
0001
,
0010
0000
0001
0010
0001
0000
0110
0001
0010
0000
0001
0010
0001
0000
0010
0001
,
1010
0000
0001
0010
0001
0000
0010
0001
0010
0000
0001
0010
0001
0000
0010
0001
,
0010
0000
0010
0000
0010
0010
1000
0010
0000
0010
0000
0010
0010
0000
0010
0000
,
1100
0100
0000
0100
0010
0000
0010
0001
0000
0001
0010
0000
0010
0000
0100
0000
,
1000
0000
0100
0000
0010
0001
0010
0100
0000
1000
0000
0100
0010
0000
0001
0000
,
0110
0000
0100
0000
1000
0100
0000
0100
0000
0010
0000
1000
0100
0000
0010
0001
,
0000
0010
0000
0100
1000
0000
0101
0000
1100
1000
0010
1000
0001
1000
0000
1000
,
0100
0010
0000
0010
0001
0000
0001
0010
0000
0010
0100
0000
1000
0000
0100
0000
,
0010
0000
0100
0000
1000
0010
0001
0010
0000
0001
0000
0010
0100
0000
1000
0000
,
0110
0000
0001
0000
0010
1000
0000
1000
0000
0100
0000
0010
0100
0000
0001
0000
,
1010
0000
0000
1000
1010
0000
0000
1100
1010
0000
1100
0000
1010
0000
1001
0000
,
1000
0100
0010
0001
0100
0010
0000
0100
0000
1000
0000
0100
1000
0000
1000
0000
,
1010
0101
0110
1001
1100
0110
0011
1001
,
0001
0010
0100
1000
0010
0100
0000
0010
0000
1000
0000
0010
0100
0000
0001
0000
,
1000
0010
0000
0100
0001
0000
0010
0001
0000
0001
0010
0000
1100
0010
0101
0100
,
1000
0100
0010
0001
0100
1000
0000
0001
0000
0010
0000
0100
1000
0000
0100
0000
,
0110
1100
0110
0011
0110
1100
0101
1010
,
1001
0100
0010
1000
0100
0001
0000
0100
0000
1000
0000
0100
0010
0000
0100
0000
,
1000
0100
0000
0100
0010
0000
0010
0001
1000
1100
1010
1000
1100
1010
1001
1010
,
1000
0100
0010
0100
1000
0001
0000
0010
0000
0100
0000
1000
0100
0000
0100
0000
,
0010
0110
1100
1001
0110
0011
0110
1100
,
1010
0100
0010
0000
1000
0100
0000
0010
0000
0100
0000
0010
0100
0000
1000
0000
,
1100
0010
0000
0110
0001
0000
0011
0100
0000
0110
1000
0000
1010
1010
1010
1010
,
1001
0000
0001
0001
0000
0000
0001
0000
0001
0000
0000
0000
0001
0000
0011
0101
,
1000
0001
0000
0001
0000
0001
0000
0001
0000
0001
0001
0000
0000
0001
0010
0101
,
0001
1000
0001
0001
0000
0000
1001
0100
0001
0010
0000
0100
0001
0000
0001
0001
,
0000
0001
0100
0011
0000
1001
0000
0101
1000
0101
1001
0100
1000
0101
1000
0101
,
0001
0000
1001
0101
0000
0010
0001
0100
0001
0010
0000
0100
1001
0000
0101
0001
,
0100
0001
0010
0001
0100
0001
0000
0001
0000
0001
0001
0000
0000
0001
0010
1001
,
0011
0000
1001
0001
1000
0000
1001
0000
0001
0000
0010
0100
0011
0000
0101
0011
,
0100
0001
0000
0101
1000
0011
0000
0001
0100
0001
0001
0000
1100
0001
0110
0001
,
0001
0000
1001
1001
1000
1000
1001
0000
0001
0000
0010
0100
0011
0000
0011
0101
,
1000
0001
0100
1001
0010
0001
1000
0011
0100
0001
1001
0000
1000
0001
0000
0001
,
0001
0000
0001
0001
0000
0000
0001
0000
0001
0000
1000
0010
1001
0000
1001
0001
,
1000
0001
0100
0011
0100
0001
1000
0001
1000
0101
1001
0000
0100
0001
1100
0101
,
1010
0000
0100
1000
0110
0001
1000
0100
1100
0000
0100
1010
0100
0001
1000
0110
,
1010
0000
0010
0100
0011
0100
1000
0100
0010
0000
0110
0001
0100
0010
0110
1000
,
0101
0000
0100
0010
1100
0010
0001
0010
0100
0000
0110
1000
0010
0100
0110
0001
,
1010
0000
0100
0010
1100
0001
0010
0100
1010
0010
0001
0110
1100
0010
0101
1000
,
0101
0000
0001
1000
0101
1000
0010
1000
0001
0000
1001
0100
1000
0001
1001
0010
,
1010
0000
0010
0100
0011
0100
1000
0100
0010
0000
0110
0001
0100
0010
0110
1000
,
0101
0000
0100
0010
1100
0010
0001
0010
0100
0000
0110
1000
0010
0100
0110
0001
,
1010
0000
0001
0001
1100
0000
0110
0000
1100
0010
0001
1000
0110
0001
1100
0010
,
1000
0100
0000
0100
0010
0000
0010
0001
0000
0001
0010
0000
0010
0000
0100
0000
,
1000
0000
0100
0000
0010
0001
0000
0001
0000
0010
1000
0010
1100
0000
1100
0000
,
1000
0000
0100
0000
0010
0001
0000
0010
0000
0100
0000
0010
0100
0000
1000
0010
,
0000
1000
0000
0010
0100
0000
0001
0000
1010
1000
0100
1000
0001
1000
0000
1000
,
0011
0010
0000
0010
0100
0000
0100
1000
0000
1000
0100
0000
0100
0000
0010
0000
,
0001
0000
0010
0000
0100
1000
0000
0100
0000
1010
0000
0010
1001
0000
1100
0000
,
0010
0000
0001
0000
1000
0100
0000
0010
0000
0001
0000
0100
1000
0000
0000
0000
,
0100
0000
1000
0001
1100
0000
1100
0001
1010
0001
1100
0001
1010
0001
1100
0001
,
1010
0100
0010
0001
0010
0100
0000
1000
0000
0100
0000
0010
0001
0000
0100
0000
,
0110
1100
0110
0011
0110
1100
0110
0101
,
1010
0001
0100
1000
0100
0010
0000
0100
0000
1000
0000
1000
0100
0000
0010
0000
,
0001
0010
0001
0100
0010
1000
0010
0100
1001
0010
1100
0010
1001
0100
1010
0001
,
0010
0100
0010
1000
0001
0010
0000
0010
0000
0100
0000
1000
0100
0000
0010
0000
,
0110
0000
0011
0000
1001
0000
0110
0000
0011
0000
1001
0000
1100
0000
1100
1000
,
0011
0100
0010
0001
1000
0100
0000
0010
0000
0100
0000
1000
0100
0000
0010
0000
,
1000
0000
1001
1100
0010
1100
1001
0100
1010
0100
1010
0001
1010
0010
1010
0010
;
