#TITLE:Beast and the Harlot;
#SUBTITLE:- Expert Steps by Chicky;
#ARTIST:Avenged Sevenfold;
#TITLETRANSLIT:;
#SUBTITLETRANSLIT:;
#ARTISTTRANSLIT:;
#CREDIT:;
#BANNER:;
#BACKGROUND:Avenged_Sevenfold_Guns_Small.jpg;
#LYRICSPATH:;
#CDTITLE:;
#MUSIC:Avenged Sevenfold - Beast and the Harlot.mp3;
#OFFSET:0.380;
#SAMPLESTART:100.000;
#SAMPLELENGTH:11.980;
#SELECTABLE:YES;
#BPMS:0.000=77.600,26.500=70.000,27.000=80.000,27.500=85.000,28.000=90.000,28.500=95.000,29.000=100.000,29.500=105.000,30.000=110.000,30.500=115.000,31.000=120.000,31.500=125.000,32.000=130.000,32.500=135.000,33.000=140.000,33.500=150.000,34.000=155.000,34.500=160.000,35.000=180.000,35.500=200.000,36.000=230.000,36.500=260.000,37.000=300.000,38.000=290.000,39.000=280.000,40.000=270.000,41.000=260.000,42.000=250.000,43.000=240.000,44.000=230.001,45.000=220.001,46.000=210.001,47.000=200.001,48.000=190.001,49.000=180.001,50.000=170.001,51.000=160.001,52.000=150.001,53.000=140.001,53.500=130.001,54.000=120.001,54.500=115.001,55.000=110.001,55.500=105.001,56.000=155.161,776.000=77.581,816.250=300.001;
#STOPS:;
#BGCHANGES:1.500=Avenged_Sevenfold_Guns_Small.jpg=1.000=0=0=1,
99999=-nosongbg-=1.000=0=0=0 // don't automatically add -songbackground-
;
// cache tags:
#FIRSTBEAT:1.500;
#LASTBEAT:816.250;
#SONGFILENAME:Songs/toune 2/Avenged Sevenfold - Beast and the Harlot/Avenged Sevenfold - Beast and the Harlot.sm;
#HASMUSIC:1;
#HASBANNER:0;
#MUSICLENGTH:340.877;
// end cache tags

//---------------dance-single - ----------------
#NOTES:
     dance-single:
     :
     Challenge:
     13:
     1.000,1.000,1.000,0.827,0.994,2118.000,852.000,282.000,4.000,22.000:
0000
0000
0000
0011
0100
0110
1010
1100
,
0110
0101
0010
0011
0101
0100
0010
1010
,
0110
0101
1001
0010
0101
1010
0100
0010
,
0011
1100
0110
1001
0100
0011
0101
0100
,
0010
1010
1100
0110
0011
0100
0010
1001
,
0010
0100
1001
0100
0010
1001
0011
0101
,
0110
1000
0001
0110
0001
1000
0220
0000
,
0000
0000
0000
0000
,
0000
0000
0000
0000
,
0000
0000
0000
0330
2002
0000
0000
0000
0000
0000
0000
0000
0000
0000
0000
0000
,
0000
0000
0000
0000
,
0000
0000
0000
0000
,
0000
0000
0000
0000
,
0000
0000
3003
0000
,
1000
0001
1000
0001
0101
0000
0100
0010
0100
0010
1010
0000
1000
0010
1000
0010
,
0110
0000
0001
0010
0001
0010
1001
0000
1000
0001
1000
0001
0220
0000
0330
0000
,
0010
0100
0010
0100
0101
0000
0001
0010
0001
0010
1100
0000
1000
0010
1000
0010
,
0110
0000
0100
0001
0100
0001
1001
0000
0001
0010
0001
0010
0202
0000
0303
0000
,
1000
0010
1000
0010
1100
0000
0100
0010
0100
0010
0011
0000
0001
0100
0001
0100
,
1001
0000
1000
0010
1000
0010
0110
0000
0100
0001
0100
0001
2002
0000
3003
0000
,
0010
0001
0010
0001
1100
0000
1000
0010
1000
0010
0101
0000
1000
0100
1000
0100
,
0011
0000
0000
0000
0000
0000
0001
0000
0000
0100
0000
0000
0001
0000
0000
0100
0000
0000
1010
0000
0000
0000
0000
0000
1000
0000
0000
0001
0000
0000
0010
0000
0000
0001
0000
0000
0100
0000
0010
0000
0001
0000
0010
0000
0100
0000
1000
0000
,
0100
0010
0200
0000
0000
0000
0001
0000
0000
0000
0000
0000
0000
0000
0000
0010
0000
0000
0000
0000
0000
0000
0000
0000
,
0001
0000
0000
1000
0000
0000
0001
0010
,
0000
0000
0000
0000
0000
0300
0001
0000
0000
0000
0000
0000
0000
0000
0000
1000
0000
0000
0000
0000
0000
0110
0000
0000
,
0000
0000
0100
0000
0000
0001
0000
1010
,
0100
0010
0100
0010
0110
0100
0001
0010
0001
0100
0101
0001
0010
0001
0010
0001
,
0011
0001
0100
0010
1000
0100
1100
0100
0010
0100
0010
0100
0110
0100
1001
0001
,
0100
0010
0100
0010
0110
0100
0001
0010
0001
0010
0011
0001
0100
0001
0101
0100
,
0010
1000
0010
1000
1010
1000
0010
1000
0100
1000
1100
1000
0001
1000
1001
0000
,
1000
0010
1000
0010
1010
0000
0010
0100
0010
1000
1010
0000
0100
0010
0001
0010
,
0011
0000
0001
0100
0010
1000
1100
0000
0100
0010
0100
0010
0011
0000
0220
0000
,
0331
0010
0100
1000
1100
0000
1000
0100
0010
0001
0011
0000
0001
0010
1001
0000
,
1000
0010
0100
0001
0011
0000
0001
0100
0010
1000
1010
0000
0010
0100
0110
0000
,
1000
0001
0010
0001
0101
0000
0100
0010
1000
0100
1100
0000
0100
0010
0001
0010
,
0011
0000
0001
0100
0010
0100
0110
0000
0010
1000
0100
0010
0011
0000
0202
0303
,
0100
0010
1000
0100
0110
0000
0010
0001
0100
0001
0101
0000
0100
0010
0110
0000
,
0010
1000
0100
0010
1010
0000
1000
0100
0010
0001
0011
0000
0001
0100
0110
0000
,
2001
0000
0000
0000
0000
0000
0001
0000
0000
0000
0000
0000
3001
0000
0000
0010
1000
0001
0110
0000
0000
0000
0000
0000
,
1001
0000
0000
0000
0101
0000
0000
0000
0011
0010
0001
1000
0110
0000
0000
0000
,
1000
0010
1000
0010
0101
0000
0001
0010
0100
1000
1100
0000
1000
0100
0010
0100
,
0110
0000
0100
0001
0010
0001
0101
0000
0100
0010
0100
0010
0110
0000
0202
0303
,
0001
1000
0010
0100
0110
0000
1000
0100
0010
0001
0011
0000
0001
0100
0101
0000
,
0100
0010
1000
0100
1100
0000
0100
0010
0001
0010
0011
0000
0001
0100
1001
0000
,
1000
0100
1000
0100
0011
0000
0001
0100
0010
1000
1010
0000
0010
0100
0001
0010
,
0011
0000
0001
1000
0010
1000
1010
0000
0100
0010
0001
0010
0011
0000
0202
0303
,
1000
0010
0100
0010
1010
0000
1000
0100
0010
0001
0011
0000
0001
1000
1001
0000
,
1000
0010
0100
0010
1010
0000
1000
0010
0100
0010
0110
0000
1000
0001
0110
0000
,
1002
0000
0000
0000
0000
0000
1000
0000
0000
0000
0000
0000
1003
0000
0000
1000
0001
0010
1001
0000
0000
0000
0000
0000
,
0101
1010
0110
1001
,
1001
0001
0010
0001
0101
0100
0010
1000
1010
0100
0010
0001
0011
0001
0100
0010
,
1100
0110
0011
0101
1100
0110
0011
0101
,
1100
0110
0101
1001
1100
0110
0101
1001
,
1010
1100
0110
0011
1010
1100
0110
0011
,
1010
1100
0110
0011
0011
0101
1001
0110
,
1001
1001
0011
0101
1100
1001
0011
0101
,
1100
0110
0011
0101
1100
0110
0011
0101
,
1010
1100
0110
0011
1010
1100
0110
0011
,
1010
1100
0110
0011
0011
1001
0110
1001
,
1100
0110
0011
1001
1100
0110
0011
1001
,
0101
1010
1100
0011
0101
1010
1100
0011
,
0101
0011
0110
1100
0101
0011
0110
1100
,
1001
0101
0011
0110
1001
0101
0011
0110
,
1001
0011
0110
1100
1001
0011
0110
1100
,
1001
0011
0110
1100
1001
0011
0110
1100
,
0110
0011
0101
1100
0110
0011
0101
1100
,
0110
0011
0101
1100
1001
0110
1001
0110
,
2002
0100
0100
0100
0100
0100
0100
0100
,
0200
0010
0010
0010
0010
0010
0010
0010
,
0020
0000
0000
0000
,
0000
0000
0000
0000
0000
3333
0000
0000
,
1000
0000
0000
0001
0000
0000
0010
0000
0000
0001
0000
0000
0200
0000
0000
0000
0000
0000
0000
0000
0000
0000
0000
0000
0310
0000
0000
0000
0000
0000
1000
0000
0001
0000
0010
0000
1001
0000
0000
0000
0000
0000
0000
0000
0000
0000
0000
0000
,
0101
0110
1010
1100
,
1001
0001
0010
0001
0101
0100
0010
0100
0110
0010
1000
0010
1010
1000
0001
1000
,
1002
0000
0000
0000
0000
0000
0103
0010
1000
0000
1000
0100
0010
0001
0100
0010
,
1000
0100
0010
0100
1000
0001
0100
0010
0100
0001
0010
0100
1000
0010
0100
0001
,
0020
0000
0000
0000
0030
0000
0001
0100
0020
0000
0000
0000
0030
1000
0100
0020
,
0000
0000
0000
0030
0001
0100
0010
1000
0100
0010
0001
0100
0010
1000
0100
0010
,
0220
0000
0000
0000
0000
0000
0000
0330
0202
0000
0000
0303
2020
0000
0000
3030
,
2002
0000
0000
0000
0000
0000
0000
3003
0220
0000
0000
0000
0000
0000
0000
0330
,
1002
0000
0000
2003
3002
0000
0000
2003
,
3022
0000
0000
0033
,
0110
0010
1000
0001
0010
0001
0100
0010
1000
0100
0010
0001
0100
0010
1000
0010
,
0101
0001
0010
0100
1000
0100
0010
0100
1000
0001
0100
0010
0100
0001
0010
0100
,
1010
0000
0000
0010
0000
0000
0100
0000
0000
0001
0000
0000
0010
0000
0000
0001
0000
0000
0100
0000
0000
0010
0000
0000
1000
0000
0000
0100
0000
0000
0010
0000
0000
0001
0000
0000
0100
0000
0000
0010
0000
0000
1000
0000
0001
0000
0010
0000
,
1001
0100
0010
1000
0001
0010
0001
0100
0010
1000
0100
0010
0001
0010
0100
1000
,
0010
0100
0010
0100
0010
0100
0001
0100
0001
0100
0001
0100
0001
0010
0001
0010
0001
0010
0001
1000
0001
1000
0001
1000
,
0010
0100
0010
0100
0010
0100
0001
0100
0001
0100
0001
0100
0001
0010
0001
0010
0001
0010
0001
1000
0001
1000
0001
1000
,
0001
0100
0001
0100
0001
0100
0001
1000
0001
1000
0001
1000
0001
0010
0100
0010
0100
0010
0100
1000
0100
1000
0100
1000
,
0001
1000
0001
1000
0001
1000
0001
0010
0001
0010
0001
0010
0100
0010
0100
0010
0100
0010
0001
0010
0001
0010
0001
0010
,
0001
0100
0001
0100
1010
0000
1000
0100
0010
0001
0011
0000
0001
0010
0100
0010
,
0110
0000
0010
1000
0100
1000
1010
0000
0010
0100
0010
0100
0110
0000
2020
3030
,
1000
0001
0100
0010
0110
0000
0001
0010
0100
1000
1100
0000
1000
0010
1010
0000
,
0010
0100
0001
0010
0011
0000
0010
0100
1000
0100
1100
0000
1000
0010
1001
0000
,
0001
0010
0001
0010
1100
0000
1000
0010
0100
0001
0101
0000
0100
0010
1000
0100
,
1100
0000
1000
0001
0100
0001
0101
0000
0010
0100
1000
0100
1100
0000
2020
3030
,
0001
0100
0010
0100
0101
0000
0001
0010
0100
1000
1100
0000
1000
0001
1001
0000
,
0001
0100
0010
0100
0101
0000
0001
0100
0010
0100
0110
0000
0001
1000
0110
0000
,
2010
0000
0000
0000
0000
0000
0100
0000
0000
0000
0000
0000
3100
0000
0000
0100
0010
0001
1100
0000
0000
0000
0000
0000
,
1001
0000
0000
0000
0110
0000
0000
0000
0101
0100
0010
1000
1010
0000
0000
0000
,
0100
0010
0100
0010
0110
0000
0001
0010
0001
0100
0101
0001
0010
0001
0010
0001
,
0011
0001
0100
0010
1000
0100
1100
0100
0010
0100
0010
0100
0110
0100
1001
0001
,
0100
0010
0100
0010
0110
0100
0001
0010
0001
0010
0011
0001
0100
0001
0101
0100
,
0010
1000
0010
1000
1010
1000
0010
1000
0100
1000
1100
1000
0001
1000
1001
0000
,
1000
0010
1000
0010
1010
0000
0010
0100
0010
1000
1010
0000
0100
0010
0001
0010
,
0011
0000
0001
0100
0010
1000
1100
0000
0100
0010
0100
0010
0011
0000
0220
0000
,
0331
0010
0100
1000
1100
0000
1000
0100
0010
0001
0011
0000
0001
0010
1001
0000
,
1000
0010
0100
0001
0011
0000
0001
0100
0010
1000
1010
0000
0010
0100
0110
0000
,
1002
0000
0000
0000
0000
0000
0100
0000
0000
0000
0000
0000
0103
0000
0000
1000
0001
0010
0101
0000
0000
0000
0000
0000
,
1010
0110
0101
0011
,
1010
0000
0000
0000
0100
0000
0000
0000
0010
0000
0000
0000
0001
0000
0000
0000
0011
0000
0000
0000
0001
0000
0000
0000
0100
0000
0000
0000
0010
0000
0000
0000
1100
0000
0000
0000
0100
0000
0000
0000
0010
0000
0000
0000
0001
0000
0000
0000
0022
0033
0000
0000
0000
0000
0000
0000
0000
0000
0000
0000
0000
0000
0000
0000
,
1100
0110
0011
0101
1100
0110
0011
0101
,
1100
0110
0101
1001
1100
0110
0101
1001
,
1010
1100
0110
0011
1010
1100
0110
0011
,
1010
1100
0110
0011
0011
0101
1001
0110
,
1001
1001
0011
0101
1100
1001
0011
0101
,
1100
0110
0011
0101
1100
0110
0011
0101
,
1010
1100
0110
0011
1010
1100
0110
0011
,
1010
1100
0110
0011
0011
1001
0110
1001
,
1100
0110
0011
1001
1100
0110
0011
1001
,
0101
1010
1100
0011
0101
1010
1100
0011
,
0101
0011
0110
1100
0101
0011
0110
1100
,
1001
0101
0011
0110
1001
0101
0011
0110
,
1001
0011
0110
1100
1001
0011
0110
1100
,
1001
0011
0110
1100
1001
0011
0110
1100
,
0110
0011
0101
1100
0110
0011
0101
1100
,
0110
0011
0101
1100
1001
0110
1001
0110
,
2002
3103
0010
1000
1010
0010
0100
0001
0010
0001
0101
0100
0010
1000
0100
0010
,
0110
0010
0001
0100
0010
1000
1010
1000
0100
0010
0001
0010
0110
0110
0110
0110
,
1000
0100
0110
0100
0001
0010
0100
1000
1001
1000
0010
0100
0001
0010
0011
0001
,
1000
0000
0000
0000
0010
0000
0000
0000
0100
0000
0000
0000
0010
0000
0000
0000
0110
0000
0000
0000
0100
0000
0000
0000
0001
0000
0000
0000
0010
0000
0000
0000
0001
0000
0000
0000
0100
0000
0000
0000
0101
0000
0000
0000
0000
0000
0000
0000
0220
0330
0000
0000
0000
0000
0000
0000
0000
0000
0000
0000
0000
0000
0000
0000
,
1001
0000
0001
0000
0010
0000
0001
0000
0000
0100
0000
0000
0010
0000
0000
1000
0000
0000
0100
0000
0010
0000
0001
0000
1000
0000
0100
0000
0010
0000
0001
0000
0000
0100
0000
0000
0010
0000
1000
0000
0010
0000
0100
0000
0010
0000
0100
0000
,
0001
0000
0000
0100
0000
0000
0010
0000
0100
0000
0001
0000
0010
0000
0001
0000
0100
0000
0010
0000
0000
0001
0000
0000
1000
0000
0100
0000
0010
0000
0001
0000
1000
0000
0100
0000
0010
0000
0001
0000
1000
0000
0100
0000
0010
0000
0001
0000
,
1000
0010
0100
0001
0010
0001
0100
0010
1000
0100
0010
0001
0010
0100
1000
0010
0100
0001
0010
0001
0100
0010
1000
0100
,
0010
0000
0000
0000
0000
0000
0100
0000
0000
0000
0000
0000
0010
0000
0000
0000
0000
0000
0100
0000
0000
0000
0000
0000
0010
0000
0000
0000
0000
0000
0100
0000
0000
0000
0000
0000
0010
0000
0000
0000
0000
0000
0100
0000
0000
0000
0000
0000
0010
0000
0000
0000
0000
0000
0000
0000
1000
0000
0000
0000
0000
0000
0000
0000
0010
0000
0000
0000
0000
0000
0000
0000
1000
0000
0000
0000
0000
0000
0000
0000
0010
0000
0000
0000
0000
0000
0000
0000
1000
0000
0000
0000
0000
0000
0000
0000
0010
0000
0000
0000
0000
0000
0000
0000
1000
0000
0000
0000
0000
0000
0000
0000
0010
0000
0000
0000
0000
0000
0000
0000
1000
0000
0000
0000
0000
0000
0000
0000
0010
0000
0000
0000
0000
0000
0000
0000
1000
0000
0000
0000
0000
0000
0000
0000
0010
0000
0000
0000
0000
0000
0000
0000
1000
0000
0000
0000
0000
0000
0000
0000
0010
0000
0000
0000
0000
0000
0000
0000
1000
0000
0000
0000
0000
0000
0000
0000
0010
0000
0000
0000
0000
0000
0000
0000
1000
0000
0000
0000
0000
0000
0000
0000
,
1001
0001
0010
0001
0100
0010
1000
0100
0010
0001
0010
0100
1000
0100
0010
0001
,
0100
0010
1000
0010
0100
0001
0010
0001
0100
0010
1000
0100
0010
0100
1000
0001
,
0100
0001
0010
0001
0100
0010
1000
0100
1000
0100
0010
0001
0010
0001
0100
0010
,
1000
0100
0010
0001
0100
0010
1000
0001
0010
0001
0100
0010
1010
0000
0110
0000
,
0001
0010
0001
0100
0010
1000
0100
0010
0001
0100
0010
1000
0010
0100
0001
0010
,
0001
0100
0010
1000
0100
1000
0100
0010
0001
0010
0001
0100
0110
0000
1010
0000
,
1000
0001
0010
0001
0100
0010
0100
0010
1000
0010
1000
0100
0010
0001
0100
0010
,
0100
0000
0000
0010
0000
0000
0100
0000
0001
0000
0100
0000
0001
0000
0000
0010
0000
0000
0001
0000
1000
0000
0001
0000
1000
0000
0000
0010
0000
0000
0100
0000
0001
0000
0010
0000
0001
0000
0100
0000
0010
0000
1000
0000
0100
0000
0010
0000
,
0011
0011
0101
0101
0110
0110
1010
1010
,
1100
1100
0110
0110
0011
0011
1001
1001
,
0011
0011
0101
0101
0110
0110
1010
1010
,
1100
1100
0110
0110
0011
0011
1001
1001
,
0011
0011
0101
0101
0110
0110
1010
1010
,
1100
1100
0110
0110
0011
0011
1001
1001
,
0011
0011
0101
0101
0110
0110
1010
1010
,
1100
1100
1001
1001
0011
0011
0101
0101
,
0110
0100
0001
0010
0011
0001
0100
0010
0110
0010
1000
0100
1100
0100
0010
0001
,
0011
0001
0100
0010
0110
0010
1000
0100
1100
1000
0010
0100
0110
0100
0001
0010
,
0011
0001
0100
0010
0110
0010
1000
0100
1100
0100
0010
0001
0011
0001
0100
0010
,
0110
0010
1000
0100
0110
0010
0001
0100
0101
0100
0010
1000
1010
1000
0001
1000
,
1001
0001
0010
0001
0011
0001
0100
0010
0110
0010
1000
0100
1100
0100
0010
0001
,
0011
0001
0100
0001
0011
0001
0100
0010
0110
0010
1000
0100
1100
1000
0001
1000
,
1001
1000
0010
0100
0110
0100
0001
0010
0011
0001
0100
0001
0101
0100
0010
1000
,
1010
1000
0100
0010
0110
0100
0010
0001
0011
0001
0100
0001
0101
1000
0001
1000
,
1002
0000
0000
0000
0000
0000
0000
0000
0100
0000
0000
0000
0010
0000
0000
0000
0013
0000
0000
0000
0000
0000
0000
0000
1000
0000
0000
0001
0000
0000
0010
0000
0000
0001
0000
0000
0100
0000
0000
0010
0000
0000
0000
0000
0000
1000
0000
0000
,
1001
0101
0011
0110
,
1100
0100
0010
0001
0011
0001
0100
0010
0110
0010
1000
0100
1100
1000
0001
1000
,
1100
0110
0011
0101
1100
0110
0011
0101
,
1100
0110
0101
1001
1100
0110
0101
1001
,
1010
1100
0110
0011
1010
1100
0110
0011
,
1010
1100
0110
0011
0011
0101
1001
0110
,
1001
1001
0011
0101
1100
1001
0011
0101
,
1100
0110
0011
0101
1100
0110
0011
0101
,
1010
1100
0110
0011
1010
1100
0110
0011
,
1010
1100
0110
0011
0011
1001
0110
1001
,
2200
3300
0000
0000
0000
0000
0000
0000
1000
0000
0000
0000
0010
0000
0000
0000
1000
0000
0000
0000
0010
0000
0000
0000
1000
0000
0000
0000
0000
0000
0000
0000
2002
3003
0000
0000
0000
0000
0000
0000
0001
0000
0000
0000
0010
0000
0000
0000
0001
0000
0000
0000
0010
0000
0000
0000
0001
0000
0000
0000
0000
0000
0000
0000
,
0202
0303
0000
0000
0000
0000
0000
0000
0100
0000
0000
0000
0010
0000
0000
0000
0100
0000
0000
0000
0010
0000
0000
0000
0100
0000
0000
0000
0000
0000
0000
0000
2020
3030
0000
0000
0000
0000
0000
0000
1000
0000
0000
0000
0010
0000
0000
0000
1000
0000
0000
0000
0010
0000
0000
0000
1000
0000
0000
0000
0000
0000
0000
0000
,
2002
3003
0000
0000
0000
0000
0000
0000
0001
0000
0000
0000
0010
0000
0000
0000
0001
0000
0000
0000
0010
0000
0000
0000
0001
0000
0000
0000
0000
0000
0000
0000
0202
0303
0000
0000
0000
0000
0000
0000
0100
0000
0000
0000
0010
0000
0000
0000
0100
0000
0000
0000
0010
0000
0000
0000
0100
0000
0000
0000
0000
0000
0000
0000
,
0220
0330
0000
0000
0000
0000
0000
0000
0001
0000
0000
0000
0100
0000
0000
0000
0001
0000
0000
0000
0100
0000
0000
0000
0001
0000
0000
0000
0000
0000
0000
0000
0202
0303
0000
0000
0000
0000
0000
0000
0001
0000
0000
0000
0010
0000
0000
0000
0001
0000
0000
0000
0010
0000
0000
0000
0001
0000
0000
0000
0000
0000
0000
0000
,
1001
0011
0110
1100
1001
0011
0110
1100
,
1001
0011
0110
1100
1001
0011
0110
1100
,
0110
0011
0101
1100
0110
0011
0101
1100
,
0110
0011
0101
1100
1001
0110
1001
0110
,
2002
0000
0000
0000
0000
0000
0000
3003
0202
0000
0000
0000
0000
0000
0000
0303
0220
0000
0000
0000
0000
0000
0000
0330
2020
0000
0000
0000
0000
0000
0000
3030
2002
0000
0000
0000
0000
0000
0000
3003
0202
0000
0000
0000
0000
0000
0000
0303
0220
0000
0000
0000
0000
0000
0000
0330
2020
0000
0000
0000
0000
0000
0000
3030
,
2002
0000
0000
0000
0000
0000
0000
3003
0022
0000
0000
0000
0000
0000
0000
0033
0220
0000
0000
0000
0000
0000
0000
0330
2200
0000
0000
0000
0000
0000
0000
3300
2002
0000
0000
0000
0000
0000
0000
3003
0022
0000
0000
0000
0000
0000
0000
0033
0220
0000
0000
0000
0000
0000
0000
0330
2200
0000
0000
0000
0000
0000
0000
3300
,
2002
0000
0000
0000
0000
0000
0000
3003
0202
0000
0000
0000
0000
0000
0000
0303
0220
0000
0000
0000
0000
0000
0000
0330
2020
0000
0000
0000
0000
0000
0000
3030
2002
0000
0000
0000
0000
0000
0000
3003
0202
0000
0000
0000
0000
0000
0000
0303
0220
0000
0000
0000
0000
0000
0000
0330
2020
0000
0000
0000
0000
0000
0000
3030
,
2002
0000
0000
0000
0000
0000
0000
3003
0022
0000
0000
0000
0000
0000
0000
0033
0220
0000
0000
0000
0000
0000
0000
0330
2200
0000
0000
0000
0000
0000
0000
3300
2002
0000
0000
0000
0000
0000
0000
3003
0022
0000
0000
0000
0000
0000
0000
0033
0220
0000
0000
0000
0000
0000
0000
0330
2200
0000
0000
0000
0000
0000
0000
3300
,
2002
3003
0000
0000
0000
0000
0000
0000
0202
0000
0000
0000
0000
0000
0000
0303
0220
0000
0000
0000
0000
0000
0000
0330
0022
0000
0000
0000
0000
0000
0000
0033
2002
0000
0000
0000
0000
0000
0000
3003
0202
0000
0000
0000
0000
0000
0000
0303
0220
0000
0000
0000
0000
0000
0000
0330
0022
0000
0000
0000
0000
0000
0000
0033
,
2002
0000
0000
0000
0000
0000
0000
3003
0220
0000
0000
0000
0000
0000
0000
0330
0022
0000
0000
0000
0000
0000
0000
0033
0220
0000
0000
0000
0000
0000
0000
0330
0202
0000
0000
0000
0000
0000
0000
0303
0220
0000
0000
0000
0000
0000
0000
0330
0022
0000
0000
0000
0000
0000
0000
0033
0220
0000
0000
0000
0000
0000
0000
0330
,
0202
0000
0000
0000
0000
0000
0000
0303
0022
0000
0000
0000
0000
0000
0000
0033
0220
0000
0000
0000
0000
0000
0000
0330
2200
0000
0000
0000
0000
0000
0000
3300
2002
0000
0000
0000
0000
0000
0000
3003
0022
0000
0000
0000
0000
0000
0000
0033
0220
0000
0000
0000
0000
0000
0000
0330
2200
0000
0000
0000
0000
0000
0000
3300
,
2002
0000
0000
0000
0000
0000
0000
3003
0202
0000
0000
0000
0000
0000
0000
0303
2020
0000
0000
0000
0000
0000
0000
3030
0202
0000
0000
0000
0000
0000
0000
0303
2020
0000
0000
0000
0000
0000
0000
0000
3232
0000
0000
0000
0000
0000
0000
0303
2020
0000
0000
0000
0000
0000
0000
3030
0202
0000
0000
0000
0000
0000
0000
0303
,
2020
0000
0000
0000
0000
0000
0000
0030
3220
0000
0000
0000
0000
0000
0000
0330
0202
0000
0000
0000
0000
0000
0000
0303
0022
0000
0000
0000
0000
0000
0000
0033
2020
0000
0000
0000
0000
0000
0000
3030
0220
0000
0000
0000
0000
0000
0000
0330
0202
0000
0000
0000
0000
0000
0000
0303
0022
0000
0000
0000
0000
0000
0000
0033
,
2200
0000
0000
0000
0000
0000
0000
3300
0220
0000
0000
0000
0000
0000
0000
0330
0022
0000
0000
0000
0000
0000
0000
0033
2002
0000
0000
0000
0000
0000
0000
3003
2200
0000
0000
0000
0000
0000
0000
3300
0220
0000
0000
0000
0000
0000
0000
0330
0022
0000
0000
0000
0000
0000
0000
0033
0202
0000
0000
0000
0000
0000
0000
0303
,
0220
0000
0000
0000
0000
0000
0000
0330
2020
0000
0000
0000
0000
0000
0000
3030
2200
0000
0000
0000
0000
0000
0000
3300
2002
0000
0000
0000
0000
0000
0000
3003
0220
0000
0000
0000
0000
0000
0000
0330
2020
0000
0000
0000
0000
0000
0000
3030
2200
0000
0000
0000
0000
0000
0000
3300
2002
0000
0000
0000
0000
0000
0000
3003
,
0202
0000
0000
0000
0000
0000
0000
0303
0022
0000
0000
0000
0000
0000
0000
0033
0220
0000
0000
0000
0000
0000
0000
0330
2200
0000
0000
0000
0000
0000
0000
3300
0202
0000
0000
0000
0000
0000
0000
0303
0022
0000
0000
0000
0000
0000
0000
0033
0220
0000
0000
0000
0000
0000
0000
0330
2200
0000
0000
0000
0000
0000
0000
3300
,
2002
3003
0000
0000
0000
0000
0000
0000
0001
0000
0000
0000
0010
0000
0000
0000
0001
0000
0000
0000
0010
0000
0000
0000
0001
0000
0000
0000
0000
0000
0000
0000
0202
0303
0000
0000
0000
0000
0000
0000
0100
0000
0000
0000
0010
0000
0000
0000
0100
0000
0000
0000
0010
0000
0000
0000
0100
0000
0000
0000
0000
0000
0000
0000
,
2020
3030
0000
0000
0000
0000
0000
0000
1000
0000
0000
0000
0100
0000
0000
0000
1000
0000
0000
0000
0100
0000
0000
0000
1000
0000
0000
0000
0000
0000
0000
0000
2002
3003
0000
0000
0000
0000
0000
0000
0001
0000
0000
0000
0010
0000
0000
0000
0001
0000
0000
0000
0010
0000
0000
0000
0001
0000
0000
0000
0000
0000
0000
0000
,
0101
0110
1010
1100
0101
0110
1010
1100
,
1010
0011
0101
0110
1010
0011
0101
0110
,
1010
0100
0101
0011
1100
1001
0110
0001
,
0101
1010
1000
0100
1100
0110
0011
0101
,
0100
0110
1010
1000
0001
1001
0101
0110
,
1010
1000
0110
0101
0010
1001
1100
0011
,
0101
0000
0110
0000
1000
0001
1000
0000
1001
0000
1000
0001
1000
0000
0110
0000
,
1000
0001
1000
0000
1001
0000
0011
0000
0101
0000
0110
0000
0010
0100
0010
0100
,
1001
0001
0010
0001
0010
0000
0022
0000
0000
0000
0000
0000
0000
0000
0000
0000
,
0000
0000
0000
0000
,
0000
0000
0000
0000
0000
0000
0000
0000
0000
0000
0000
0000
0000
0000
0000
0000
0000
0000
0000
0000
0000
0000
0000
0000
0000
0000
0000
0000
0033
1000
0100
0000
,
0100
0000
0000
0000
0000
0000
0000
0000
0000
0000
0000
0000
1000
0000
0000
0000
0000
0000
0200
0000
0000
0000
0000
0000
0000
0000
0000
0000
0000
0000
0000
0000
0000
0000
0000
0000
0000
0000
0000
0000
0000
0000
0310
0000
0000
0000
0000
0000
0001
0000
0000
0000
0000
0000
0000
0000
0000
0000
0000
0000
0000
0000
0000
0000
0001
0000
0000
0000
0000
0000
0000
0000
0000
0000
0000
0000
0000
0000
0000
0000
0001
0000
0000
0000
0000
0000
0000
0000
0000
0000
0000
0000
0000
0000
0000
0000
0001
0000
0000
0000
0000
0000
0000
0000
0000
0000
0000
0000
0000
0000
0000
0000
0001
0000
0000
0000
0000
0000
0000
0000
0001
0000
0000
0000
0000
0000
0000
0000
0000
0000
0000
0000
0000
0000
0000
0000
0001
0000
0000
0000
0000
0000
0000
0000
0000
0000
0000
0000
0000
0000
0000
0000
2002
0000
0000
0000
0000
0000
0000
0000
0000
0000
0000
0000
0000
0000
0000
0000
0000
0000
0000
0000
0000
0000
0000
0000
0000
0000
0000
0000
0000
0000
0000
0000
0000
0000
0000
0000
0000
0000
0000
0000
,
0000
0000
3003
MMMM
0000
0000
0000
0000
0000
0000
0000
0000
0000
0000
0000
0000
0000
0000
0000
0000
0000
0000
0000
0000
0000
0000
0000
0000
0000
0000
0000
0000
0000
0000
0000
0000
0000
0000
0000
0000
0000
0000
0000
0000
0000
0000
0000
0000
;
