#TITLE:Bubblegum;
#SUBTITLE:;
#ARTIST:W!LL;
#TITLETRANSLIT:;
#SUBTITLETRANSLIT:;
#ARTISTTRANSLIT:;
#CREDIT:;
#BANNER:Bubblegum_BN.png;
#BACKGROUND:Bubblegum_BG.png;
#LYRICSPATH:;
#CDTITLE:;
#MUSIC:W!LL - Bubble Gum.mp3;
#OFFSET:-0.041;
#SAMPLESTART:36.755;
#SAMPLELENGTH:12.000;
#SELECTABLE:YES;
#BPMS:0.000=190.000;
#STOPS:;
#BGCHANGES:;
// cache tags:
#FIRSTBEAT:0.000;
#LASTBEAT:320.000;
#SONGFILENAME:Songs/stepmix .10/Bubblegum/Bubble Gum.sm;
#HASMUSIC:1;
#HASBANNER:1;
#MUSICLENGTH:103.634;
// end cache tags

//---------------dance-single - ----------------
#NOTES:
     dance-single:
     :
     Hard:
     9:
     0.728,0.771,0.367,0.106,0.289,479.000,38.000,11.000,0.000,0.000:
1000
0000
0000
0000
0100
0000
0000
0010
0000
0000
0000
0000
0100
0000
0000
0000
,
1000
0000
0000
0000
0100
0000
0000
0001
0000
0000
0000
0000
0100
0000
0000
0000
,
1000
0000
0000
0000
0010
0000
0000
0100
0000
0000
0000
0000
0001
0000
0000
0000
,
1000
0000
0000
0000
0100
0000
0000
0010
0000
0000
0000
0000
0001
0000
0000
0000
,
0100
0000
0000
0000
0010
0000
0000
1000
0000
0000
0000
0000
0001
0000
0000
0000
,
0010
0000
0000
0000
0100
0000
0000
0010
0000
0000
0000
0000
0001
0000
0000
0000
,
0100
0000
0000
0000
0010
0000
0000
1000
0000
0000
0000
0000
0010
0000
0000
0000
,
0100
0000
0000
0000
0001
0000
0000
1000
0000
0000
0100
0000
1000
0100
1000
0000
,
0001
0000
0010
0000
0001
0000
0100
0001
0000
0001
1000
0000
0000
0000
0000
0000
,
1000
0000
0010
0000
1000
0000
0100
1000
0000
1000
0001
0000
1000
0000
0000
0000
,
0100
0000
0010
0000
0100
0000
0001
0100
0000
0100
1000
0000
0100
0000
0000
0000
,
0010
0000
0100
0000
0010
0000
1000
0010
0000
0010
0001
0000
0010
0000
0000
0000
,
1000
0000
0010
0000
0100
0000
0001
0010
0000
0010
0001
0000
0000
0000
0000
0000
,
0100
0000
0010
0000
1000
0000
0100
0010
0000
0010
0100
0000
0001
0000
0000
0000
,
0001
0000
0100
0000
1000
0000
0010
0100
0000
0100
0001
0000
0010
0000
0000
0000
,
0100
0000
1000
1100
0000
0000
1001
0000
,
1000
0100
0021
0001
0000
0100
0130
0000
,
2100
0000
0100
0100
0000
3010
0010
0100
,
0001
0100
2010
0010
0000
0001
3001
0000
,
0102
0000
0100
0100
0000
1000
1003
0100
,
0010
0001
1200
1000
0000
0010
0310
0000
,
0201
0000
0001
0001
0000
0010
0310
1000
,
0100
1000
0210
0010
0000
0010
0310
0000
,
2001
0000
0001
0001
0000
0001
3001
0100
,
0010
1000
0100
1000
0001
0100
0001
1000
,
0010
1000
0001
0010
0001
1000
0001
1000
,
0010
0100
0001
0010
0100
1000
0100
1000
,
0010
0001
0010
0100
1000
0100
0001
1000
,
0100
0010
0001
0100
0010
1000
0100
1000
,
0010
0100
0001
0010
0001
1000
0010
0100
,
0001
0020
0000
0030
,
0002
0000
0000
0003
,
1000
0100
0010
0001
,
0010
0100
1000
0100
,
1000
0010
0001
0010
,
1000
0100
0001
0100
,
1000
1010
0010
0011
,
0010
0110
1000
1100
,
1000
0100
0001
0100
1000
0100
0001
0100
,
1000
0000
0010
0000
0001
0000
0010
0000
1000
0000
0100
0000
1000
0001
1000
0001
,
1000
0000
0010
0000
0100
0000
0001
0010
0000
0001
0100
0000
0010
0000
0100
0000
,
0001
0000
0010
0000
0100
0000
1000
0100
0000
0010
0100
0000
1000
0000
0010
0000
,
0100
0000
0001
0000
0010
0000
0100
0010
0000
0100
1000
0000
0010
0000
0100
0000
,
0001
0000
0010
0000
0001
0000
1000
0100
0000
0010
0100
0000
0000
0000
0000
0000
,
0001
0000
0100
0000
0010
0000
1000
0100
0000
1000
0010
0000
0100
0000
0010
0000
,
1000
0000
0100
0000
0010
0000
0001
0010
0000
0100
0010
0000
0001
0000
0100
0000
,
0010
0000
1000
0000
0100
0000
0010
0100
0000
0010
0001
0000
0010
0000
0100
0000
,
1000
0000
0010
0000
0100
0000
0001
0010
0000
0001
0100
0000
0010
1000
0010
0000
,
0100
0001
0010
1000
0000
1000
0010
0001
,
0100
1000
0001
0010
0000
0010
0001
1000
,
0100
0001
0010
1000
0000
1000
0010
0100
,
0001
0000
0100
0000
1000
0000
0010
0100
0000
0010
0100
0000
0000
0000
0000
0000
,
1000
0001
0010
1000
0000
1000
0010
0001
,
0100
1000
0100
0010
0000
0010
0100
0010
,
0001
0010
0100
1000
0000
1000
0000
0000
,
2000
0000
0000
3000
,
0011
0100
1010
0100
,
0011
1000
1010
0001
,
0011
0010
1010
0010
,
1100
0100
0101
0100
,
1100
1010
1100
1010
,
0011
0101
0011
0101
,
1000
0100
1000
0010
1000
0100
1000
0001
,
0100
0000
0001
0000
0010
0000
0001
0000
0100
0000
0001
0000
1000
0001
1000
0001
,
1000
1100
1000
1001
,
1000
0100
1000
0010
1000
0100
1000
0000
,
0001
0011
0001
0101
,
0001
0000
0010
0000
0001
0000
0100
0001
0000
0010
0001
0000
0000
0000
0000
0000
,
1000
0011
1000
0101
,
1000
0100
1000
0010
1000
0001
1000
0000
,
0001
1100
0001
1010
,
0001
0100
0001
1000
0001
0010
0001
0000
,
1000
0000
0000
0000
0010
0000
0000
0100
0000
0000
0010
0000
1000
0000
0000
0000
,
0100
0000
0000
0000
0001
0000
0000
0100
0000
0000
1000
0000
0001
0000
0000
0000
,
1000
0000
0000
0000
0100
0000
0000
0010
0000
0000
0010
0000
0100
0000
0000
0000
,
1000
0000
0000
0000
0010
0000
0000
0100
0000
0010
1000
0000
0000
0000
0000
0000
,
1000
0000
0000
0000
0001
0000
0000
0010
0000
0100
0010
0000
0000
0000
0000
0000
,
1000
0000
0000
0000
0100
0000
0000
0010
0000
0100
0010
0000
0000
0000
0000
0000
,
1000
0000
0000
0000
0010
0000
0000
0001
0000
0010
1000
0000
0000
0000
0000
0000
,
1000
0000
0000
0000
0100
0000
0000
0000
0010
0000
0000
0001
0000
0000
1000
0000
;

//---------------dance-single - ----------------
#NOTES:
     dance-single:
     :
     Easy:
     4:
     0.345,0.455,0.232,0.154,0.000,210.000,24.000,16.000,0.000,0.000:
0000
1000
0000
1000
,
0000
0001
0000
0001
,
0000
0100
0000
0010
,
0000
0100
0000
0010
,
0000
0001
0000
0010
,
0000
0001
0000
0010
,
0000
1000
0000
0100
,
0000
1000
0100
0000
,
0010
0010
0010
0000
,
0100
0100
0100
0000
,
1000
0100
0001
0000
,
0000
0001
0000
0001
,
1000
0010
0100
0000
,
0001
0100
0010
0000
,
1000
0001
1000
0000
,
0000
1000
0000
1000
,
0000
0002
0000
0003
,
2000
0000
3000
0000
,
0000
0020
0000
0030
,
0200
0000
0300
0000
,
0000
0002
0000
0003
,
0020
0000
0030
0000
,
0000
0200
0000
0300
,
2000
0000
3000
0000
,
1000
0002
0000
0003
,
0200
0000
0300
0000
,
0010
0020
0000
0030
,
2000
0000
3000
0000
,
1000
2000
0000
3000
,
0020
0000
0030
0000
,
0001
0002
0000
0003
,
0200
0000
0300
0000
,
1000
1000
1000
1000
,
0001
0001
0001
0001
,
0010
0010
0010
0010
,
0100
0100
0100
0100
,
1001
1000
1000
1000
,
1001
0001
0001
0001
,
0110
0100
0100
0100
,
0110
0010
0010
0010
,
1000
0001
1001
0000
,
0110
0000
1001
0000
,
0010
0100
0110
0000
,
1001
0000
0110
0000
,
1000
0010
0100
0000
,
0100
0010
1000
0000
,
0001
0010
0100
0000
,
0000
0010
0000
0001
,
1000
0100
0010
0000
,
0010
0100
1000
0000
,
0001
0010
0100
0000
,
0010
0100
1000
1000
,
0001
0010
0100
0100
,
1000
0100
0010
0010
,
0001
0100
0010
0010
,
1000
0010
0100
0100
,
1001
0000
0010
0000
,
1001
0000
0100
0000
,
1001
0000
0010
0000
,
1001
0000
0100
0000
,
1001
0010
0010
0010
,
1001
0100
0100
0100
,
1001
0010
0100
0010
,
1001
0100
0010
0100
,
0010
0001
1000
0100
,
1000
0001
0010
0100
,
1000
0100
1000
0001
,
0010
0001
0010
0100
,
1000
0010
0100
0001
,
0001
0100
0010
1000
,
1000
0100
0010
0001
,
0001
0010
1000
0010
,
0000
0001
0000
1001
,
0000
1000
0000
1001
,
0000
0100
0000
1001
,
0000
0000
0010
0000
0000
0010
0000
0000
,
1001
0000
0000
0000
0000
0100
0000
0000
,
1001
0000
0000
0000
0000
0010
0000
0000
,
0110
0000
0000
0000
0000
1000
0000
0000
;

//---------------dance-single - ----------------
#NOTES:
     dance-single:
     :
     Medium:
     6:
     0.505,0.644,0.145,0.077,0.000,343.000,15.000,8.000,0.000,0.000:
0000
1000
0001
1000
,
0000
0001
0010
0001
,
0000
0010
0100
0010
,
0000
0100
0010
0100
,
0000
1000
0100
0010
,
0000
0001
0010
0100
,
0000
1000
0010
0100
,
0000
0010
0000
1001
,
1000
0100
0010
0001
,
0010
0000
0100
0000
1000
0100
1000
0000
,
0001
0100
0010
1000
,
0010
0000
0100
0000
0001
0100
0001
0000
,
1000
0010
0001
0000
,
1000
0000
0100
0000
0010
0100
0010
0000
,
0100
0010
0001
1000
,
0001
0010
0000
0010
,
1000
0000
1000
0000
1000
0010
1000
0000
,
0001
0010
0001
0000
0001
1000
0001
0000
,
1000
0000
1000
0000
1000
0100
1000
0000
,
0001
0100
0001
0000
0000
0000
0000
0000
,
0001
0000
0001
0000
0001
0010
0001
0000
,
1000
0001
1000
0000
1000
0010
1000
0000
,
0001
0000
0001
0000
0001
0100
0001
0000
,
1000
0100
1000
0000
1000
0001
0000
0001
,
0100
0000
0100
0000
0100
0010
0000
0000
,
0010
0100
0010
0000
0100
0010
0100
0000
,
0010
0000
0001
0000
0100
0010
0100
0000
,
0010
0100
0010
0000
0100
0010
0100
0000
,
1000
0000
0001
0000
1000
0001
0100
0000
,
0001
1000
0100
0000
1000
0001
0100
0000
,
0000
2000
0000
3000
,
0002
0000
0000
0003
,
1000
0100
1000
0100
,
0010
0001
0010
0001
,
1000
0010
1000
0010
,
0100
0001
0100
0001
,
1000
1100
1000
1100
,
0010
0011
0010
0011
,
1000
1010
1000
1010
,
0001
0101
0001
0101
,
1000
0000
1000
0000
1000
0100
0010
0000
,
1000
0100
0010
0000
1000
0100
0010
0000
,
0001
0000
0001
0000
0001
0100
0010
0000
,
0001
0100
0010
0000
0001
0100
0000
0000
,
1000
0000
0001
0000
1000
0001
0100
0000
,
0001
1000
0100
0000
1000
0001
0100
0000
,
1000
0000
0001
0000
0010
1000
0100
0000
,
0010
0001
0100
0000
0010
1000
0100
0000
,
1000
0100
0010
0000
0010
0000
0010
0000
,
0001
0010
0100
0000
0100
0000
0100
0000
,
1000
0001
1000
0000
1000
0000
1000
0000
,
0001
1000
0001
0000
0001
0000
0001
0000
,
0010
1000
0100
0000
0100
0000
0100
0000
,
0010
0001
0100
0000
0100
0000
0100
0000
,
1000
0100
0001
0000
0001
0000
0001
0000
,
0001
0100
1000
0000
1000
0000
1000
0000
,
2001
0001
0001
3001
,
0210
0010
0010
0310
,
0012
0010
0010
0013
,
2100
0100
0100
3100
,
2010
0100
0010
3100
,
1002
0100
0010
0103
,
1000
0100
1000
0100
1000
0100
1000
0100
,
0010
0001
0010
0001
0010
0001
0010
0001
,
1000
0000
1000
0000
1000
0100
0010
0000
,
0001
0000
0001
0000
0001
0010
0100
0000
,
1000
0100
1000
0000
1000
0000
1000
0000
,
0001
0010
0001
0000
0001
0000
0001
0000
,
1000
0000
0010
0000
1000
0010
1000
0000
,
0001
0000
0100
0000
0001
0100
0001
0000
,
0001
0010
0100
0000
0100
0000
0100
0000
,
1000
0100
0010
0000
0010
0000
0010
0000
,
0000
1000
0100
0010
,
0000
0001
0100
0010
,
0000
1000
0010
0100
,
0000
0001
0010
0000
,
0000
1000
0100
0000
,
0000
1000
0100
0000
,
0000
0001
0100
0000
;

//---------------dance-single - ----------------
#NOTES:
     dance-single:
     :
     Beginner:
     1:
     0.174,0.232,0.125,0.000,0.000,113.000,13.000,0.000,0.000,0.000:
0000
0000
0000
0001
,
0000
0000
0000
0001
,
0000
0000
0000
0001
,
0000
0000
0000
1000
,
0000
0000
0000
0010
,
0000
0000
0000
0010
,
0000
0000
0000
0010
,
0000
0010
0000
0010
,
0000
1000
0000
1000
,
0000
1000
0000
1000
,
0000
0001
0000
0001
,
0000
0001
0000
1001
,
0000
0010
0000
0010
,
0000
0010
0000
0010
,
0000
0100
0000
0100
,
0000
0100
0000
0000
,
0000
1000
0000
0000
,
1000
0000
0000
0000
,
0000
0001
0000
0000
,
0001
0000
0000
0000
,
0000
0100
0000
0000
,
0100
0000
0000
0000
,
0000
0010
0000
0000
,
0010
0000
0000
0000
,
0000
0001
0000
0000
,
0010
0000
0000
0000
,
0000
0010
0000
0000
,
0001
0000
0000
0000
,
0000
1000
0000
0000
,
0100
0000
0000
0000
,
0000
1000
0000
0000
,
0100
0000
0000
0000
,
1000
0000
0000
0000
,
1000
0000
0000
0000
,
0100
0000
0000
0000
,
0100
0000
0000
0000
,
0010
0000
0000
0000
,
0010
0000
0000
0000
,
0001
0000
0000
0000
,
0001
0000
0000
0000
,
0001
0000
0000
0000
,
0110
0000
0000
0000
,
1000
0000
0000
0000
,
0110
0000
0000
0000
,
1001
0000
0000
0000
,
0110
0000
0000
0000
,
1001
0000
0000
0000
,
1001
0000
0000
0000
,
1000
0000
1000
0000
,
1000
0000
1000
0000
,
0001
0000
0001
0000
,
0001
0000
0001
0000
,
0010
0000
0010
0000
,
0010
0000
0010
0000
,
0100
0000
0100
0000
,
0100
0000
0100
0000
,
1000
0000
0100
0000
,
0100
0000
0000
0000
,
0001
0000
0100
0000
,
0100
0000
0000
0000
,
0010
0000
1000
0000
,
1000
0000
0000
0000
,
0010
0000
0001
0000
,
0001
0000
0000
0000
,
1000
0000
1000
0000
,
1001
0000
0000
0000
,
0001
0000
0001
0000
,
1001
0000
0000
0000
,
0010
0000
0010
0000
,
1001
0000
0000
0000
,
0100
0000
0100
0000
,
1001
0000
0000
0000
,
1000
0000
1000
0000
,
1000
0000
0001
0000
,
0001
0000
0001
0000
,
0100
0000
0110
0000
,
0001
0000
0001
0000
,
0001
0000
0100
0000
,
0100
0000
0100
0000
,
1000
0000
0001
0000
,
1001
0000
0000
0000
;
