#TITLE:Fury Of The Storm;
#SUBTITLE:;
#ARTIST:DragonForce;
#TITLETRANSLIT:;
#SUBTITLETRANSLIT:;
#ARTISTTRANSLIT:;
#CREDIT:Xoleras20099;
#BANNER:Fury Of The Storm-bn.png;
#BACKGROUND:Fury Of The Storm-bg.png;
#LYRICSPATH:;
#CDTITLE:Xoleras.png;
#MUSIC:Fury Of The Storm.mp3;
#OFFSET:0.008;
#SAMPLESTART:37.593;
#SAMPLELENGTH:27.960;
#SELECTABLE:YES;
#BPMS:0.000=100.000;
#STOPS:;
#BGCHANGES:;
// cache tags:
#FIRSTBEAT:0.333;
#LASTBEAT:673.167;
#SONGFILENAME:Songs/dragon force/DragonForce - Fury Of The Storm/Fury Of The Storm.sm;
#HASMUSIC:1;
#HASBANNER:1;
#MUSICLENGTH:406.954;
// end cache tags

//---------------dance-single - ----------------
#NOTES:
     dance-single:
     :
     Hard:
     12:
     1.000,1.000,0.627,0.354,1.000,3536.000,255.000,144.000,0.000,23.000:
0000
1001
1000
0100
0010
0001
0010
1001
1100
0011
0010
0100
,
1000
0000
0011
0000
0000
0000
1000
0000
0100
0000
0010
0000
0001
0000
0100
0000
0010
0000
1000
0100
0010
0001
0100
0010
,
0001
1000
0100
0010
0000
0000
0110
0000
0000
0000
1000
0000
0100
0000
1000
0000
0011
0000
1000
0000
0100
0000
0010
0000
,
0001
0100
0000
0011
0110
1100
0110
0011
0110
1100
0110
0011
,
1000
0100
0010
0001
0000
0000
0000
1000
0100
0010
0001
0010
0100
0010
0001
0010
0100
1000
0001
1000
0001
0100
0001
0010
,
0001
0100
0001
1000
0001
0100
0001
0010
0001
0100
1000
0100
1000
0100
0010
0001
0100
0010
0001
0100
0010
1000
0100
0010
,
0100
0010
0001
0010
0001
0010
0100
1000
0100
1000
0100
0010
0001
0100
1000
0100
0010
0100
0010
0001
0010
0100
1000
0100
,
0010
0001
0010
0100
0001
0010
0100
1000
0100
0010
1000
0001
0010
0100
0001
1000
0100
0010
0100
0010
0001
0010
0001
1000
,
0100
0001
0010
0100
0010
1000
0001
0100
0010
0001
1000
0010
0100
0001
0010
0100
0001
0010
0100
0001
0010
0100
1000
0100
,
0010
1000
0100
0010
1000
0100
0010
0100
1000
0010
0100
1000
0010
0001
0010
0100
0010
1000
0100
0001
0010
0100
1000
0100
,
0010
0001
0010
0001
0100
1000
0100
1000
0010
0001
0100
1000
0010
0001
0100
1000
0100
0010
0001
0010
0001
0100
1000
0100
,
0010
0100
0001
0010
0100
1000
0100
0010
0100
1000
0100
0010
0001
0010
0100
2000
0000
0000
0200
0000
0000
0000
0000
0000
,
0000
0000
0000
0000
0000
0000
0020
0000
0000
0000
0002
0000
0000
0000
0000
0000
3333
0000
0000
1000
0100
0010
0001
0010
,
0001
0010
0100
1000
0100
1000
0100
0010
0100
0010
0001
0010
0100
1000
0100
0010
1000
0001
0100
0010
0100
1000
0100
0010
,
0001
0010
0100
0001
0100
0010
0001
0010
0100
1000
0100
1000
0100
0010
0100
0001
0100
0010
0100
1000
0100
0010
0001
0010
,
0001
0100
1000
0100
0010
0001
0010
0100
0010
0001
1000
0100
1000
0001
0010
0100
0010
0001
0010
0100
1000
0100
0010
1000
,
0010
0100
1000
0100
0010
1000
0001
0010
0001
1000
0100
1000
0010
0001
0010
0100
0010
0100
1000
0100
0010
0001
0010
0100
,
1000
0100
0010
0100
1000
0001
0010
1000
0100
0010
0100
0010
0100
0001
1000
0100
1000
0001
0010
0100
0010
0001
0010
1000
,
0100
0010
0100
1000
0010
0001
0010
0100
0010
0001
1000
0100
1000
0100
0010
0001
0010
0100
0001
0010
1000
0100
1000
0001
,
0010
0100
0001
1000
0100
0010
1000
0100
0001
0010
0100
1000
0100
1000
0010
0001
0100
0010
1000
0100
1000
0100
0010
0001
,
0010
0100
0001
0010
0100
0001
1000
0100
0010
1000
0100
0010
0100
0010
0001
0010
0100
0010
0001
0010
0100
1000
0100
1000
,
0100
0010
0100
0000
0000
0110
0000
0000
1001
0000
0000
0000
2000
0000
0000
0000
0002
0100
0010
0100
0010
3103
0010
0001
,
1000
0100
1000
0010
0001
0100
0010
0001
0010
0100
1000
0100
0010
0001
0010
0001
1000
0100
1000
0001
0010
0100
0001
0100
,
0010
0001
1000
0100
0010
0100
0001
0100
1000
0100
0010
0001
0010
1000
0100
0001
1000
0100
0010
1000
0001
0100
1000
0100
,
0001
0100
0010
0001
0010
0100
1000
0100
0010
0001
0010
0100
1000
0100
0010
0100
0001
1000
0100
0010
1000
0100
0010
0001
,
0010
0001
0100
1000
0100
0010
0100
0001
1000
0100
1000
0010
0001
0100
1000
0100
1000
0100
0010
0001
0010
0100
1000
0100
,
0010
0001
0100
0010
1000
0100
1000
0001
0010
0100
0010
0001
0010
0100
1000
0100
1000
0100
0010
0001
0010
0100
0010
1000
,
0100
0010
1000
0100
0010
0100
1000
0100
0010
0001
0010
0100
0010
0001
0010
1000
0100
0010
0001
0010
0001
0100
1000
0100
,
0001
0100
0010
0001
0010
0100
1000
0100
0010
0001
0010
0100
1000
0100
0010
0100
0001
1000
0100
0010
1000
0100
0010
0001
,
0010
0001
0000
0000
0000
0020
0032
0203
2300
3000
0000
0000
0000
0100
1000
0100
1000
0100
0010
0001
0010
0100
1000
0100
,
0010
0001
0100
0010
1000
0100
1000
0001
0010
0100
0010
0001
0010
0100
1000
0100
1000
0100
0010
0001
0010
0100
0010
1000
,
0100
0010
1000
0100
0010
0100
1000
0100
0010
0001
0010
0100
0010
0001
0010
1000
0100
0010
0001
0100
0010
0001
0010
0100
,
1000
0100
0010
0001
0100
0010
1000
0100
1000
0001
0010
0100
0010
0001
0010
0100
1000
0100
1000
0100
0010
0001
0010
0100
,
0010
1000
0100
0010
1000
0100
0010
0100
1000
0100
0010
0001
0010
0100
1000
0000
0000
0000
0000
0000
1010
0000
0011
0000
,
1001
0110
1010
0110
1001
0101
1010
1100
0110
0101
1100
0110
,
1100
0011
1010
0110
0101
1100
0011
0101
1010
1100
0110
0101
,
1001
0110
0101
1010
1100
0011
0101
1010
1100
1010
0101
0011
,
1100
0000
0011
0000
1010
0000
0110
0000
1010
0000
0101
0000
0011
0000
0110
0000
1001
0000
0000
0000
0001
0010
0100
1000
,
0100
0010
0100
0001
1000
0100
0010
1000
0100
0010
0001
0010
0001
0000
0100
0010
0001
0010
0100
1000
0100
0010
0001
0100
,
0010
1000
0100
1000
0001
0010
0100
0010
0001
0010
0100
1000
0100
1000
0100
0010
0001
0010
0100
0010
1000
0100
0010
1000
,
0100
0010
0100
1000
0100
0010
0001
0010
0100
0010
0001
0010
1000
0100
0010
0001
0010
0001
0100
1000
0100
0001
0100
0010
,
0001
0010
0100
1000
0100
0010
0001
0010
0100
1000
0100
0010
0100
0001
1000
0100
0010
1000
0100
0010
0001
0010
0001
0010
,
0100
1000
0100
0010
0100
1000
0100
0010
0001
0010
0100
1000
0100
0001
0010
0100
1000
0010
0100
0001
0010
0001
0100
1000
,
0010
0100
0001
1000
0100
0010
0100
0001
0010
0100
1000
0100
0010
0100
0010
1000
0001
0100
0010
1000
0100
0010
0001
1000
,
0100
0010
0001
0010
0100
1000
0100
0010
0100
0010
0001
0010
0100
0010
0100
1000
0100
0010
0100
1000
0100
0010
0001
0010
,
0100
1000
0000
0000
0000
0000
0000
2000
0000
0000
0200
0000
0000
0020
0000
0000
0002
3333
0000
0000
0000
1000
0100
0010
,
0100
0010
0001
0100
1000
0100
0010
0001
0010
0100
0010
0100
0001
1000
0001
0100
0010
1000
0100
0010
0001
0010
0100
1000
,
0100
0010
0100
0010
0001
0010
0100
0001
0010
0001
1000
0100
0010
0100
0010
0001
0010
0100
1000
0100
0010
0100
0001
0010
,
0100
0010
0100
0001
0010
1000
0100
0010
0100
0010
1000
0100
0010
0100
0010
0001
1000
0100
0010
0100
0001
0010
0100
0010
,
0100
1000
0100
0010
0001
0010
0001
0100
1000
0100
0010
0001
0010
0100
0010
0001
0100
1000
0100
0010
0001
0100
0010
0100
,
0010
0001
0010
0001
0010
0100
1000
0100
0010
0100
0010
0001
0010
0100
1000
0100
0010
0001
0010
0001
0010
0100
0010
0001
,
0010
0100
1000
0100
0010
0100
1000
0100
0010
0001
0010
0100
0000
0000
1000
0000
0000
1100
0000
0000
0000
0000
0000
0000
,
0000
0000
0000
0000
0110
0000
0000
0000
0000
0000
0000
0000
0000
0000
0000
1000
0100
0010
0100
0010
0001
0010
0100
1000
,
0010
0100
0001
0010
0001
0010
0100
1000
0010
0100
0001
0010
0100
1000
0100
0010
0100
0010
0001
0010
0100
0010
0001
0010
,
0100
1000
0100
0010
1000
0100
0010
1000
0010
1000
0100
0010
0100
0010
0100
1000
0100
0010
0001
0010
0001
0100
0010
1000
,
0010
0001
1000
0100
0010
0001
1000
0010
0100
0001
0100
0010
0100
1000
0100
0010
0001
0010
1000
0100
0001
0010
1000
0100
,
0010
0100
0001
1000
0100
1000
0001
0010
0100
0001
0010
0100
1000
0100
0010
0100
0010
0001
0010
0001
1000
0100
0010
0100
,
0010
1000
0100
0010
0001
0010
0100
0001
0010
1000
0100
0010
0001
1000
0100
0010
0001
0010
0100
0010
1000
0100
0010
0001
,
0010
1000
0101
0010
0100
0001
0100
0001
0010
0100
1000
0100
0010
1000
0010
1000
0100
0010
0001
0100
0010
1000
0100
0010
,
0001
0010
0100
0001
0010
0100
1000
0100
0010
1000
0010
0001
0100
0010
0100
1000
0100
0010
1000
0001
0010
0100
1000
0010
,
0100
0001
1000
0100
0010
2000
3020
0032
0203
0320
0032
2003
3200
0320
2030
3000
0000
0000
1000
0100
0010
0001
0010
0100
,
1000
0010
1000
0010
0001
0100
0001
0100
0010
1000
0100
0010
0001
0100
1000
0010
1000
0010
1000
0010
0100
0001
0100
0001
,
0100
0001
0100
1000
0100
1000
0100
1000
0010
0001
0010
0001
0010
0001
1000
0001
1000
0001
1000
0001
0100
0010
0100
0010
,
0100
0010
1000
0100
0010
0001
0100
0010
1000
0100
0010
0100
0010
0001
1000
0100
0001
0010
0100
0010
1000
0100
0001
0010
,
0100
1000
0100
0010
0001
0010
0001
0100
1000
0100
0010
0100
0010
1000
0100
0010
0001
0000
1100
0000
0110
0000
0011
0000
,
0110
1100
0110
0011
1001
0110
1100
0110
0011
0110
1100
1001
,
0110
0101
1010
1100
0110
0011
0101
1010
1100
0011
1001
0110
,
1100
0110
0011
0110
1100
0110
0011
1001
0110
1010
0101
0011
,
1100
0000
0110
0000
1001
0000
1100
0000
0011
0000
1001
0000
0110
0000
1100
0000
0011
0000
0110
0000
0000
0000
0000
0100
,
1000
0100
0010
0001
0100
0010
0100
1000
0100
0010
0001
0100
0010
1000
0100
0010
1000
0001
0010
0100
0010
1000
0100
0010
,
0001
1000
0100
0010
0001
0100
0010
0001
1000
0100
0010
0001
0100
0010
0001
1000
0100
0010
1000
0100
0010
0100
0001
0010
,
0100
0010
0100
1000
0010
0100
0001
0100
1000
0010
0100
1000
0001
0010
0100
1000
0100
0001
0010
0100
1000
0100
0010
0001
,
0100
0010
1000
0100
0010
0001
0100
1000
0010
1000
0100
0010
0001
1000
0100
0010
1000
0000
0010
0100
1000
0100
0010
0001
,
0010
0100
1000
0100
0010
0001
0010
0100
0001
0100
0010
0001
0010
0100
1000
0100
0010
0001
0010
0100
0010
1000
0001
0100
,
0010
0001
0100
1000
0100
0010
0001
0010
0100
0010
0001
1000
0100
0010
0100
0001
0010
0100
1000
0100
0010
0001
0010
0001
,
0100
1000
0100
0010
0001
0010
0001
0000
0010
0100
1000
0100
0010
0001
0010
0100
0001
0010
0100
0001
0100
0001
0010
0100
,
1000
0100
0010
0001
0000
0000
2000
0000
0000
0200
0000
0000
0020
0000
0000
0002
0000
0000
3333
0000
0000
0000
0000
0000
,
1000
0100
0010
0001
0010
0001
0010
0100
1000
0100
0010
1000
0010
0100
1000
0100
0010
0001
0010
0100
0010
0001
0010
0100
,
1000
0100
0010
0100
0010
0001
0010
0100
1000
0100
1000
0010
0001
0010
0100
1000
0100
0001
0010
0100
0010
0001
1000
0100
,
1000
0100
0010
0100
1000
0100
0010
0100
0010
1000
0100
0010
0100
0010
0001
0010
1000
0100
0001
0010
0100
1000
0010
0100
,
0001
0010
0100
1000
0010
0001
1000
0100
0010
0001
0100
0010
1000
0100
0010
0001
0100
0010
0001
0010
0100
1000
0001
0010
,
0100
1000
0010
0100
0001
0010
1000
0100
0010
0001
0100
0010
0001
1000
0100
0010
0100
0010
1000
0001
0010
0100
0010
0100
,
0001
0010
0100
1000
0100
0010
1000
0100
0010
0100
0010
0001
0000
2000
0000
0000
0200
0000
0000
0010
0000
0000
0000
0020
,
0000
0000
0000
3330
0002
0000
0000
0020
0000
0000
0100
0000
0000
0000
0000
1200
0000
1333
0000
0000
1000
0100
0010
0001
,
1000
0100
0010
0001
1000
0100
0010
0001
0000
2000
0000
0000
3100
0002
0000
0013
2000
3100
0020
0000
0100
0032
0000
0000
,
1000
0203
0000
0010
0302
0000
0000
1000
0003
0200
0000
0310
0002
0000
0103
2000
0000
3010
0200
0000
1300
0002
0000
0100
,
0023
0000
1030
0200
0000
0301
0020
0000
0031
2000
0000
3100
0020
0000
0130
0002
0000
1003
0200
0000
0310
2000
0000
3001
,
0020
0000
1030
0002
0000
1003
0200
0000
0310
2000
0000
3001
0020
0000
0031
0200
0000
0301
0020
0000
1030
0002
0000
1003
,
0200
0000
0310
0002
0000
1003
0000
0000
0000
1100
0000
0110
0000
0011
0000
0110
0000
1100
0000
0110
0000
1100
0000
0110
,
0000
0011
0000
1100
0000
0110
0000
0011
0000
0110
0000
1100
0000
0011
0000
0110
0000
0011
0000
1100
0000
1001
0000
1010
,
0000
0101
0000
0110
0000
1001
0000
0101
0000
1010
0000
0110
0000
0011
0000
1100
0000
0110
0000
0011
0000
1100
0000
0110
,
0000
0011
0000
1100
0000
0110
0000
0011
0000
0110
0000
1100
0000
0110
0000
1001
0000
0101
0000
1010
0000
0110
0000
1001
,
0000
0110
0000
1100
0000
0110
0000
0011
0000
0110
0000
1100
0000
0110
0000
0011
0000
1001
0000
1100
0000
0110
0000
0011
,
0000
0110
0000
1100
0000
1001
0000
0110
0000
0101
0000
1010
0000
1100
0000
0011
0000
1100
0000
0110
0000
0011
0000
0110
,
0000
1100
0000
0110
0000
0011
0000
1001
0000
0110
0000
1010
0000
0101
0000
1100
0000
0011
0000
1010
0000
0101
0000
0011
,
0000
1100
0000
0110
0000
1001
0000
0101
0000
0101
0000
1010
0000
1010
0000
0011
0000
0011
0000
0101
0000
0101
0000
1001
,
0000
1001
0000
0000
0000
0000
1000
0100
0010
0001
0100
0010
0000
1000
0100
0010
0001
0100
0010
0000
1000
0100
0010
0001
,
1000
0100
0010
0001
0000
0100
0010
0001
1000
0100
0010
0000
1000
0100
0010
0001
0100
0010
1000
0100
0010
0001
0100
0010
,
1000
0100
0010
0001
0100
0010
0001
0010
0100
1000
0010
0100
0001
0010
0100
1000
0010
0100
0001
0010
0100
0010
0100
1000
,
0100
0010
0100
0010
0001
0010
0100
0010
0100
1000
0100
0010
0100
0010
0001
0010
0100
0010
0100
1000
0100
0010
0000
0100
,
0010
0001
0010
0100
0010
0100
1000
0000
0000
0000
0000
1000
0100
0010
0001
0010
0100
0010
0001
0010
0100
1000
0100
0010
,
0100
1000
0100
0010
0001
0010
0100
0010
0001
0010
0100
1000
0100
0010
0100
1000
0100
0010
0001
0010
0100
1000
0010
0100
,
1000
0001
0010
0001
0100
1000
0100
0010
0100
0001
0010
0100
0001
0100
0001
0010
0100
1000
0100
0010
1000
0010
0100
1000
,
0100
0010
0001
0010
0100
1000
0100
0010
0001
1000
0100
0010
0001
1000
0100
0010
1000
0100
0010
1000
0100
0001
0010
0100
,
1000
0010
0100
0001
0010
1000
0100
0010
0100
0001
1000
0100
0010
0001
1000
0100
0001
0100
1000
0100
0010
1000
0010
0001
,
0100
0010
1000
0100
0010
0001
1000
0100
1000
0100
0010
0001
0010
0001
1000
0001
1000
0001
0100
0010
0100
0010
0100
0001
,
0100
0001
0010
1000
0010
1000
0100
0010
0001
0010
0100
1000
0000
0100
0010
1000
0010
0100
1000
0100
0010
0001
0010
0100
,
0001
0100
0010
0001
0010
0100
1000
0100
0010
0001
0010
0100
0001
0010
0100
1000
0010
0100
1000
0100
0010
0001
0010
0100
,
0001
0010
0100
1000
0100
0010
1000
0010
0100
1000
0010
0001
0100
0010
0001
0100
0010
1000
0100
0010
0001
0100
1000
0010
,
1000
0100
0010
0001
0010
0100
0001
0100
1000
0100
0010
1000
0001
0100
0010
0001
1000
0100
0001
1000
0100
0010
0001
0010
,
0100
1000
0010
0001
0100
0010
0001
1000
0100
0010
0001
0100
0010
0001
1000
0100
0010
0001
1000
0100
0001
0010
0100
0001
,
1000
0100
0001
0010
0100
0010
0100
1000
0001
0010
0100
1000
0001
1000
0100
0010
0001
0010
0100
1000
0010
0100
0001
0010
,
0100
0000
0000
0000
0000
0000
0000
0000
1000
0000
0000
0000
0000
0000
0000
0000
0000
0000
0000
0000
0000
0000
0000
0000
0000
0000
0000
0000
0000
0000
0100
0000
0000
0000
0000
0000
0010
0000
0000
0000
0000
0000
0100
0000
0000
0000
0000
0000
0010
0000
0000
0000
0000
0000
0100
0000
0000
0000
0000
0000
0010
0000
0000
0000
0000
0000
0100
0000
0000
0000
0000
0000
0010
0000
0000
0000
0000
0000
0100
0000
0000
0000
0000
0000
0010
0000
0000
0000
0000
0000
0100
0000
0000
0000
0000
0000
0010
0000
0000
0000
0000
0000
0100
0000
0000
0000
0000
0000
0010
0000
0000
0000
0000
0000
0100
0000
0000
0000
0000
0000
0010
0000
0000
0000
0000
0000
0100
0000
0000
0000
0000
0000
0010
0000
0000
0000
0000
0000
0100
0000
0000
0000
0000
0000
0010
0000
0000
0000
0000
0000
0100
0000
0000
0000
0000
0000
0010
0000
0000
0000
0000
0000
0100
0000
0000
0000
0000
0000
0010
0000
0000
0000
0000
0000
0100
0000
0000
0000
0000
0000
0010
0000
0000
0000
0000
0000
0100
0000
0000
0000
0000
0000
,
0010
0100
0010
0100
0010
0100
0010
0100
0001
0100
0001
0100
0001
0100
0001
0100
0001
0100
0001
0100
0001
0100
0001
0100
0001
0100
0001
0100
0001
0100
0001
0100
,
0001
0100
0001
0100
0001
0100
0001
0100
0010
1000
0010
1000
0010
1000
0010
1000
0010
1000
0010
1000
0010
1000
0010
1000
0010
1000
0010
1000
0010
1000
0010
1000
,
0010
1000
0010
1000
0010
1000
0100
0001
0100
0001
0100
0001
0100
0001
0100
0001
0100
0001
0100
0001
0100
0001
0100
0001
0100
0001
0100
0001
0100
0001
0100
0001
,
0100
0001
0100
0001
0100
0001
0100
0001
0000
0000
0000
1000
0100
0010
0001
1000
0100
0010
0001
1000
0100
0010
0001
1000
0100
0010
0001
1000
0100
0010
0001
1000
,
0100
0010
0001
1000
0100
0010
0001
1000
0100
0010
0001
1000
0100
0010
0001
1000
0100
0010
0001
1000
0100
0010
0001
1000
0100
0010
0001
1000
0100
0010
0001
1000
,
0100
0010
0001
1000
0100
0010
0001
0000
0010
1000
0001
0100
0010
1000
0001
0100
0010
1000
0001
0100
0010
1000
0001
0100
0010
1000
0001
0100
0010
1000
0001
0100
,
0010
1000
0001
0100
0010
1000
0001
0100
0010
1000
0001
0100
0010
1000
0001
0100
0010
1000
0001
0100
0010
1000
0001
0100
0010
1000
0001
0100
0010
1000
0001
0100
,
0000
0000
0000
1000
0001
1000
0001
1000
0001
1000
0001
1000
0001
1000
0001
1000
0001
1000
0001
1000
0001
1000
0001
1000
0001
1000
0001
1000
0001
1000
0001
1000
,
0001
1000
0001
1000
0001
1000
0001
1000
0001
1000
0001
1000
0001
1000
0001
1000
0001
1000
0001
1000
0001
1000
0001
1000
0001
1000
0001
1000
0001
1000
0001
1000
,
0001
1000
0001
1000
0001
1000
0001
1000
0001
0010
0001
0010
0001
0010
0001
0010
0001
0010
0001
0010
0001
0010
0001
0010
0001
0010
0001
0010
0001
0010
0001
0010
,
0001
0000
0000
1001
0000
1001
0000
1001
0000
1001
0000
1001
0000
1001
0000
1001
,
0000
0000
1000
0100
0010
0001
0000
0000
0000
0000
1000
0100
0010
0001
0010
0100
0010
0001
0010
0100
1000
0100
0010
1000
,
0010
0001
0100
0010
0001
1000
0100
0010
0000
0100
0010
0001
0100
0010
1000
0000
0002
0023
0032
0003
0002
0003
0020
0032
,
0003
0000
1000
0100
0010
0001
0010
0001
0100
0010
1000
0100
0010
0100
1000
0010
0001
0010
0100
0000
1000
0100
0010
0001
,
0000
2000
0000
3000
0000
0010
0100
1000
0010
0100
1000
0010
0100
0010
0001
0010
0100
1000
0100
0010
1000
0100
0010
0001
,
0100
0010
0100
1000
0100
0010
0001
0010
0001
0100
0010
1000
0100
0010
0001
0010
0100
0010
0001
1000
0100
0010
0001
0100
,
0010
1000
0100
0010
0001
0100
0010
0001
0100
0010
0001
0100
1000
0100
0010
0100
0010
0001
1000
0010
1000
0010
0100
0001
,
0010
1000
0100
0010
1000
0001
0100
0010
0001
0100
1000
0010
0100
0001
0100
0010
1000
0010
0001
0100
0001
1000
0100
0010
,
0001
0100
0010
1000
0001
0010
0100
0010
0001
1000
0100
0010
1000
0001
0100
0010
0001
1000
0010
0100
1000
0010
0100
1000
,
0010
0100
1000
0010
0100
0001
0010
0100
0001
0010
0100
0001
0010
0100
0001
0010
0100
0001
0010
0100
0001
1000
0100
0010
,
0001
0100
0010
0001
1000
0100
0010
0100
0010
0001
0100
0010
0001
0010
0100
1000
0100
0010
1000
0010
0100
1000
0100
0010
,
0001
0010
0100
0010
0001
0100
0000
0010
0001
0100
1000
0010
0001
0010
0100
1000
0100
0010
1000
0010
0100
1000
0100
0010
,
0001
0010
0100
1000
0001
0100
0010
0001
0010
0100
1000
0100
0010
0001
0010
0100
0001
0010
0100
0010
0001
0010
0100
1000
,
0100
0010
0001
0010
0100
0001
0010
0100
1000
0100
0010
1000
0001
0010
0100
0001
1000
0100
0010
0100
0010
0001
0010
0001
,
1000
0100
0001
0010
0100
0010
1000
0001
0100
0010
0001
1000
0010
0100
0001
0010
0100
0001
0010
0100
0001
0010
0100
1000
,
0100
0010
1000
0100
0010
1000
0100
0010
0100
1000
0010
0100
1000
0010
0010
0001
0010
0100
1000
0100
0010
0001
0010
0100
,
0001
0010
0100
1000
0100
0010
1000
0001
0010
0100
0001
1000
0100
0010
0100
0010
0001
0010
0001
1000
0100
0001
0010
0100
,
0010
1000
0001
0100
0010
0000
1100
0001
0010
0100
1000
0011
0000
0100
1000
0100
0010
0001
1001
0010
0100
1000
0001
0010
,
1100
0100
0010
1000
0001
0100
0010
0000
1100
0001
0010
0100
1000
0011
0000
0100
1000
0100
0010
0001
1001
0010
0100
1000
,
0001
0010
1100
0000
1000
0100
0010
0001
0010
0100
0010
0001
0010
0100
0010
1000
0100
0010
0000
0100
0010
0100
1000
0100
,
0010
0100
1000
0010
0001
0010
0100
1000
0100
0010
0001
0010
0100
0010
1000
0001
0010
0100
1000
0100
0010
0001
0010
0000
,
0100
1000
0100
0010
0001
0010
0100
0010
0001
0010
0100
1000
0100
0010
1000
0010
0001
0100
0010
0100
1000
0100
0010
0001
,
0010
0001
0010
0100
0010
0001
0100
1000
0100
0010
1000
0010
0100
0001
0100
0010
1000
0100
0010
0001
0010
0001
1000
0100
,
0010
0001
1000
0100
0010
0100
0010
0001
1000
0100
0010
1000
0001
0010
0100
0010
0001
1000
0100
0010
0001
0010
0100
0010
,
0001
0010
0100
1000
0010
0001
0100
0001
1000
0010
0100
0001
0100
1000
0010
0001
0100
1000
0100
0010
0001
0010
0100
0010
,
0001
0100
1000
0010
0100
0001
0010
0100
1000
0010
0001
0010
0100
1000
0100
0010
0100
0010
0001
0010
0100
1000
0010
0100
,
0010
0001
0010
0100
1000
0100
0010
0001
0010
0100
0010
0001
0010
0100
0010
0001
0010
0100
1000
0100
0010
0100
1000
0100
,
0010
0100
1000
0100
0010
0100
1000
0100
0010
0001
0010
0100
0001
0010
0100
1000
0010
0100
0001
0010
0100
1000
0010
0100
,
1000
0010
0001
0010
0100
1000
0100
0010
0001
0010
0100
0001
0010
0100
0001
0010
0100
0001
0010
0100
1000
0100
0010
0001
,
0100
0010
0001
1000
0100
0010
0001
1000
0100
0010
1000
0100
0010
0001
0100
0010
0001
0010
0100
1000
0100
0010
0001
0010
,
0100
0010
0100
1000
0100
0010
0001
0010
0000
0100
1000
0100
0010
0001
0010
0100
0010
0001
0010
0100
1000
0100
0010
0000
,
2000
0000
0000
0200
0000
0000
0020
0000
0000
0002
0000
0000
3333
0002
0000
0020
0000
0200
0000
0333
0000
2000
0000
0020
,
0000
0200
0000
0002
0000
3333
0000
0022
0000
0033
2200
0000
3322
0000
0033
0000
0000
0220
0000
0000
0330
0022
0033
2200
,
0000
3300
0220
0000
0000
0330
0022
0000
0000
0033
2200
3300
0220
0000
0330
0022
0000
0033
0220
0000
0330
2200
0000
3300
,
2002
0000
3003
0220
0000
0330
0202
0000
0000
0303
2020
0000
0000
3030
0202
0303
2020
0000
3030
0000
0000
0000
0000
0000
,
0000
0010
0100
1000
0100
0010
0001
0010
0000
0100
1000
0100
0010
0001
0010
0100
0010
0001
0010
0100
1000
0100
0010
1000
,
0010
0001
0100
0010
0100
1000
0100
0010
0001
0010
0001
0010
0100
0010
0001
0100
1000
0100
0010
1000
0010
0100
0001
0100
,
0010
1000
0100
0010
0001
0010
0001
1000
0100
0010
0001
1000
0100
0010
0100
0010
0001
1000
0100
0010
1000
0001
0010
0100
,
0010
0001
1000
0100
0010
0001
0010
0100
0010
0001
0010
0100
1000
0010
0001
0100
0001
1000
0010
0100
0001
0100
1000
0010
,
0001
0100
1000
0100
0010
0001
0010
0100
0010
0001
0100
1000
0010
0100
0001
0010
0100
1000
0010
0001
0010
0100
1000
0100
,
0010
0100
0010
0001
0010
0100
1000
0010
0100
0010
0001
0010
0100
1000
0100
0010
0001
0010
0100
0010
0001
0010
0100
0010
,
0001
0010
0100
1000
0100
0010
0100
1000
0100
0010
0100
1000
0100
0010
0100
1000
0100
0010
0001
0010
0100
0001
0010
0100
,
1000
0010
0100
0001
0010
0100
1000
0010
0100
1000
0010
0001
0010
0100
1000
0100
0010
0001
0010
0100
0001
0000
0000
2200
,
0000
0000
0000
0000
3300
0220
0000
0330
0022
0000
0033
0220
0000
0000
0330
2200
0000
0000
3300
0220
0000
0000
0330
0022
,
0000
0000
0033
0220
0000
0330
2200
0000
3300
0220
0000
0000
0000
0000
0000
0000
0000
0000
0000
0332
0000
0000
2003
0000
,
0000
3002
0000
0000
2003
0000
0000
3000
0000
0000
0000
0000
0000
0000
0000
0000
0000
0000
0000
0000
0000
0000
0000
0000
;
