#TITLE:Pandora;
#SUBTITLE:;
#ARTIST:dj Taka FEAT. Tomomi;
#TITLETRANSLIT:;
#SUBTITLETRANSLIT:;
#ARTISTTRANSLIT:;
#CREDIT:;
#BANNER:pandora-bn.png;
#BACKGROUND:pandora-bg.png;
#LYRICSPATH:;
#CDTITLE:!boombaTitle.png;
#MUSIC:Pandora.mp3;
#OFFSET:0.140;
#SAMPLESTART:49.350;
#SAMPLELENGTH:12.000;
#SELECTABLE:YES;
#BPMS:0.000=148.000;
#STOPS:;
#BGCHANGES:;
// cache tags:
#FIRSTBEAT:1.000;
#LASTBEAT:283.000;
#SONGFILENAME:Songs/Fresh Flock of Fantastic Files F4/(b00mba) Pandora/Quasar.sm;
#HASMUSIC:1;
#HASBANNER:1;
#MUSICLENGTH:122.415;
// end cache tags

//---------------dance-single - ----------------
#NOTES:
     dance-single:
     :
     Hard:
     11:
     1.000,1.000,0.564,0.057,1.000,785.000,69.000,7.000,0.000,0.000:  // measure 1
0000
0000
1000
0010
0101
1000
0012
0100
,  // measure 2
1003
0010
0000
0010
0000
0010
0000
1000
,  // measure 3
0000
0100
0100
1000
0001
0100
1000
0000
,  // measure 4
0010
0000
0010
0010
1000
0100
0002
0100
,  // measure 5
1000
0003
0020
0000
0000
0000
0030
0000
0000
0000
0000
0000
0200
0000
0010
0000
,  // measure 6
0301
0100
0000
0001
0000
1000
0000
1000
,  // measure 7
0010
0000
0000
0000
0100
0000
0000
0000
0010
0000
0000
0000
0100
0001
0000
1000
,  // measure 8
0000
0001
1000
0100
1000
0001
0000
0010
0000
0100
1000
0001
1000
0010
0000
0100
,  // measure 9
0000
0001
0100
0010
1000
0100
0000
1000
0000
0100
0010
0001
1001
0010
0000
1000
,  // measure 10
0000
0001
0100
0001
1000
0001
0000
0010
0000
0100
1000
0010
1000
0100
0000
0010
,  // measure 11
0000
0100
1000
0010
0100
0001
0000
1000
0000
0010
1000
0001
0010
0100
0000
1000
,  // measure 12
0000
0001
1000
0100
0001
1000
0000
0100
0000
0010
0001
1000
0010
0100
0000
0001
,  // measure 13
0000
0100
0001
0010
0100
1000
0000
0010
0000
0100
0011
1000
0011
1000
0000
0001
,  // measure 14
0000
0010
0001
0100
0001
0010
0000
0100
0000
1000
0001
1000
0001
0100
0000
0001
,  // measure 15
0000
1000
0001
1000
0001
1000
0000
0100
0000
1000
0110
0001
0110
1000
0000
0010
,  // measure 16
0000
0100
0001
0100
0001
0100
0000
0001
0000
1000
0001
1000
0001
1000
0000
0001
,  // measure 17
0000
1000
0100
1000
0100
1000
0000
0100
0000
1000
0100
0010
1100
0100
0000
0001
,  // measure 18
0000
0100
0010
0100
0001
0010
0000
0001
0000
0100
0010
0100
1001
0100
0000
0010
,  // measure 19
1000
0100
0000
0001
0110
1000
0000
0010
0001
0100
0000
0000
0110
0000
1001
0000
,  // measure 20
0110
0000
0000
0000
0000
0000
1001
0000
0000
0000
0000
0000
1000
0000
0000
0001
0000
0000
1000
0000
0000
0001
0000
0000
1000
0000
0000
0001
0000
0000
1000
0000
0000
0001
0000
0000
1000
0000
0001
0000
1000
0000
0001
0000
1000
0000
0001
0000
,  // measure 21
1000
0001
1000
0001
1000
0001
1000
0001
1000
0001
1000
0001
1000
0001
1000
0001
1000
0001
0110
0000
0000
0000
0000
0000
,  // measure 22
0000
0000
0000
0000
0000
0000
0000
0000
0000
0000
0000
0000
1000
0100
0010
0001
,  // measure 23
0010
0100
1000
0100
0010
0001
0010
0100
1000
0100
0010
0001
1100
0010
0000
0001
,  // measure 24
0000
0010
1000
0100
1000
0100
0000
0010
0000
0100
1000
0100
0010
0001
0000
0100
,  // measure 25
0000
0001
0100
0010
0100
0001
0000
1000
0000
0100
0010
0001
0010
0100
0000
1000
,  // measure 26
0000
0001
0100
0010
1000
0001
0000
1000
0000
0100
0010
0001
1000
0100
0000
1000
,  // measure 27
0000
0001
0100
0010
1000
0001
0000
0100
0000
0001
0010
0100
1001
0010
0000
0100
,  // measure 28
0000
0010
1000
0100
0010
0001
0000
1000
0000
0001
0100
1000
0110
0001
0000
1000
,  // measure 29
0000
0100
0001
0010
0100
0001
0000
1000
0000
0010
0100
0001
1001
0010
0000
1000
,  // measure 30
0000
0100
1000
0001
1001
0100
0000
1000
0000
0001
0010
0000
0001
0010
0100
1000
,  // measure 31
0100
0010
0001
0010
0100
1000
0100
0010
0001
0010
0100
1000
0110
0000
0001
0000
,  // measure 32
1100
0001
0100
0010
1001
0100
0010
0001
,  // measure 33
1001
0100
1000
0100
1010
0001
0100
0010
,  // measure 34
1001
0010
0100
0001
1001
0100
0010
1000
,  // measure 35
1100
0010
0100
0010
1001
0100
0001
0010
,  // measure 36
0101
1000
0010
0100
1001
0100
0001
0010
,  // measure 37
1100
0000
0010
0000
1000
0000
0010
0000
0101
0000
1000
0000
0200
0300
0020
0030
,  // measure 38
0120
0000
1000
0030
0100
0000
0101
0000
0000
0000
0010
0000
1000
0100
0010
0001
,  // measure 39
0010
0100
1000
0100
0010
0001
0010
0100
1000
0100
0010
0001
1001
0010
0100
0000
,  // measure 40
0101
0000
0100
0001
1000
0001
1000
0000
0110
0000
0001
0010
0100
1000
0010
0000
,  // measure 41
0110
0000
0100
0010
1000
0001
1000
0000
1010
0000
0001
0010
0001
1000
0100
0000
,  // measure 42
0011
0000
0010
0100
1000
0100
0010
0000
1001
0000
1000
0100
0001
1000
0100
0000
,  // measure 43
0011
0000
0100
1000
0001
1000
0010
0000
0101
0000
1010
0000
0000
0000
0001
0000
,  // measure 44
1001
0000
0100
0010
0001
0010
0100
0000
0110
0000
1000
0010
0100
0001
1000
0000
,  // measure 45
0101
0000
1000
0001
0010
0100
1000
0000
1001
0000
0100
0010
0100
0001
1000
0000
,  // measure 46
1010
0000
0100
0001
0010
0001
0010
0000
1100
0000
0100
0000
1100
0000
0010
0000
,  // measure 47
0011
0100
1001
0110
1100
0011
0110
0000
,  // measure 48
0000
1000
0000
0100
1000
0010
0000
0001
,  // measure 49
1000
0100
0000
0001
0010
0100
0001
0100
,  // measure 50
0010
0001
0100
1000
0100
0010
1000
0001
,  // measure 51
0010
0100
0000
0000
0010
0000
0001
0100
,  // measure 52
0010
0001
0000
1000
0000
0000
0011
0000
,  // measure 53
0000
0000
0011
0000
0000
0000
0100
0001
,  // measure 54
1000
0000
0010
0000
0001
0000
1000
0000
0010
0000
1000
0000
0001
0010
0100
1000
,  // measure 55
0100
0010
0001
0010
0100
1000
0100
0010
0001
0010
0100
1000
0110
0001
0010
0001
,  // measure 56
1000
0001
0010
0001
1000
0001
0010
0001
0100
0001
0010
0001
1000
0001
0010
0001
,  // measure 57
0100
0001
1000
0001
0010
0001
0100
0001
1000
0001
0010
0001
0110
1000
0100
1000
,  // measure 58
0001
1000
0100
1000
0010
1000
0100
1000
0001
1000
0010
1000
1001
0100
0010
0100
,  // measure 59
0001
0100
0010
0100
0001
0100
0010
0100
0001
0100
0010
0100
1001
0010
0100
0010
,  // measure 60
1000
0010
0100
0010
1000
0010
0100
0010
1000
0010
0100
0010
0101
1000
0001
0010
,  // measure 61
0001
0000
0000
1000
0000
0000
0010
0000
0000
1000
0000
0000
0110
0000
0000
0001
0000
0000
0010
0000
0000
0100
0000
0000
1001
0000
0000
0100
0000
0000
0010
0000
0000
1000
0000
0000
0010
0000
0100
0000
0010
0000
0100
0000
0010
0000
0100
0000
,  // measure 62
0010
0000
0100
0000
0010
0000
0100
0000
0010
0000
0100
0000
0010
0000
0100
0000
0010
0000
0100
0000
0010
0000
0100
0000
0010
0000
0100
0000
0010
0000
0100
0000
0010
0000
0100
0000
0010
0000
0000
1000
0000
0000
0010
0000
0000
0000
0000
0000
,  // measure 63
0010
0000
0000
0001
0000
0000
0100
0000
0000
0000
0100
0000
0010
0000
0001
0000
1000
0000
0100
0000
0010
0000
0001
0000
1000
0000
0100
0000
0010
0000
0001
0000
1000
0000
0100
0000
1001
0000
0000
0100
0000
0000
0000
0000
0000
0010
0000
0000
,  // measure 64
0000
1000
0010
0100
0001
0010
0000
0100
0000
0010
1000
0010
0001
0100
0000
1000
,  // measure 65
0000
0010
0100
1000
0010
0001
0000
0100
0000
1000
0100
1000
0001
0010
0000
1000
,  // measure 66
0000
0100
0001
1000
0001
0010
0000
0100
0000
0001
0100
0010
0100
1000
0000
0001
,  // measure 67
0000
1000
0100
1000
0100
0010
0000
1000
0000
0010
0100
0001
0010
1000
0000
0010
,  // measure 68
0000
0100
0001
0100
0010
1000
0000
0100
0000
0010
0001
0100
0010
1000
0000
0100
,  // measure 69
0000
0001
0010
0001
0100
1000
0000
0100
0000
0010
0100
1000
0010
0001
0000
1000
,  // measure 70
0000
0001
0100
0010
1000
0010
0000
0010
0000
0001
0010
0100
1000
0100
0010
0001
,  // measure 71
0010
0100
1000
0100
0010
0001
0010
0100
1000
0100
0010
0001
1001
0000
0000
0000
;
