#TITLE:DROP THE BOMB;
#SUBTITLE:(Original Extended Mix);
#ARTIST:Scotty D.;
#TITLETRANSLIT:;
#SUBTITLETRANSLIT:;
#ARTISTTRANSLIT:;
#CREDIT:jammitch!;
#BANNER:DROP THE BOMB (Original Extended Mix).png;
#BACKGROUND:DROP THE BOMB (Original Extended Mix)-bg.png;
#LYRICSPATH:DROP THE BOMB (Original Extended Mix).lrc;
#CDTITLE:jammitch!.png;
#MUSIC:DROP THE BOMB (Original Extended Tune).mp3;
#OFFSET:0.690;
#SAMPLESTART:15.654;
#SAMPLELENGTH:12.540;
#SELECTABLE:YES;
#BPMS:0.000=150.100;
#STOPS:36.000=1.600
,52.000=1.600
,323.500=0.400
;
#BGCHANGES:;
// cache tags:
#FIRSTBEAT:12.000;
#LASTBEAT:324.000;
#SONGFILENAME:Songs/dragon force/DROP THE BOMB (Original Extended Mix)/DROP THE BOMB (Original Extended Mix).sm;
#HASMUSIC:1;
#HASBANNER:0;
#MUSICLENGTH:146.055;
// end cache tags

//---------------dance-single - Heavy----------------
#NOTES:
     dance-single:
     Heavy:
     Hard:
     8:
     0.551,0.555,0.431,0.110,0.103,484.000,63.000,16.000,0.000,0.000:
0000
0000
0000
0000
,
0000
0000
0000
0000
,
0000
0000
0000
0000
,
1000
0100
1000
0000
0010
0100
0010
0000
,
0001
0010
0001
0000
1000
0001
1000
0000
,
0100
1000
0100
0000
0010
0100
0010
0000
,
0001
0010
0001
0000
1000
0001
1000
0000
,
0100
0010
0001
0000
0100
0010
1000
0000
,
0001
0010
0100
0000
1000
0001
0010
0000
,
1001
0000
0000
0000
0000
0010
0100
1000
,
1001
0000
0001
0000
0010
0000
0100
0000
0000
0100
1000
0000
0001
0000
0010
0000
,
0100
1000
0001
1000
0000
0100
0010
0001
,
1001
0000
1000
0000
0100
0000
0010
0000
0000
0010
0001
0000
1000
0000
0100
0000
,
1100
0000
0000
0000
0000
0100
0100
0100
,
2001
0100
0010
3001
,
1002
0100
0010
1003
,
1200
0010
0001
1300
,
0021
0100
1000
0031
,
1000
0100
0001
0100
0001
0100
0010
0001
,
0010
0100
0010
1000
0010
0100
0010
0001
,
0100
1000
0100
0010
0100
0001
0100
1000
,
0100
0010
1000
0010
0001
0010
1000
0001
,
1001
0001
1000
0010
1000
0100
0001
0100
,
1000
0010
0001
0010
0100
1000
0100
0010
,
0001
0010
1000
0100
0010
0001
0100
1000
,
0100
0001
0010
0100
1000
0010
0001
0010
,
1000
0010
0100
0010
0001
0010
0100
0000
,
0001
0100
0010
0100
1000
0100
0010
0000
,
1000
0100
0001
0100
0010
0100
1000
0000
,
0001
0010
1000
0010
0100
0010
0001
0000
,
1000
0100
0001
0100
1000
0010
0001
0000
,
0001
0010
1000
0100
0001
0100
1000
0000
,
1000
0010
0001
0010
1000
0100
0001
0000
,
0001
0100
1000
0010
0001
0010
1000
0001
,
0110
0000
0100
0000
0010
0000
1000
0000
0000
0001
0100
0000
0010
0000
1000
0000
,
0001
0010
0100
1000
0000
0100
0010
1000
,
1001
0000
0001
0000
0010
0000
0100
0000
0000
1000
0100
0000
0010
0000
0001
0000
,
1000
0001
0010
0100
0000
0001
1000
0100
,
0110
0000
0010
0000
0001
0000
1000
0000
0000
0001
0010
0000
0100
0000
1000
0000
,
0100
0001
0100
1000
0100
0010
0100
0010
,
0110
0000
0100
0000
1000
0000
0001
0000
0000
0010
0100
0000
1000
0000
0001
0000
,
0010
0000
0100
0000
1000
0000
0001
0000
0000
0001
0010
0000
0100
0000
1000
0000
,
2002
0000
3003
0000
,
0110
0000
0000
0011
0000
0000
1001
0000
1001
0000
0000
0000
0000
0000
0000
0000
,
0110
0000
0000
1100
0000
0000
1001
0000
1001
0000
0000
0000
0000
0000
0000
0000
,
1001
0000
0000
0101
0000
0000
0110
0000
0110
0000
0000
0000
0000
0000
0000
0000
,
1001
0000
0000
1010
0000
0000
0110
0000
0110
0000
0000
0000
0000
0000
0000
0000
,
2002
0000
0000
0000
0000
0000
0003
3001
,
0012
0000
0000
0203
0000
0320
0000
1030
,
1010
0001
0001
0001
,
1000
0100
1000
0100
1000
0100
1000
0100
1000
0000
0100
0000
1000
0000
0100
0000
,
2002
0000
0000
0000
0000
0000
3000
1003
,
2100
0000
0000
3020
0000
0230
0000
0301
,
0101
0000
0000
0000
,
0000
0000
0000
0000
,
0010
1000
0100
0001
0100
1000
0010
0000
,
0010
0001
0100
1000
0100
0001
0010
0000
,
0100
1000
0010
0001
0010
1000
0100
0000
,
0100
0001
0010
1000
0010
0001
0100
0000
,
1000
0100
0010
0100
0001
0100
0010
0100
,
0010
0001
0010
0100
0010
1000
0010
0100
,
1000
0010
0001
0010
0100
0010
0001
0010
,
0100
0001
0100
1000
0100
0010
0100
0000
,
1100
0000
0000
1001
0000
0000
0011
0000
0011
0000
0000
0000
0000
0000
0000
0000
,
0101
0000
0000
1001
0000
0000
1010
0000
1010
0000
0000
0000
0000
0000
0000
0000
,
0110
0000
0000
1001
0000
0000
1100
0000
1100
0000
0000
0000
0000
0000
0000
0000
,
1001
0000
0000
0110
0000
0000
0011
0000
0011
0000
0000
0000
0001
0000
0001
0000
,
1001
0000
0100
0000
0010
0000
0001
0000
0000
0010
0100
0000
1000
0000
0010
0000
,
0100
0001
0010
0100
0000
1000
0001
0010
,
0011
0000
0001
0000
0010
0000
0100
0000
0000
1000
0001
0000
0100
0000
1000
0000
,
0100
0001
0010
0100
0000
1000
0100
0010
,
0110
0000
0100
0000
1000
0000
0001
0000
0000
0010
0100
0000
0100
0000
0100
0000
,
1001
0000
0001
0000
0010
0000
0100
0000
0000
0100
0010
0000
0010
0000
0010
0000
,
1001
0000
1000
0000
0100
0000
0010
0000
0000
0001
1000
0000
1000
0000
1000
0000
,
0110
0000
0100
0000
0010
0000
0001
0000
0000
1000
0001
0000
0001
0000
0001
0000
,
1001
0000
0001
0000
0010
0000
0100
0000
0000
1000
0010
0000
0100
0000
0001
0000
,
0010
0100
1000
0001
0000
0100
0100
0100
,
0011
0000
0000
0000
0000
0000
0000
0010
,
1001
0000
0000
0000
0000
0000
0000
0010
,
1001
0000
0000
0000
,
1000
0100
0010
0000
0001
1000
0100
0000
0010
0001
1000
0000
0100
0010
0001
0000
,
1001
0000
0000
0000
;

//---------------dance-single - Standard----------------
#NOTES:
     dance-single:
     Standard:
     Medium:
     7:
     0.452,0.444,0.253,0.205,0.027,395.000,37.000,30.000,0.000,0.000:
0000
0000
0000
0000
,
0000
0000
0000
0000
,
0000
0000
0000
0000
,
0100
0000
0100
0000
0100
0010
1000
0000
,
0010
0000
0010
0000
0010
0100
0001
0000
,
1000
0000
1000
0000
1000
0010
0100
0000
,
0001
0000
0001
0000
0001
0100
0010
0000
,
0100
0000
0100
0000
1000
0001
1000
0000
,
0010
0000
0010
0000
0001
1000
0001
0000
,
1001
0000
0000
0000
0000
1000
0001
1000
,
1001
0000
0000
0000
0000
1000
0100
0010
,
0001
0000
0000
0000
0000
0100
0010
0100
,
0110
0000
0000
0000
0000
0100
1000
0100
,
1100
0000
0000
0000
0000
0001
0010
0100
,
2100
0100
0100
3100
,
0102
0100
0100
0103
,
2010
0010
0010
3010
,
0012
0010
0010
0013
,
1000
0100
0010
0001
0100
0010
1000
0000
,
0001
0100
0010
1000
0100
0010
0001
0000
,
0001
1000
0100
0010
0100
1000
0001
0000
,
1000
0001
0010
0100
0010
0001
1000
0000
,
1000
0010
0100
0010
1000
0001
0100
0000
,
0001
0100
0010
0100
0001
1000
0100
0000
,
0001
1000
0010
0100
0001
0100
0010
0000
,
1000
0001
0100
0010
1000
0010
0100
0000
,
2200
0000
0000
0000
0000
0000
0300
3100
,
0220
0000
0300
0002
0030
2000
0003
3001
,
1001
1000
1000
1000
,
0001
1000
0100
0010
0001
0100
0010
0000
,
0022
0000
0000
0000
0000
0000
0030
0013
,
0220
0000
0030
2000
0300
0002
3000
1003
,
1001
0001
0001
0001
,
0001
1000
0100
0010
0001
0100
0010
0000
,
0110
0000
1000
0001
0000
1000
0100
0010
,
0001
0010
0100
1000
0000
0100
0010
0000
,
1001
0000
0010
0100
0000
0100
0010
1000
,
0001
1000
0010
0100
0000
0001
1000
0000
,
0110
0000
0001
1000
0000
1000
0001
0010
,
0100
0010
0001
1000
0000
1000
0001
0000
,
0110
0000
1000
0001
0000
0100
1000
0001
,
0010
0100
1000
0001
0000
0010
0100
0000
,
2002
0000
3003
0000
,
0010
0000
0000
0001
0000
0000
1000
0000
1000
0000
0000
0000
0000
0000
0000
0000
,
0100
0000
0000
1000
0000
0000
0001
0000
0001
0000
0000
0000
0000
0000
0000
0000
,
1000
0000
0000
0001
0000
0000
0010
0000
0010
0000
0000
0000
0000
0000
0000
0000
,
0001
0000
0000
1000
0000
0000
0100
0000
0100
0000
0000
0000
0000
0000
0000
0000
,
2002
0000
0000
0000
0000
0000
0003
3001
,
0022
0000
0030
0200
0003
0320
0000
1030
,
1010
1000
1000
1000
,
1000
0100
0010
0001
0010
0100
1000
0000
,
2002
0000
0000
0000
0000
0000
3000
1003
,
2200
0000
0300
0020
3000
0230
0000
0301
,
0101
0000
0000
0000
,
0000
0000
0000
0000
,
1000
0100
0010
0001
0100
0010
1000
0000
,
0001
0010
0100
1000
0010
0100
0001
0000
,
1000
0010
0100
0001
0010
0100
1000
0000
,
0001
0100
0010
1000
0100
0010
0001
0000
,
1000
0001
0010
0100
0010
0001
1000
0000
,
0001
1000
0010
0100
0010
1000
0001
0000
,
1000
0001
0100
0010
0100
0001
1000
0000
,
0001
1000
0100
0010
0100
1000
0001
0000
,
0100
0000
0000
1000
0000
0000
0001
0000
0001
0000
0000
0000
0000
0000
0000
0000
,
0100
0000
0000
0001
0000
0000
1000
0000
1000
0000
0000
0000
0000
0000
0000
0000
,
0010
0000
0000
1000
0000
0000
0100
0000
0100
0000
0000
0000
0000
0000
0000
0000
,
0100
0000
0000
0001
0000
0000
0010
0000
0010
0000
0000
0000
0000
0000
0000
0000
,
1001
0000
0100
0010
0000
0100
0010
0001
,
0100
0001
0010
0100
0000
1000
0100
0000
,
0011
0000
0100
1000
0000
1000
0100
0010
,
0100
1000
0001
0010
0000
0010
0001
0000
,
1100
0000
0010
0001
0000
1000
0010
0000
,
0101
0000
0010
1000
0000
0100
0001
0000
,
1010
0000
0100
0001
0000
0001
1000
0000
,
0110
0000
1000
0001
0000
0100
0010
0000
,
1001
0000
0010
0100
0000
1000
0100
0000
,
0011
0000
1000
0100
0000
0100
0010
0000
,
1001
0000
0010
0100
0000
1000
0010
0000
,
0101
0000
0010
1000
0000
1000
0100
0000
,
0011
0000
0100
1000
0000
1000
0100
0000
,
1000
0100
0010
0001
1000
0010
0100
0001
,
1001
0000
0000
0000
;

//---------------dance-single - Light----------------
#NOTES:
     dance-single:
     Light:
     Easy:
     5:
     0.339,0.388,0.596,0.260,0.027,222.000,87.000,38.000,0.000,0.000:
0000
0000
0000
0000
,
0000
0000
0000
0000
,
0000
0000
0000
0000
,
0100
0100
0100
1001
,
0010
0010
0010
1001
,
1000
1000
1000
0110
,
0001
0001
0001
0110
,
0100
0100
1000
0011
,
0010
0010
0001
1100
,
1001
0000
0010
0010
,
1001
0000
0100
0100
,
1001
0000
1000
0001
,
0110
0000
0001
1000
,
0110
0000
0000
0010
,
2002
0003
0002
3003
,
0220
0300
0200
0330
,
2020
0030
0020
3030
,
0202
0300
0200
0303
,
1000
1000
0100
0011
,
0001
0001
0010
1100
,
0010
0010
1000
0101
,
0100
0100
0001
1010
,
1000
0100
0010
0011
,
0001
0100
0010
1010
,
1000
0010
0100
0101
,
0001
0010
0100
1100
,
2002
0000
0000
3003
,
0110
0000
0000
0002
0000
2000
0000
3003
,
1001
0000
0000
0000
,
0000
0000
0000
0000
,
2002
0000
0000
3003
,
0110
0000
0000
2000
0000
0002
0000
3003
,
1001
0000
0000
0000
,
0000
0000
0000
0000
,
0110
0110
1000
1000
,
0011
0011
0100
0100
,
1001
1001
0010
0010
,
1100
1100
0001
0001
,
0110
0110
0001
0001
,
1010
1010
0100
0100
,
1001
1001
0010
0010
,
0101
0101
1000
1000
,
2002
0000
3003
0000
,
0010
0000
0000
0001
0000
0000
0000
0000
1000
0000
0000
0000
0000
0000
0000
0000
,
0100
0000
0000
1000
0000
0000
0000
0000
0001
0000
0000
0000
0000
0000
0000
0000
,
1000
0000
0000
0001
0000
0000
0000
0000
0010
0000
0000
0000
0000
0000
0000
0000
,
0001
0000
0000
1000
0000
0000
0000
0000
0100
0000
0000
0000
0000
0000
0000
0000
,
2002
0000
0000
3003
,
0011
0000
0000
2000
0000
0200
0000
3300
,
1100
0000
0000
0000
,
0000
0000
0000
0000
,
2002
0000
0000
3003
,
1100
0000
0000
0002
0000
0020
0000
0033
,
0011
0000
0000
0000
,
0000
0000
0000
0000
,
0220
0000
0000
0330
,
0101
0000
0000
0020
0000
2000
0000
3030
,
1010
0000
0000
0000
,
0000
0000
0000
0000
,
0220
0000
0000
0330
,
1010
0000
0000
0200
0000
0002
0000
0303
,
0101
0000
0000
0000
,
0000
0000
0000
0000
,
0100
0000
0000
1000
0000
0000
0000
0000
0001
0000
0000
0000
0000
0000
0000
0000
,
0100
0000
0000
0001
0000
0000
0000
0000
1000
0000
0000
0000
0000
0000
0000
0000
,
0010
0000
0000
1000
0000
0000
0000
0000
0100
0000
0000
0000
0000
0000
0000
0000
,
0100
0000
0000
0001
0000
0000
0000
0000
0010
0000
0000
0000
0000
0000
0000
0000
,
1100
1100
0010
0010
,
0110
0110
0001
0001
,
0011
0011
1000
1000
,
1001
1001
0100
0100
,
0101
0101
0010
0010
,
0110
0110
1000
1000
,
1010
1010
0001
0001
,
1001
1001
0100
0100
,
1001
0010
0101
0100
,
0011
1000
1100
0010
,
0011
0100
0101
0010
,
1010
0010
1001
0100
,
1001
0100
0011
0100
,
1001
0010
1001
0010
,
1001
0000
0000
0000
;
