#TITLE:Master of Tartarus;
#SUBTITLE:Persona 3;
#ARTIST:Shoji Meguro;
#TITLETRANSLIT:;
#SUBTITLETRANSLIT:;
#ARTISTTRANSLIT:;
#CREDIT:;
#BANNER:Master of Tartarus.png;
#BACKGROUND:Master of Tartarus-bg.png;
#LYRICSPATH:;
#CDTITLE:!yesssss-cdtitle.png;
#MUSIC:Master of Tartarus.ogg;
#OFFSET:-0.020;
#SAMPLESTART:70.000;
#SAMPLELENGTH:15.000;
#SELECTABLE:YES;
#BPMS:0.000=131.000;
#STOPS:;
#BGCHANGES:;
// cache tags:
#FIRSTBEAT:1.000;
#LASTBEAT:241.000;
#SONGFILENAME:Songs/VGMP 2/Master of Tartarus (Yesssss)/Master of Tartarus.sm;
#HASMUSIC:1;
#HASBANNER:1;
#MUSICLENGTH:124.347;
// end cache tags

//---------------dance-single - ----------------
#NOTES:
     dance-single:
     :
     Hard:
     10:
     0.917,1.000,1.000,0.860,0.197,464.000,227.000,107.000,0.000,3.000:

0000
0000
0100
0000
1001
0100
0000
1001
,
0100
0000
0010
0000
0100
0000
0000
0000
0011
0000
0100
0000
0000
0000
0100
0010
,
1001
0100
0100
0000
0011
0100
0000
0011
,
0100
0010
0100
0000
0011
0100
0200
0000
,
1300
0001
0010
0100
1000
0001
0010
0100
2000
0000
0000
0000
3010
0000
0000
0000
0101
0000
0000
0000
0110
0000
0000
0000
1001
0000
0000
0000
0010
0000
0000
0000
,
0101
0000
0011
0000
1100
0000
0010
0000
0001
0000
0100
0000
0000
0000
1010
0101
,
0120
0030
0120
0030
1001
0000
0100
0000
0001
0000
1100
0000
0010
0000
0100
0000
,
1001
0000
0101
0000
1010
0000
0100
0000
0001
0000
1100
0000
0010
0000
1001
0101
,
0120
0030
0120
0030
1001
0000
0100
0000
0001
0000
1100
0000
0010
0000
0001
0000
,
0110
0000
1001
0000
1010
0000
0100
0000
0010
0000
1000
0000
0020
0030
1100
0011
,
0102
0003
2100
3000
1001
0000
0100
0000
0001
0000
1100
0000
0010
0000
0001
0000
,
0110
0000
1001
0000
1010
0000
0100
0000
0001
0000
1100
0000
0010
0000
0110
1001
,
2100
0000
0010
3000
2001
3000
0200
0300
1000
0000
0201
0300
0020
0030
1000
0000
,
0120
0030
1002
0003
2010
3000
0200
0300
0010
0000
1200
0300
0020
0030
0201
1310
,
0022
0033
0102
0003
2001
3000
0200
0300
0001
0000
1200
0300
0020
0030
1000
0000
,
0021
0030
0102
0003
2010
3000
0200
0300
0010
0000
0201
0300
0020
0030
0110
1001
,
0120
0030
0120
0030
1001
0000
0200
0300
0001
0000
1200
0300
0020
0030
0001
0000
,
1020
0030
0012
0003
2100
3000
0200
0300
0010
0000
1200
0300
0022
0033
1200
0311
,
2020
3030
2100
3000
2001
3000
0200
0300
0001
0000
1200
0300
0020
0030
1000
0000
,
0120
0030
1002
0003
2010
3000
0200
0300
0001
0000
1200
0300
0010
0000
0110
1001
,
0120
0030
0120
0030
1001
0000
0000
0000
0101
0000
0020
0000
0030
0101
1100
0000
,
1001
0000
0010
0000
0100
0000
0000
0000
1001
0000
0010
0000
0001
1100
1010
0000
,
0101
0000
0010
0100
2000
0000
3200
0000
1300
0000
0200
0000
0320
0000
0130
0000
,
0020
0032
2003
3200
1300
0020
0032
0000
,
0000
0000
0000
0000
1013
0000
0000
0000
0101
0000
0020
0000
0030
0110
1100
0000
,
1001
0000
0100
0000
0100
0000
0000
0000
0011
0000
0100
0000
1000
0101
0110
0000
,
1001
0000
0010
0100
0010
0000
0000
0000
1001
0000
0020
0000
0030
0011
1001
0000
,
1010
0000
0100
0000
0100
0000
0000
0000
1001
0000
0010
0000
1000
0101
1001
0000
,
1010
0101
2001
0000
0000
0000
0000
0010
,
0000
3010
1002
0000
0000
1000
0000
0010
,
0000
0103
0021
0000
0000
0000
0000
0100
,
0000
1030
0201
0000
0000
0010
0000
0001
,
0000
0310
2100
0000
0000
0000
0000
0010
,
0000
3100
1002
0000
0000
0010
0000
1000
,
0000
1003
0021
0000
0000
0000
0000
0100
,
0000
0000
1030
0000
0201
0000
0300
0000
1001
0000
0110
0000
1001
1001
1001
1001
,
1001
1001
1001
1001
1001
0000
0010
0000
0101
0000
0020
0000
0030
1001
1010
0000
,
1001
0000
0010
0000
0100
0000
0000
0000
0011
0000
1000
0000
0001
0110
1001
0000
,
0101
0000
1000
0000
0001
0000
0000
0000
1001
0000
0020
0000
0030
1001
1010
0000
,
1001
0000
0001
0000
0010
0000
0000
0000
0101
0000
0010
0000
1000
0110
0101
0000
,
1001
0000
0100
0000
0010
0000
0000
0000
1001
0000
0020
0000
0030
1001
0101
0000
,
1001
0000
0010
0000
0100
0000
0000
0000
1001
0000
0010
0000
0001
1010
0101
0000
,
1001
0000
0010
0000
0100
0000
0000
0000
1001
0000
0020
0000
0030
0101
1100
0000
,
1001
0001
0100
0100
0110
0110
0110
0110
,
0110
0000
0110
0000
1010
0000
0100
0000
0011
0000
0102
0000
0013
0101
1001
0000
,
0110
0000
0011
0000
1100
0000
0100
0000
1001
0000
0100
0000
0011
0100
1010
0001
,
0120
0030
1020
0030
1001
0000
0100
0000
1001
0000
0102
0000
0013
0101
1001
0000
,
0110
0000
0011
0000
1100
0000
0100
0000
1001
0000
0110
0000
1010
0001
1100
0001
,
1020
0030
0120
0030
1001
0000
0100
0000
1001
0000
0102
0000
0013
0101
1001
0000
,
0110
0000
0011
0000
1100
0000
0100
0000
1001
0000
0010
0000
0120
1030
0110
0001
,
0120
0030
0120
0030
1001
0000
0100
0000
1001
0000
0102
0000
0013
0101
1001
0000
,
0110
0000
0011
0000
1001
0000
0100
0000
1001
0000
0101
0000
1010
0100
1010
0001
,
0120
0030
0120
0030
1000
0000
0100
0000
0001
0000
0100
0000
0010
0000
1000
0000
,
0010
0000
0001
0000
1000
0000
0100
0000
0001
0000
0100
0000
0001
0000
1100
0001
,
0020
0030
0120
0030
1000
0000
0100
0000
0001
0000
0100
0000
0010
0000
1000
0000
,
0010
0000
0001
0000
1000
0000
0100
0000
0001
0000
0100
0000
0010
0000
1010
0001
,
0200
0300
0210
0300
1000
0000
0100
0000
0001
0000
0100
0000
0010
0000
1000
0000
,
0010
0000
0001
0000
1000
0000
0100
0000
0001
0000
0100
0000
0020
0030
1100
0001
,
0020
0030
0120
0030
1000
0000
0100
0000
0001
0000
0100
0000
0010
0000
1000
0000
,
0010
0001
1000
0100
0001
0100
0020
0000
,
0000
0130
1001
0000
0000
0000
0000
0000
;

//---------------dance-single - Copied from----------------
#NOTES:
     dance-single:
     Copied from:
     Challenge:
     13:
     1.000,1.000,1.000,0.852,0.209,476.000,340.000,106.000,0.000,233.000:


0000
0000
1100
0100
1011
0101
1000
1101
,
0110
0000
0011
0000
1100
0000
0100
0000
1011
0000
0101
0000
1000
0000
0110
0110
,
1101
0110
0101
1000
0111
0110
0001
1011
,
0110
0011
1100
0010
1011
0110
0201
1000
,
1310
0001
0010
0100
1000
0001
0010
0100
1010
0001
0010
0100
1001
0000
0000
0000
0111
0000
0000
0000
1110
0000
0000
0000
1001
0000
0000
0000
0110
0000
0000
0000
,
1101
0000
1011
0000
1101
0000
0010
0000
0011
0000
1110
0000
0001
0000
1011
0111
,
1120
0030
1120
0030
1111
0000
0100
0000
0011
0000
1101
0000
0010
0000
0110
0000
,
1011
0000
1101
0000
1011
0000
0100
0000
0011
0000
1101
0000
0010
0000
1011
1101
,
1120
0030
1120
0030
1111
0000
0100
0000
0011
0000
1101
0000
0010
0000
0101
0000
,
1110
0000
1101
0000
1011
0000
0100
0000
0011
0000
1110
0000
0021
0030
1110
1011
,
0112
0003
2110
3000
1111
0000
0100
0000
0011
0000
1101
0000
0010
0000
1001
0000
,
1110
0000
1011
0000
1110
0000
0100
0000
0011
0000
1101
0000
0010
0000
1110
1011
,
2101
0000
0011
3000
2111
3000
0200
0300
1010
0000
1201
0300
0020
0030
1001
0000
,
1120
0030
1012
0003
2110
3000
0200
0300
0011
0000
1201
0300
0020
0030
1201
1311
,
0122
0033
0112
0003
2111
3000
0200
0300
0011
0000
1201
0300
0020
0030
1100
0000
,
1021
0030
1102
0003
2110
3000
0200
0300
0011
0000
1201
0300
0020
0030
0111
1011
,
1120
0030
1120
0030
1111
0000
0200
0300
0011
0000
1201
0300
0020
0030
0101
0000
,
1120
0030
1012
0003
2110
3000
0200
0300
0011
0000
1210
0300
0022
0033
1201
1311
,
2120
3030
2110
3000
2111
3000
0200
0300
0011
0000
1201
0300
0020
0030
1100
0000
,
0121
0030
1012
0003
2110
3000
0200
0300
0011
0000
1201
0300
1010
0000
0111
1101
,
1120
0030
1120
0030
1111
0000
0000
0000
1111
0000
0020
0000
0030
1111
1110
0000
,
1111
0000
0011
0000
1100
0000
0000
0000
1111
0000
0011
0000
0010
1100
1011
0000
,
1111
0000
0011
0100
2000
0000
3200
0000
1300
0000
0200
0000
0320
0000
0130
0000
,
0020
0032
2003
3200
1300
0020
0032
0000
,
0000
0000
0000
0000
1113
0000
0000
0000
1111
0000
0020
0000
0030
1111
1101
0000
,
1111
0000
0101
0000
1100
0000
0000
0000
1111
0000
1100
0000
1000
0101
1110
0000
,
1111
0000
0011
0100
1001
0000
0000
0000
1111
0000
0020
0000
0030
1111
1101
0000
,
1111
0000
0101
0000
0110
0000
0000
0000
1111
0000
0110
0000
1000
0101
1011
0000
,
1111
0101
2011
0000
0000
0000
0000
0011
,
0000
3110
1102
0000
0000
1100
0000
1010
,
0000
0113
1021
0000
0000
0000
0000
0101
,
0000
1031
0211
0000
0000
1010
0000
1001
,
0000
0311
2101
0000
0000
0000
0000
0011
,
0000
3101
1012
0000
0000
0110
0000
1010
,
0000
1103
0121
0000
0000
0000
0000
0101
,
0000
0000
1031
0000
0211
0000
0300
0000
1111
0000
0110
0000
1111
1111
1111
1111
,
1111
1111
1111
1111
1111
0000
0110
0000
1111
0000
0020
0000
0030
1111
1110
0000
,
1111
0000
1010
0000
1100
0000
0000
0000
1111
0000
1010
0000
0001
0110
1011
0000
,
1111
0000
1010
0000
0011
0000
0000
0000
1111
0000
0020
0000
0030
1111
1110
0000
,
1111
0000
0101
0000
1010
0000
0000
0000
1111
0000
0101
0000
0010
0110
1101
0000
,
1111
0000
1100
0000
0011
0000
0000
0000
1111
0000
0020
0000
0030
1111
0111
0000
,
1111
0000
1010
0000
1100
0000
0000
0000
1111
0000
0110
0000
0001
1010
0111
0000
,
1111
0000
1010
0000
0101
0000
0000
0000
1111
0000
0020
0000
0030
1111
1110
0000
,
1111
1001
0110
0100
1111
1111
1111
1111
,
1111
0000
1111
0000
1011
0000
0100
0000
1111
0000
0102
0000
0013
1111
1101
0000
,
1111
0000
0111
0000
1110
0000
0100
0000
1111
0000
1110
0000
0011
1100
1110
0001
,
1121
0030
1120
0030
1101
0000
0100
0000
1111
0000
0102
0000
0013
1111
1101
0000
,
1111
0000
0111
0000
1110
0000
0100
0000
1111
0000
0110
0000
1010
0101
1110
0001
,
1121
0030
1120
0030
1011
0000
0100
0000
1111
0000
0102
0000
0013
1111
1101
0000
,
1111
0000
0111
0000
1110
0000
0100
0000
1111
0000
1110
0000
0120
1031
1110
0001
,
1121
0030
1120
0030
1011
0000
0100
0000
1111
0000
0102
0000
0013
1111
1101
0000
,
1111
0000
0111
0000
1011
0000
0100
0000
1111
0000
1101
0000
1011
0101
1110
0001
,
1121
0030
0120
0030
1000
0000
0100
0000
0011
0000
0100
0000
0010
0000
1100
0000
,
0010
0000
0001
0000
1000
0000
0100
0000
0011
0000
0100
0000
0001
0000
1110
0001
,
0020
0030
0121
0030
1000
0000
0100
0000
0011
0000
0100
0000
0010
0000
1100
0000
,
0010
0000
0001
0000
1000
0000
0100
0000
0011
0000
0100
0000
0010
0000
1110
0001
,
0200
0300
0211
0300
1000
0000
0100
0000
0011
0000
0100
0000
0010
0000
1100
0000
,
0010
0000
0001
0000
1000
0000
0100
0000
0011
0000
0100
0000
0020
0030
1110
0001
,
0020
0030
0121
0030
1000
0000
0100
0000
0011
0000
0100
0000
0010
0000
1100
0000
,
0010
0001
1000
0100
0011
0100
0020
0000
,
0000
0131
1111
0000
0000
0000
0000
0000
;
