#TITLE:BOWSER BATTLE;
#SUBTITLE:;
#ARTIST:近藤浩治;
#TITLETRANSLIT:;
#SUBTITLETRANSLIT:;
#ARTISTTRANSLIT:Koji Kondo;
#CREDIT:;
#BANNER:smwbwsr-banner.png;
#BACKGROUND:smwbwsr-bg.png;
#LYRICSPATH:;
#CDTITLE:cdtitle.png;
#MUSIC:smwbwsr.ogg;
#OFFSET:-0.400;
#SAMPLESTART:24.540;
#SAMPLELENGTH:13.000;
#SELECTABLE:YES;
#BPMS:0.000=110.000,1.000=113.000,2.000=125.000,3.000=135.000,4.000=142.000,5.000=148.000,6.000=298.800,16.000=298.000,234.000=250.240,240.000=346.499,432.000=248.000,454.000=120.000;
#STOPS:;
#BGCHANGES:;
// cache tags:
#FIRSTBEAT:6.000;
#LASTBEAT:454.000;
#SONGFILENAME:Songs/plaguemix series/smwbwsr/smwbwsr.sm;
#HASMUSIC:1;
#HASBANNER:1;
#MUSICLENGTH:91.433;
// end cache tags

//---------------dance-single - BASIC----------------
#NOTES:
     dance-single:
     BASIC:
     Easy:
     4:
     0.298,0.372,0.317,0.262,0.000,138.000,29.000,24.000,0.000,0.000:

0000
0000
0000
0000
,
0000
0000
2002
0000
,
0000
0000
0000
0000
,
3003
0000
0000
0000
,
1000
0000
0000
0000
,
0001
0000
0000
0000
,
1000
0000
0000
0000
,
0001
0000
0000
0000
,
0100
0000
0000
0000
,
0010
0000
0000
0000
,
0100
0000
0000
0000
,
0010
0000
0000
0000
,
1000
0000
0001
0000
,
1000
0000
0001
0000
,
1000
0000
0001
0000
,
1000
0000
0001
0000
,
0010
0000
0100
0000
,
0010
0000
0100
0000
,
0010
0000
0100
0000
,
2010
0000
3000
0000
,
1000
0000
0000
0000
,
0100
0000
0000
0000
0000
0000
0000
0010
,
0000
0000
0100
0000
,
1000
0000
0000
0000
,
0001
0000
0000
0000
,
0100
0000
0000
0000
0000
0000
0000
0010
,
0000
0000
0100
0000
,
0001
0000
0000
0000
,
0010
0100
0000
0000
,
0001
0000
0000
0000
0000
0000
0000
1000
,
0000
0000
0100
0000
,
0010
0000
0000
0000
,
0010
0100
0000
0000
,
1000
0000
0000
0000
0000
0000
0000
0001
,
0000
0000
0000
0000
,
1000
0000
0010
0000
,
1001
0000
0000
0000
,
0011
0000
0000
0000
0000
0000
0000
2200
,
0000
0000
3300
0000
,
1000
0000
0000
0000
,
0110
0000
0000
0000
,
1010
0000
0000
0000
0000
0000
0000
0202
,
0000
0000
0303
0000
,
0100
0000
0000
0000
,
1001
0000
0000
0000
,
0011
0000
0000
0000
0000
0000
0000
2200
,
0000
0000
3300
0000
,
1000
0000
0000
0000
,
0110
0000
0000
0000
,
1010
0000
0000
0000
0000
0000
0000
0202
,
0000
0000
0303
0000
,
0100
0000
0000
0001
,
1000
0000
0000
0000
,
0100
0000
0000
0000
,
1000
0000
0000
0000
,
0001
0000
0000
0000
,
0100
0000
0000
0000
,
0001
0000
0000
0000
,
1000
0000
2002
0000
,
0000
0000
3003
0000
,
1000
0000
0001
0000
,
1000
0000
0001
0000
,
1000
0000
0001
0000
,
1000
0000
0001
0000
,
0010
0000
0100
0000
,
0010
0000
0100
0000
,
0010
0000
0100
0000
,
2010
0000
3000
0000
,
1000
0000
0000
0000
,
0100
0000
0000
0000
0000
0000
0000
0010
,
0000
0000
0100
0000
,
1000
0000
0000
0000
,
0001
0000
0000
0000
,
0100
0000
0000
0000
0000
0000
0000
0010
,
0000
0000
0100
0000
,
0001
0000
0000
0000
,
0010
0100
0000
0000
,
0001
0000
0000
0000
0000
0000
0000
1000
,
0000
0000
0100
0000
,
0010
0000
0000
0000
,
0010
0100
0000
0000
,
1000
0000
0000
0000
0000
0000
0000
0001
,
0000
0000
0000
0000
,
1000
0000
0010
0000
,
1001
0000
0000
0000
,
0011
0000
0000
0000
0000
0000
0000
2200
,
0000
0000
3300
0000
,
1000
0000
0000
0000
,
0110
0000
0000
0000
,
1010
0000
0000
0000
0000
0000
0000
0202
,
0000
0000
0303
0000
,
0100
0000
0000
0000
,
1001
0000
0000
0000
,
0011
0000
0000
0000
0000
0000
0000
2200
,
0000
0000
3300
0000
,
1000
0000
0000
0000
,
0110
0000
0000
0000
,
1010
0000
0000
0000
0000
0000
0000
0202
,
0000
0000
0303
0000
,
0100
0000
0000
0001
,
1000
0000
0000
0000
,
0100
0000
0000
0000
,
1000
0000
0000
0000
,
0001
0000
0000
0000
,
0100
0000
0000
0000
,
0001
0000
0000
0000
,
1000
0000
0000
0000
,
0100
0000
0000
0000
,
1000
0000
0001
0000
,
0100
0000
0010
0000
,
0000
0000
0000
0000
,
0000
0000
2002
0000
,
0000
0000
0000
0000
,
0000
0000
3003
0000
,;

//---------------dance-single - ANOTHER----------------
#NOTES:
     dance-single:
     ANOTHER:
     Medium:
     6:
     0.364,0.434,0.339,0.262,0.000,178.000,31.000,24.000,0.000,0.000:








0000
0000
0000
0000
,
0000
0000
2002
0000
,
0000
0000
0000
0000
,
3003
0000
0000
0000
,
1000
0000
0000
0000
,
0001
0000
0000
0000
,
1000
0000
0000
0000
,
0001
0000
0000
0000
,
0100
0000
0000
0000
,
0010
0000
0000
0000
,
0100
0000
0000
0000
,
0010
0000
0000
0000
,
1000
0000
0001
0000
,
1000
0000
0001
0000
,
1000
0000
0001
0000
,
1000
0000
0001
0000
,
0010
0000
0100
0000
,
0010
0000
0100
0000
,
0010
0000
0100
0000
,
2010
0000
3001
0000
,
1000
0001
0000
0000
,
0100
0000
0000
0000
0000
0000
0000
0010
,
0000
0000
0100
0000
,
1000
0000
0001
0000
,
1000
0001
0000
0000
,
0100
0000
0000
0000
0000
0000
0000
0010
,
0000
0000
0100
0000
,
0001
0000
1000
0000
,
0010
0100
0000
1000
,
0001
0000
0000
0000
0000
0000
0000
1000
,
0000
0000
0100
0000
,
0010
0000
0001
0000
,
0010
0100
0000
0001
,
1000
0000
0000
0000
0000
0000
0000
0001
,
0000
0000
1000
0000
,
0001
0000
0010
0000
,
1001
0000
0000
0000
,
0011
0000
0000
0000
0000
0000
0000
2200
,
0000
0000
3300
0000
,
1000
0000
0000
0001
0000
0000
0000
0000
,
0110
0000
0000
0000
,
1010
0000
0000
0000
0000
0000
0000
0202
,
0000
0000
0303
0000
,
0100
0000
0000
1000
0000
0000
0000
0000
,
1001
0000
0000
0000
,
0011
0000
0000
0000
0000
0000
0000
2200
,
0000
0000
3300
0000
,
1000
0000
0000
0001
0000
0000
0000
0000
,
0110
0000
0000
0000
,
1010
0000
0000
0000
0000
0000
0000
0202
,
0000
0000
0303
0000
,
0100
0000
0000
1000
0000
0000
0000
0000
,
1000
0000
0100
0000
,
1000
0000
0100
0000
,
1000
0000
0100
0000
,
0001
0000
0100
0000
,
0001
0000
0010
0000
,
0001
0000
0010
0000
,
1000
0000
2002
0000
,
0000
0000
3003
0000
,
1000
0000
0001
0000
,
1000
0000
0001
0000
,
1000
0000
0001
0000
,
1000
0000
0001
0000
,
0010
0000
0100
0000
,
0010
0000
0100
0000
,
0010
0000
0100
0000
,
2010
0000
3001
0000
,
1000
0001
0000
0000
,
0100
0000
0000
0000
0000
0000
0000
0010
,
0000
0000
0100
0000
,
1000
0000
0001
0000
,
1000
0001
0000
0000
,
0100
0000
0000
0000
0000
0000
0000
0010
,
0000
0000
0100
0000
,
0001
0000
1000
0000
,
0010
0100
0000
1000
,
0001
0000
0000
0000
0000
0000
0000
1000
,
0000
0000
0100
0000
,
0010
0000
0001
0000
,
0010
0100
0000
0001
,
1000
0000
0000
0000
0000
0000
0000
0001
,
0000
0000
1000
0000
,
0001
0000
0010
0000
,
1001
0000
0000
0000
,
0011
0000
0000
0000
0000
0000
0000
2200
,
0000
0000
3300
0000
,
1000
0000
0000
0001
0000
0000
0000
0000
,
0110
0000
0000
0000
,
1010
0000
0000
0000
0000
0000
0000
0202
,
0000
0000
0303
0000
,
0100
0000
0000
1000
0000
0000
0001
0000
,
1001
0000
0000
0000
,
0011
0000
0000
0000
0000
0000
0000
2200
,
0000
0000
3300
0000
,
1000
0000
0000
0001
0000
0000
0100
0000
,
0110
0000
0000
0000
,
1010
0000
0000
0000
0000
0000
0000
0202
,
0000
0000
0303
0000
,
0100
0000
0000
1000
0000
0000
0001
0000
,
1000
0000
0100
0000
,
1000
0000
0100
0000
,
1000
0000
0100
0000
,
0001
0000
0100
0000
,
0001
0000
0010
0000
,
0001
0000
0010
0000
,
1000
0000
0000
0000
,
0100
0000
0000
0000
,
1001
0000
1001
0000
,
1000
0100
0010
0000
,
0000
0000
0000
0000
,
0000
0000
2002
0000
,
0000
0000
0000
0000
,
0000
0000
3003
0000;

//---------------dance-single - MANIAC----------------
#NOTES:
     dance-single:
     MANIAC:
     Hard:
     9:
     0.684,0.745,0.437,0.405,0.005,361.000,40.000,37.000,0.000,0.000:








0000
0000
0000
0000
,
0000
0000
2002
0000
,
0000
0000
0000
0000
,
3003
0000
0000
0000
,
1000
0000
0010
0000
,
1000
0000
0010
0000
,
1002
0000
0100
0000
,
1003
0000
1001
0000
,
0001
0000
0010
0000
,
0001
0000
0010
0000
,
2001
0000
0100
0000
,
3001
0000
1001
0000
,
1000
0001
1000
0001
,
1000
0010
1000
0000
,
1200
0000
0010
0000
,
1300
0000
1001
0000
,
0001
1000
0001
1000
,
0001
0010
0001
0000
,
0201
0000
0010
0000
,
0301
0000
1000
0000
0001
1000
0001
0000
,
1000
0001
0000
1000
,
0200
0000
0000
0000
1300
0000
0000
1010
,
0000
1000
1000
0100
,
1000
0001
0001
0000
,
0001
1000
0000
0001
,
0200
0000
0000
0000
0301
0000
0000
0101
,
0000
0100
0100
0001
,
1000
0010
0010
0000
,
0010
0100
0010
0100
,
0002
0000
0000
0000
0103
0000
0000
1010
,
0000
0010
0001
1000
,
0010
0100
0001
0000
,
0010
0100
0010
0100
,
2000
0000
0000
0000
3100
0000
0000
0101
,
0000
0010
1000
0001
,
0010
0001
0010
0001
0010
0001
0010
0000
,
0002
1000
0003
1000
,
1002
0000
0000
1000
0003
0000
0000
1100
,
0000
1000
0100
0001
,
1000
0010
0100
0001
0000
0000
0100
0000
,
2000
0001
3000
0001
,
2001
0000
0000
0001
3000
0000
0000
0101
,
0000
0001
0100
1000
,
0001
0010
0100
1000
0000
0000
0100
0000
,
0002
1000
0003
1000
,
1002
0000
0000
1000
0003
0000
0000
1100
,
0000
0000
1000
0000
0100
1000
0010
0000
,
1000
0010
1000
0001
0000
1000
0100
0000
,
2000
0001
3000
0001
,
2001
0000
0000
0001
3000
0000
0000
0101
,
0000
0000
0001
0000
0100
0001
1000
0000
,
0001
0010
0001
1000
0000
0000
0100
0000
,
1000
0100
0010
0001
,
1000
0100
0010
0001
,
1000
0010
0100
0001
,
1000
0010
0100
0001
,
0001
0010
0100
0010
,
0001
0010
0100
1000
,
0001
0000
2002
0000
,
0000
0000
3003
0000
,
1000
0001
1000
0001
,
1000
0010
1000
0000
,
1200
0000
0010
0000
,
1300
0000
1001
0000
,
0001
1000
0001
1000
,
0001
0010
0001
0000
,
0201
0000
0010
0000
,
0301
0000
1000
0000
0001
1000
0001
0000
,
1000
0001
0000
1000
,
0200
0000
0000
0000
1300
0000
0000
1010
,
0000
1000
1000
0100
,
1000
0001
0001
0000
,
0001
1000
0000
0001
,
0200
0000
0000
0000
0301
0000
0000
0101
,
0000
0100
0100
0001
,
1000
0010
0010
0000
,
0010
0100
0010
0100
,
0002
0000
0000
0000
0103
0000
0000
1010
,
0000
0010
0001
1000
,
0010
0100
0001
0000
,
0010
0100
0010
0100
,
2000
0000
0000
0000
3100
0000
0000
0101
,
0000
0010
1000
0001
,
0010
0001
0010
0001
0010
0001
0010
0000
,
0002
1000
0003
1000
,
1002
0000
0000
1000
0003
0000
0000
1100
,
0000
1000
0100
0001
,
1000
0010
0100
0001
0000
0000
0100
0000
,
2000
0001
3000
0001
,
2001
0000
0000
0001
3000
0000
0000
0101
,
0000
0001
0100
1000
,
0001
0010
0100
1000
0000
0000
0100
0000
,
0002
1000
0003
1000
,
1002
0000
0000
1000
0003
0000
0000
1100
,
0000
0000
1000
0000
0100
1000
0010
0000
,
1000
0010
1000
0001
0000
1000
0100
0000
,
2000
3000
2000
0000
0000
0000
0000
0000
0000
0000
0000
0000
0001
0000
0000
0000
0000
0000
0000
0000
0000
0000
0000
0000
3000
0000
0000
0000
0000
0000
0000
0000
0000
0000
0000
0000
0001
0000
0000
0000
0000
0000
0000
0000
0000
0000
0000
0000
,
2001
0000
0000
0001
3000
0000
0000
0101
,
0000
0000
0001
0100
0001
1000
0001
0010
,
0001
1000
0001
1000
0000
0000
0100
0000
,
1000
0100
0010
0001
,
1000
0100
0010
0001
,
1000
0010
0100
0001
,
1000
0010
0100
0001
,
0001
0010
0100
0010
,
0001
0010
0100
1000
,
0001
0010
0100
1000
,
0001
0010
0100
0000
,
1000
0001
0000
0000
1000
0001
0000
0000
,
1001
0110
1001
0000
,
0000
0000
0000
0000
,
0000
0000
2002
0000
,
0000
0000
0000
0000
,
0000
0000
3003
0000;
