#TITLE:ivaltek;
#SUBTITLE:- zebdal -;
#ARTIST:dj sharpnel;
#TITLETRANSLIT:;
#SUBTITLETRANSLIT:;
#ARTISTTRANSLIT:;
#CREDIT:;
#BANNER:ivaltek-banner.jpg;
#BACKGROUND:Ivaltek-bg.JPG;
#LYRICSPATH:;
#CDTITLE:Crono288-cdtitle.gif;
#MUSIC:ivaltek.mp3;
#OFFSET:-0.180;
#SAMPLESTART:37.510;
#SAMPLELENGTH:14.000;
#SELECTABLE:YES;
#BPMS:0.000=207.500,119.500=300.000,132.000=207.500,379.000=138.000,389.000=206.000,419.500=207.000,439.500=208.000,467.500=208.500,517.500=208.000,581.500=209.000,782.000=204.000,1148.000=203.000;
#STOPS:;
#BGCHANGES:;
// cache tags:
#FIRSTBEAT:0.000;
#LASTBEAT:1292.000;
#SONGFILENAME:Songs/toune 2/ivaltek/ivaltek.sm;
#HASMUSIC:1;
#HASBANNER:1;
#MUSICLENGTH:378.200;
// end cache tags

//---------------dance-single - Blank----------------
#NOTES:
     dance-single:
     Blank:
     Challenge:
     13:
     1.000,1.000,1.000,0.418,0.489,2403.000,875.000,158.000,0.000,17.000:
0010
1000
0110
0000
0001
0100
1000
0100
,
0010
0001
1100
0000
0100
1000
0100
0010
,
1000
0001
1010
0000
0100
0010
0001
0010
,
0100
1000
0110
0000
1000
0001
1000
0100
,
0010
0100
1010
0000
0100
1000
0100
1000
,
0100
0010
1100
0000
1000
0100
0001
0100
,
1000
0010
0101
0000
0100
0010
0001
0010
,
0100
1000
0011
0000
0010
0100
1000
0100
,
0011
1100
0110
0000
0001
0010
1000
0100
,
0010
0100
1001
0000
0001
0100
0001
1000
,
0010
0100
0011
0000
0001
0010
0100
1000
,
1000
0100
0011
0000
0010
0100
0010
0100
,
0010
0001
0110
0000
1000
0100
0010
1000
,
0001
0100
1000
0000
0001
0100
0010
0001
,
0100
1000
0011
0000
0110
0011
1100
0000
,
1001
0000
0000
0000
1000
0000
0100
0000
0011
0000
0000
0000
1001
0000
0100
0010
,
1100
0000
0000
0000
0011
0000
0110
0000
1100
0000
0000
0000
1100
0000
0001
1000
,
0110
0000
0000
0000
1010
0000
0101
0000
0110
0000
0000
0000
0011
0000
0100
0010
,
0101
0000
0000
0000
1010
0000
1100
0000
0110
0000
0000
0000
0011
0000
0100
0010
,
1001
0000
0000
0000
0110
0000
0011
0000
0110
0000
0000
0000
1100
0000
0010
0100
,
0011
0000
0000
0000
1010
0000
0110
0000
1010
0000
0000
0000
0110
0000
0001
1000
,
0101
0000
0000
0000
1001
0000
0110
0000
1100
0000
0000
0000
1000
0000
1000
0010
,
1001
0000
0000
0000
1010
0000
0110
0000
1100
0000
0000
0000
0110
0000
0010
0001
,
1100
0000
0000
0000
0110
0000
1100
0000
0011
0000
0000
0000
0110
0000
0010
1000
,
0101
0000
0000
0000
0110
0000
1100
0000
0011
0000
0000
0000
0110
0000
0010
1000
,
0101
0000
0000
0000
1001
0000
1100
0000
1010
0000
0000
0000
1001
0000
1000
0010
,
0101
0000
0000
0000
0110
0000
0101
0000
1100
0000
0000
0000
1001
0000
0100
1000
,
0101
0000
0000
0000
1001
0000
1100
0000
0110
0000
0000
0000
0101
0000
0100
1000
,
0110
0000
0000
0000
1001
0000
0110
0000
0101
0000
0000
0000
1001
0000
0010
0100
,
1001
0000
0000
0000
1000
0100
0010
0001
,
0001
0001
0001
0000
0000
0001
0000
0000
,
1000
0000
0000
0001
0000
0010
0100
0000
,
0000
0000
0000
0000
0000
0000
0000
1010
,
0100
1010
0001
0011
0100
1010
0010
1001
,
0001
0110
0100
0110
0010
0101
1001
0110
,
0001
1100
0001
1010
0010
1010
1000
0110
,
1000
0000
0011
0000
0100
0000
0110
0001
0010
0000
1001
0000
0101
0000
1100
0000
,
0001
1010
0100
1001
0010
0110
0001
0101
,
1000
0101
1000
1001
0100
0101
1001
1010
,
1000
0110
0010
1001
1000
0101
0100
1010
,
0010
0000
1100
0000
0010
0000
0101
0010
1000
0000
1100
0000
1010
0000
1001
0000
,
1000
0110
0001
1010
0001
0110
0100
1001
,
0100
1100
1000
1001
0010
1010
0101
1100
,
0010
1001
0100
0101
1000
1001
1000
1100
,
0100
0000
1010
0000
0001
0000
0101
1000
0001
0000
0101
0000
1100
0000
1010
0000
,
0001
1010
0100
1001
0001
1010
0010
1100
,
0010
0101
1000
1001
0100
1001
0110
1001
,
0100
1010
1000
1001
0010
1100
0011
0220
,
0000
0000
0000
0000
0000
0000
0330
0110
,
0010
0110
0001
1001
0010
1100
0100
1010
,
1000
0011
1000
0011
1000
0110
1001
1010
,
0010
1100
0001
0011
0010
1001
0100
0110
,
0100
0000
1001
0000
0001
0000
0011
0100
1000
0000
0101
0000
0101
0000
1010
0000
,
1000
0110
0100
1010
0010
0101
0001
0110
,
1000
0110
0001
1001
0001
1010
0010
1010
,
1000
0101
0001
1010
0010
1001
1000
1001
,
0001
0000
1100
0000
1000
0000
1010
0001
0010
0000
0101
0000
0110
0000
0101
0000
,
0001
1010
0100
0110
0001
0011
1000
1010
,
0100
1100
0100
0011
0100
0011
0100
0011
,
1000
1010
1000
1100
0100
0110
0100
1001
,
0010
0000
0001
0000
1010
0000
1010
0001
0100
0000
0101
0000
1100
0000
0011
0000
,
1000
0011
0001
1001
0100
0011
0010
1010
,
0100
0101
0100
1010
0001
0110
0011
2002
,
0000
0000
0000
0000
0000
3003
2200
0000
,
3322
0000
0000
0000
0133
1000
0001
0000
0011
0000
0101
0000
0101
0000
0100
0000
,
0110
1000
1010
1000
0101
1000
1010
1000
,
1100
0010
1100
0001
0101
0101
0110
0100
,
1100
1000
0101
0010
0011
1000
0101
0010
,
0101
0000
0010
0000
0101
0100
0001
0000
1001
0000
1010
0000
1010
0000
0001
0000
,
1001
1000
0110
0010
0011
1000
0101
0100
,
1010
1000
0110
0010
1001
0011
1100
0100
,
1001
0100
1001
0100
0011
0010
0011
0100
,
0101
0000
0010
0000
0101
0010
1000
0000
0101
0000
1100
0000
1001
0100
0100
0010
,
0010
1000
0010
0000
0010
1000
1000
0001
0001
0100
1000
0000
1000
1000
0100
0010
,
1000
0100
0100
0000
1000
0001
0001
1000
0100
1000
1000
0000
0100
0010
0100
0100
,
0010
1000
0100
0000
0100
0001
1000
0010
0001
0001
0001
0000
0010
0100
0001
1000
,
0010
0010
0001
0000
0100
0100
0001
0100
0010
0001
0100
0000
0001
0100
1000
0100
,
0100
1000
0100
0000
1000
1000
0001
1000
0001
0001
0001
0000
1000
0100
1000
0001
,
0010
1000
0001
0000
0100
0100
0010
0001
1000
0010
0001
0000
0010
0100
0001
1000
,
0010
0010
1000
0000
1000
0010
0100
0010
1000
0001
0001
0000
0001
0100
0100
0010
,
0010
0010
1000
0000
0010
0010
0010
0001
0100
0001
1000
0000
1000
0100
0100
0010
,
0001
0010
0001
0000
1000
1000
0001
0100
1000
0100
0100
0000
1000
0100
0001
0100
,
1010
1000
0011
1000
0110
1100
1100
0010
,
1010
0100
1100
0100
1010
0010
0011
0001
,
1010
0000
0001
0000
1100
0001
1000
0000
1010
0000
0011
0000
0110
0000
1000
0000
,
0110
0100
1001
0100
0101
0100
1001
0010
,
1100
0100
0101
0100
0110
1100
0101
1000
,
1010
0010
0110
0100
0110
1000
1010
0001
,
1001
0000
1000
0000
1001
0010
0100
0000
1001
0000
1010
0000
0101
0000
0010
0000
,
0110
1000
1100
1000
0110
0100
0110
0010
,
0011
0100
1010
0010
1001
1100
0011
1000
,
1000
0001
0010
1000
0001
0010
0010
0100
0100
0001
0010
1000
0010
1000
0010
0100
,
0001
0001
0001
1000
0001
0010
0001
0100
0010
0001
0010
0100
0100
1000
0010
0001
,
0010
1000
1000
0001
0010
0010
0001
1000
0001
0100
0100
0001
0010
1000
0100
0010
,
1000
0000
0000
0010
0000
0000
1000
0000
0000
1000
0000
0000
0010
0000
0000
1000
0000
0000
1000
0000
0000
0100
0000
0000
0010
0000
0000
0100
0000
0000
1000
0000
0000
0000
0000
0000
1010
0000
0000
0000
1000
0000
0000
0000
0100
0000
0000
0000
,
0100
1000
0001
1000
0100
0001
0100
1000
1000
1000
0001
1000
,
0100
0000
0000
0000
,
0000
0000
0000
0010
0011
0100
0010
0001
,
0011
0010
0110
0100
0011
0010
0100
0010
,
1010
1000
1001
0001
1001
0010
0100
1000
,
0101
0000
1000
0000
0110
0000
0010
0000
1010
0000
0100
0000
0001
0000
1000
0100
,
1000
1000
0011
0100
0011
0001
0100
1000
,
1010
0001
1001
0100
0011
0010
0100
0010
,
0101
1000
0110
0100
0101
0010
0000
0101
,
0011
0000
0100
0000
1000
0000
0100
0000
0100
0000
0100
0000
0100
0000
1000
0100
,
0010
0001
1000
0100
0010
0001
0010
0000
1100
0000
0001
0000
0000
0000
0010
0000
,
1010
0100
0011
1000
1100
0010
0000
0100
,
1010
0100
0110
0010
0110
0010
0000
0001
,
1001
0000
0010
0000
0101
0000
0100
0000
0101
0000
0100
0000
0000
0000
1000
0100
,
0001
0010
0101
0100
0101
0001
0000
0001
,
1100
0001
0110
1000
1010
0001
0000
0100
,
1001
0001
0011
0010
1010
0010
0000
0010
,
0011
0010
0110
2020
0000
3232
0303
0022
,
0000
2233
3300
0100
0011
1000
0000
0100
,
1100
0010
1001
0001
0011
0010
0000
1000
,
1010
1000
0101
0001
0110
0001
0000
0010
,
1001
0000
1000
0000
0110
0000
0100
0000
1100
0000
1000
0000
0000
0000
0010
0100
,
0001
1000
0110
0001
1100
0010
0000
1000
,
0101
0010
1100
0100
0011
0100
0000
0001
,
0110
1000
0101
0001
1010
0100
0000
0001
,
1100
0000
0100
0000
0110
0000
0001
0000
1010
0000
0100
0000
0000
0000
1000
0001
,
1000
0001
0010
0100
0010
0100
1000
0000
0110
0000
0001
0000
0000
0000
1000
0000
,
0101
0010
1100
0010
0101
0010
0000
1000
,
1001
0100
0101
0010
1100
0001
0000
0100
,
0011
0000
1000
0000
0110
0000
0001
0000
0011
0000
1000
0000
0000
0000
1000
0001
,
0100
0001
0101
0010
1100
0001
0000
1000
,
0101
0010
1100
0001
0011
0100
0000
1000
,
1001
0010
1010
0001
0110
1000
0000
0001
,
0110
0001
1100
0022
0000
2233
3300
2020
,
0000
3232
0303
1000
0110
0001
0000
0100
,
0101
0010
1100
0100
1001
0010
0000
1000
,
0101
0100
1010
0100
0110
0001
0000
1000
,
1100
0000
0001
0000
0011
0000
0100
0000
0110
0000
0001
0000
0000
0000
1000
0100
,
0010
1000
0101
0010
1100
0010
0000
1000
,
0110
0001
0110
0001
1100
0010
0000
1000
,
0101
0010
1001
0100
1100
0010
0000
0001
,
0101
0000
0010
0000
1100
0000
0010
0000
1001
0000
0100
0000
0000
0000
0001
0010
,
0100
1000
0001
0010
0100
1000
0100
0000
0110
0000
0001
0000
0000
0000
1000
0000
,
0101
0010
0011
0100
1100
0010
0000
0001
,
0110
1000
0101
0010
1100
0010
0000
0001
,
1010
0000
0100
0000
1010
0000
0001
0000
0110
0000
0001
0000
0000
0000
0010
0100
,
0001
1000
0101
1000
0110
0001
0000
1000
,
0101
0010
0110
1000
1001
0100
0000
0001
,
0110
1000
0101
0010
1010
0100
0000
1000
,
0101
0010
1010
0220
0000
2332
3003
2200
,
0000
3322
0033
0100
0011
0001
0000
0100
,
1001
0010
0101
0100
1010
1000
0000
1000
,
1001
0010
0011
0100
1100
0001
0000
1000
,
0110
0000
0010
0000
1001
0000
0100
0000
0101
0000
1000
0000
0000
0000
0010
0100
,
1000
0010
0011
1000
0011
0010
0000
0010
,
0110
0001
0011
0100
0011
1000
0000
0100
,
0110
1000
1001
0010
0110
0100
0000
0001
,
0101
0000
1000
0000
1010
0000
1000
0000
0101
0000
0010
0000
0000
0000
0001
1000
,
0001
1000
0100
0010
0010
1000
0010
0000
1100
0000
1000
0000
0000
0000
1000
0000
,
0011
0001
1010
0001
0101
0001
0000
0100
,
0011
1000
1100
0010
0110
1000
0000
1000
,
1010
0000
0001
0000
0110
0000
0010
0000
0011
0000
0010
0000
0000
0000
0001
1000
,
0001
1000
0110
0011
1100
1100
1100
0110
,
0110
1100
0110
1100
1001
1100
1010
1100
,
1001
0000
1100
0000
0101
0000
1001
0000
0110
0010
0001
0010
1100
1000
0001
0010
,
1001
0100
0100
0100
1010
0000
2020
0000
0000
0000
3232
0000
0303
0000
0202
0000
,
0000
2323
3030
0000
0000
0000
0000
1001
,
0000
0000
0000
1001
0000
0000
0000
0220
,
0330
0000
0000
0220
0000
0000
0000
0000
,
0000
0000
0000
0000
0000
0000
0330
1100
,
0000
0000
0000
0000
0011
0000
0000
0000
0000
0000
0000
0220
0000
0000
0000
0000
,
0000
0000
0000
0000
0000
0000
0000
0000
0000
0000
0000
0000
0000
0000
0000
0330
,
0000
0000
0000
2002
0000
0000
0000
0000
,
0000
0000
3003
0000
,
2020
0000
0000
0000
3030
0202
0000
0000
0000
0000
0303
0000
0000
2002
0000
0000
,
0000
0000
0000
0000
0000
0000
0000
0000
0000
0000
0000
0000
0000
0000
0000
3003
,
0000
0000
0220
0000
,
0000
0000
0000
0000
0000
0000
0330
0100
,
0000
0000
0000
1000
0000
0000
0000
0000
0000
0000
0000
0000
0220
0000
0000
0000
,
0000
0000
0000
0330
0000
0000
0000
0000
2000
0000
0000
0000
0000
0000
3200
0000
,
0000
0000
0000
0320
0000
0000
0000
0000
0032
0000
0000
0000
0000
0000
0000
0000
,
0000
0003
0200
0000
0302
0000
0000
0000
,
0000
0000
0000
0000
,
0000
0000
0000
0000
,
0000
0000
0000
0003
2020
0000
0000
0000
,
0000
0000
0000
0000
0000
0000
0000
3030
,
2200
3322
0033
2020
,
0000
0000
0000
0000
,
0000
0000
0000
3030
2200
0000
0000
0000
,
0000
0000
0000
0000
0000
3300
0022
0000
,
0033
0000
0000
0000
0000
0000
0000
0000
2020
0000
0000
0000
0000
0000
0000
0000
3030
0000
0000
0000
0000
0000
0000
0000
0000
2200
0000
0000
0000
0000
0000
0000
3300
0000
0000
0000
0000
0000
0000
0000
0220
0000
0000
0000
0000
0000
0000
0000
0000
0000
0000
0000
0000
0000
0000
0000
0000
0000
0000
0000
0000
0000
0000
0000
,
0000
0000
0000
0000
,
0000
0000
0000
0330
2002
0000
0000
0000
,
0000
0000
0000
0000
0000
3003
0000
0000
,
2200
3322
2233
3300
,
0000
0000
0000
0000
2020
0000
3030
0202
,
0000
0000
2323
0000
0000
3232
0000
0000
,
0000
0000
0000
0000
,
0000
0000
0000
0000
0000
0000
0000
0000
0000
0000
0000
0000
0000
0000
0000
0000
2323
0000
0000
0000
0000
0000
0000
0000
0000
0000
0000
0000
0000
0000
0000
3030
2020
0000
0000
0000
0000
0000
0000
0000
0000
0000
0000
0000
0000
0000
0000
0000
0000
0000
0000
0000
0000
0000
0000
0000
0000
0000
0000
0000
0000
0000
0000
0000
,
0000
0000
0000
0000
,
3030
0000
0000
0000
1010
0100
0100
0101
,
0001
0001
0101
1000
0011
0100
1000
0011
,
1000
1000
0110
0100
1001
0001
1000
1100
,
1000
0000
0000
0100
0000
0000
1100
0000
0000
0100
0000
0000
0010
0000
0000
0001
0000
0000
1000
0100
0010
0001
0000
0000
,
1000
0100
0010
0001
0000
0000
0000
0000
1000
0100
0010
0001
0000
0000
0000
0000
0011
0000
0000
0000
0001
0000
0000
0000
0100
0000
0000
0000
0011
0000
0000
0000
,
0010
0001
1100
0100
1001
0010
0001
1010
,
0010
1000
1010
0010
1010
0100
0001
0011
,
0100
0000
0000
0000
0100
0000
0000
0000
1001
0000
0000
0000
0001
0000
0010
0000
0100
0000
1000
0000
0100
0000
0010
0000
0001
0010
0100
1000
0000
0010
0001
0010
,
0100
1000
0100
0000
0010
0000
0000
0000
0101
0000
0000
0000
0100
0000
0000
0000
0110
0000
0000
0000
0100
0000
0000
0000
1000
0000
0000
0000
0101
0000
0000
0000
,
1000
0001
1100
0010
0110
0001
0010
1010
,
0100
0000
1000
0000
1010
0000
0010
0000
0110
0000
1000
0010
0001
0000
0100
0010
,
0010
0000
0000
0000
0000
0000
1000
0000
0000
0001
0000
0000
0001
0000
0000
0000
0000
0000
0001
0000
0000
0000
0000
0000
1001
0000
0000
0000
0000
0000
1000
0000
0000
0000
0000
0000
1000
0000
0000
0000
0000
0000
0100
0000
0010
0000
0100
0000
,
0010
0100
0010
0001
0000
0000
0101
0000
0000
0001
0000
0000
1001
0000
0000
0001
0000
0000
1000
0000
0000
1100
0000
0000
,
1000
0010
0101
0010
1001
1000
1000
0101
,
0100
0000
1000
0000
0101
0000
1000
0000
0001
0010
0100
0000
0001
1000
0001
0000
,
0010
0000
0000
0000
0010
0000
0000
0000
1000
0100
0010
0001
0000
0000
0000
0000
1000
0100
0010
0001
0000
0000
0000
0000
0001
0010
0100
1000
0000
0000
0000
0000
,
0001
0010
0100
1000
0000
0000
0000
0000
0011
0000
0000
0000
1000
0000
0000
0000
0100
0000
0000
0000
1100
0000
0000
0000
0100
0000
0000
0000
0100
0000
0000
0000
,
0101
0010
1100
0010
0100
0101
0001
0100
,
0101
0100
1001
0100
1000
0011
0010
0100
,
1001
0000
0100
0000
0011
0000
1100
0000
0010
0100
0100
1000
0100
0000
0100
0000
,
0101
0100
0101
0010
0001
0110
1000
0100
,
0011
0010
0110
0001
1000
1100
0010
0100
,
1001
0001
1100
1000
1000
1001
0100
1000
,
1100
0000
0010
0000
0110
0000
0010
0000
0110
0000
1000
0000
1000
1000
1001
0000
,
0011
0100
0011
0010
0001
0110
0010
1000
,
0011
0100
1001
0100
0010
1001
0100
0001
,
1001
0001
1010
0001
0100
1100
0001
0010
,
1001
0100
1010
0100
0100
0101
0001
1000
,
1100
0010
1100
0001
1000
1010
0010
1000
,
1010
1000
0010
0011
1000
0101
0001
0010
,
1001
0100
0001
0110
0100
0011
1000
0100
,
0001
0010
1000
0001
0010
1000
0001
0010
,
1001
0010
1001
0100
1001
0010
1001
0100
,
0110
1000
0110
0001
0110
1000
0110
0001
,
0110
0001
1001
0100
0100
1100
1000
0101
,
1100
0000
0000
0000
1000
0100
0010
0001
0000
0000
0000
0000
0001
0010
0100
1000
0000
0000
0000
0000
1000
0100
0010
0001
0000
0000
0000
0000
0101
0000
0000
0000
,
1000
0001
0110
0001
0100
0011
0001
1001
,
0100
1000
0110
0100
1000
1100
0001
1010
,
0100
0000
0010
0000
1001
0000
1000
0000
0100
0000
0101
0000
0001
0100
0001
0010
,
0010
0100
1000
0100
0010
0000
0010
1000
0100
0010
0000
0000
0100
0000
0000
1010
0000
0000
0001
0000
0000
0011
0000
0000
,
0100
0100
0110
1000
0001
1001
0001
0101
,
1000
0100
0110
1000
1000
0110
1000
1100
,
1000
0001
0010
0000
0100
0100
0001
0000
0100
1000
0100
0000
1001
0000
0010
0000
,
1010
0000
0000
1000
0000
0000
1100
0010
0001
0010
0100
0010
0001
0000
0000
1100
0000
0000
0010
0000
0000
0101
0000
0000
,
1000
1000
0110
0010
0001
1100
0100
1100
,
0100
0000
0010
0000
1010
0000
0100
0000
0100
0000
0101
0000
0100
0000
0100
1000
,
0010
0000
0000
0000
0010
0000
0010
0000
1000
0000
0000
0000
0010
0000
0000
0000
1000
0000
0000
0000
0001
0010
0100
1000
0000
0000
0000
0000
1000
0100
0010
0001
,
0000
0000
0000
0000
0001
0010
0100
1000
0000
0000
0000
0000
1000
0100
0010
0001
0000
0000
0000
0000
0101
0000
0000
0000
1000
0000
0000
0000
0010
0000
0000
0000
,
0011
0100
0100
0101
1000
0110
1000
0100
,
0101
0100
0010
1100
1000
1010
0100
0010
,
1100
0000
0010
0000
1000
0000
1010
0000
0100
0000
0101
0000
1010
0000
0001
0010
,
0001
1000
1000
0000
0100
0000
0110
0000
1000
0000
0101
0000
0100
0000
1000
0000
,
1100
0100
0010
0011
0010
0011
1000
0100
,
0011
0001
0010
1001
0001
1001
1000
0100
,
0101
0100
0010
0011
0100
0110
0001
1100
,
0010
0000
0100
0001
0101
0000
1100
0000
0100
0000
0110
0000
0100
0000
0010
0000
,
0011
0010
0010
1010
0100
0101
0001
0001
,
1100
0010
0001
1001
1000
0101
0010
0010
,
1100
0010
0010
0011
0010
0101
0001
0010
,
1010
0100
0100
0011
0001
0110
1000
0100
,
1001
0100
1000
0101
0010
0100
1001
0100
,
0011
0010
0001
0011
1000
0100
0101
0001
,
1010
0100
0100
0110
0001
0100
0101
0100
,
1010
0010
0000
0000
0000
0202
0000
0000
,
0000
0000
0313
1001
0100
1001
0010
1010
,
0001
0110
1000
1100
0010
0011
0100
1001
,
1000
0110
1000
0101
1000
0101
0010
1001
,
0100
1001
0010
1100
0101
1000
0110
0001
,
1010
0000
0000
1000
0000
0001
0000
1000
0000
0001
0000
1000
0000
0001
0000
0100
,
0000
0010
0000
1000
0000
0001
0000
1000
0000
0001
0000
1000
0000
0001
0000
0010
,
0000
0100
0000
1000
0000
0001
0000
1000
0000
0001
0000
1000
0000
0001
0000
0100
,
0000
0010
0000
1000
0000
0001
0000
1000
0000
0001
0000
1000
0000
0001
0000
0010
,
0000
1100
0010
1010
0100
0011
0001
0101
,
0001
0011
0001
1100
0100
1010
0100
1010
,
0001
0101
0010
0110
0100
1100
0100
1001
,
1000
0000
0011
0000
1000
0000
1001
0000
0100
0010
1001
0000
0100
0000
1010
0000
,
0001
0110
0010
1100
1000
0101
0001
0011
,
0010
0101
1000
1010
1000
1001
0010
1001
,
1000
0101
0010
1001
0100
0101
0100
0011
,
0001
0101
0100
0011
0001
1010
1000
1100
,
1000
1010
0000
0000
0000
1001
0000
0000
0000
0110
0000
0000
0000
0011
0000
0000
,
0000
0011
0000
0000
0000
1100
0000
0000
0000
1010
0000
0000
0000
0101
0000
0000
,
0000
1100
0000
0000
0000
1001
0000
0000
0000
0011
0000
0000
0000
0110
0000
0000
,
0000
1010
0000
0101
0000
0000
1100
0000
0000
0000
0011
0000
0000
0000
0000
0000
,
1100
1001
0011
1010
,
0101
1010
1001
0011
,
2020
3030
0202
0303
0220
0330
2002
3003
,
0220
0330
2002
3003
0000
2200
0000
3300
0000
0022
0000
0033
1001
0000
0100
0000
,
1001
1000
1100
0010
1100
0001
0101
0100
,
1001
1000
0011
0100
0110
1000
0101
0100
,
0110
0010
1100
0001
0101
1000
0101
0010
,
1010
0100
0101
0100
0110
0001
0011
0001
,
0101
0010
1010
0001
0011
1000
0011
0001
,
1001
0100
1001
0100
0101
1000
0001
1000
,
0001
1000
0001
0100
0010
1000
0001
1000
,
0110
0000
0010
0010
0100
0010
1100
1000
,
0100
0000
0000
0000
0010
0000
0000
1000
0100
0000
0000
0010
0000
0000
0000
0100
0000
0000
0000
0000
0000
0000
0000
0000
0010
0000
0000
0000
1000
0000
0000
0000
,
0010
0000
0000
0000
0100
0000
0000
0010
0001
0000
0000
0100
0000
0000
0000
0010
0000
0000
0000
0000
0000
0000
0000
0000
0100
0000
0000
0000
0010
0000
0000
0000
,
1000
0000
0000
0000
0100
0000
0000
0010
1000
0000
0000
0100
0000
0000
0000
0010
0000
0000
0000
0000
0000
0000
0000
0000
0100
0000
0000
0000
0010
0000
0000
0000
,
1000
0100
0010
0000
0110
0000
0110
0000
1000
0000
1010
0000
0100
0000
1001
0000
,
0010
1010
0001
1010
0100
1001
0100
1010
,
1000
0101
0100
0011
0100
2200
3300
0022
,
0033
0000
0202
0000
0303
0000
2020
0000
3030
0000
0220
0330
2002
3003
0000
0220
,
0000
0330
0000
2002
0000
3003
1100
0000
0100
0000
1100
0000
0010
0000
1010
0000
,
0010
0101
1000
1100
1000
1001
0010
1001
,
1000
1010
0100
0101
0100
0011
0100
0011
,
0100
0011
0001
0101
0100
1001
0001
1001
,
0100
1001
0001
1100
1000
1100
0100
0110
,
0010
0101
0100
1010
1000
1100
0100
0011
,
1000
0101
0010
1100
0100
0101
0010
1100
,
0010
1100
1000
1010
0001
0011
0001
0110
,
1000
0011
1000
0101
0100
0011
1000
0110
,
0010
1100
0001
0110
1000
0011
0100
0011
,
0100
0000
0101
0000
0000
0010
0000
0000
0000
0010
0000
0000
0000
0010
0000
0000
,
0000
0010
0000
0000
0000
0010
0000
0010
0000
0000
2020
0000
3030
0000
0202
0000
,
0303
1100
1010
0110
,
1100
0110
1001
0101
,
1100
0000
0220
0330
2002
3003
2020
3030
,
0202
0000
0303
0000
0220
0330
2002
3003
0000
2020
0000
3030
0000
0202
0000
0303
,
0010
1000
0001
0100
0001
1000
0100
0001
0010
0100
0010
1000
0100
0010
0100
0001
,
0010
1000
0100
0100
0100
0010
1000
0001
1000
0100
0100
0100
0100
0100
1000
0001
,
1000
1000
1000
1000
0001
0001
0010
0100
0100
0100
0010
0010
1000
1000
0001
0100
,
1000
0001
0001
0100
1000
0010
0010
0001
0100
0010
1000
0100
0010
0100
1000
0100
,
0001
0001
0100
0001
0001
0001
0100
0100
0010
1000
0001
0010
0010
0001
1000
0100
,
0010
0001
0100
0001
1000
0100
0010
0010
1000
1000
1000
1000
0100
1000
0100
0100
,
0100
0100
0001
0010
0001
1000
0001
0010
1000
0010
1000
0001
0010
0100
0001
1000
,
0001
0010
0100
0001
1000
0100
0001
1000
0010
0100
1000
1000
1000
0001
0202
0000
,
0000
0000
0000
0000
,
0303
0000
0000
0000
;
