#TITLE:Castle In The Sky 2003;
#SUBTITLE:Ziddy Presents;
#ARTIST:DJ Shrapnel;
#TITLETRANSLIT:;
#SUBTITLETRANSLIT:;
#ARTISTTRANSLIT:;
#CREDIT:;
#BANNER:CITS.jpg;
#BACKGROUND:CITS-bg.jpg;
#LYRICSPATH:;
#CDTITLE:;
#MUSIC:Dj Sharpnel & V.a - Castle In The Sky 2003.mp3;
#OFFSET:0.000;
#SAMPLESTART:100.000;
#SAMPLELENGTH:11.980;
#SELECTABLE:YES;
#BPMS:0.000=170.000;
#STOPS:;
#BGCHANGES:;
// cache tags:
#FIRSTBEAT:1.000;
#LASTBEAT:1189.250;
#SONGFILENAME:Songs/mike songs/Castle In The Sky 2003/CITS.sm;
#HASMUSIC:1;
#HASBANNER:1;
#MUSICLENGTH:419.497;
// end cache tags

//---------------dance-single - w00t----------------
#NOTES:
     dance-single:
     w00t:
     Challenge:
     12:
     1.000,1.000,1.000,0.806,1.000,2510.000,537.000,338.000,0.000,14.000:
0000
0000
1000
1000
0001
0001
0010
0010
,
0100
0100
1000
1000
0001
0001
0100
0100
,
0010
0010
0100
0100
1000
1000
0100
0010
,
0001
0010
0001
0010
0100
0010
1000
0100
,
1000
0100
0100
0010
0010
0001
0010
0100
,
1000
0100
0001
1000
0100
0010
1000
0100
,
0001
0010
0010
0100
0100
0001
1000
0100
,
0010
0000
0000
0100
0000
0000
0010
0000
0000
0100
0000
0000
1000
0000
0000
0100
0000
0000
1000
0100
0010
0001
0010
0100
,
1000
1001
1100
0110
,
0011
0101
1010
0110
,
1001
0110
1100
0011
,
0110
1100
1010
0101
,
1010
0101
1010
0110
,
1001
1010
0101
1010
,
0110
0011
1100
1001
,
0110
0000
0000
0000
0000
0000
1001
0000
0000
0000
0000
0000
0101
0000
0000
0000
0000
0000
1000
0100
0010
0001
0010
0100
,
1000
0000
2000
0000
3010
0001
0200
0000
,
1300
0100
0000
0010
0001
0010
0200
0000
,
1300
0100
0020
0000
0031
0010
0200
0000
,
1300
0100
0000
0010
0001
0010
0200
0000
,
1300
0100
0020
0000
1030
0100
0002
0000
,
1003
0100
0000
0010
0100
1000
0002
0013
,
1000
0100
0002
0000
1003
0100
0020
0000
,
0031
0020
0000
0130
1000
0100
0020
0000
,
0031
0000
0000
0000
0001
0010
0001
0010
0001
0010
0001
0010
0001
0010
0100
0010
,
0100
0010
0100
0010
0100
0010
0100
0010
0100
1000
0100
1000
0100
1000
0100
1000
,
0100
1000
0100
0010
0100
0010
0001
0010
0001
0010
0100
0010
0100
0010
0100
1000
,
0100
1000
0100
1000
0100
0010
0001
0010
0100
0010
0001
0010
0100
1000
0100
0010
,
0001
0010
0100
1000
0100
0010
0001
0010
0100
0010
0001
0010
0100
1000
0100
0010
,
0100
1000
0100
0010
0001
0010
1000
0001
0100
1000
0001
0010
1000
0001
0100
1000
,
0001
0010
1000
0001
0100
1000
0001
0010
1000
0001
0100
1000
0001
0010
1000
1000
,
0010
0001
1000
0100
0001
1000
0010
0001
1000
0100
0001
1000
0010
0001
1000
0100
,
0002
0000
1103
0100
1100
1000
1010
0010
,
0011
0001
0101
0100
1100
1000
1010
0010
,
0110
0100
0101
0001
0011
0010
1010
1000
,
1010
0010
0011
0001
0101
0100
1100
1000
,
1010
0010
0110
0100
1100
1000
1001
0001
,
0101
0100
0110
0010
1010
1000
1100
0100
,
0101
0001
0101
0100
1100
1000
1100
0100
,
0101
0001
1001
1000
1001
0001
1001
1000
,
1010
0010
0110
0100
1100
1000
1001
0001
,
0101
0100
0110
0010
1010
1000
2100
0000
,
3001
0010
0200
0000
1300
0100
2000
0000
,
3001
0020
0000
1030
0100
0010
0002
0203
,
0320
0032
0023
0000
1030
0100
0020
0000
,
0031
0020
0000
1030
0100
0100
0010
0100
,
1000
0100
0002
0000
1003
0100
0020
0000
,
0031
0020
0000
1030
0100
0010
0100
1000
,
0100
0010
0001
0010
1100
0000
1010
0000
1100
0000
0011
0000
0101
0000
0011
0000
,
0101
0110
1001
0110
1001
1100
1010
1100
,
1010
0101
0011
0101
0011
1010
0110
1010
,
0110
1010
0110
1010
0110
0101
0110
0101
,
0110
0101
0110
0101
1010
0101
1010
0101
,
1010
0101
1010
0101
0110
1001
0110
1001
,
0110
1001
1010
1100
1010
1100
0110
0101
,
0110
0101
0011
0101
0011
0101
0011
0101
,
0000
0000
1000
0001
1000
0000
0000
0000
1000
0000
0100
0000
0010
0000
0000
0000
,
0010
0000
0000
0000
0001
0000
0010
0100
0000
0000
1000
0000
1000
0000
1000
0000
,
1000
0000
0100
0010
0001
0001
0010
0000
,
1000
0000
0100
0010
0001
1000
0001
0002
,
0000
0000
1003
0100
0010
0001
0001
0000
,
0001
0000
1000
0100
0010
0001
0001
0010
,
0001
0000
0001
0010
0100
1000
1000
0000
,
1000
0000
0020
1000
0031
0010
0100
0000
,
1000
1000
1001
0001
0001
1001
1000
1000
,
1001
0001
1001
0000
1001
0000
1001
1001
,
1001
0000
0000
0000
1000
0100
0010
0001
0010
0100
1000
0100
0000
0000
0000
0000
,
0100
0000
0000
1000
0100
0010
0001
0010
0100
1000
0001
1000
1001
0000
1001
0000
,
1001
0000
1001
0000
0110
0000
1000
0100
0000
0000
0011
0000
0001
0000
0010
0100
,
0000
0000
1100
0000
1000
0000
0100
0010
0000
0000
0011
0000
0001
0000
0010
0100
,
0000
0000
1100
0000
1000
0000
0100
0010
0001
0000
0010
0000
0100
0000
1000
0000
,
0100
0010
0001
0010
0100
2000
3100
0000
,
0100
0010
0002
0000
1003
0000
1000
0001
,
1000
0001
1000
0010
1000
0010
1000
0010
,
1000
0010
0100
0001
0100
0001
0100
0001
,
0100
0001
0010
1000
0010
1000
0010
1000
,
0010
1000
0100
0010
0100
0010
0100
0010
,
0100
0010
0001
1000
0001
1000
0001
1000
,
0001
1000
0100
0001
0100
0001
0100
0001
,
0100
0001
0010
1000
0010
1000
0010
1000
,
0010
1000
1001
0100
1001
0010
0100
0010
,
1100
0100
0010
0001
0101
0010
0100
1000
,
1010
0100
0010
0100
1100
0100
0010
0001
,
1001
0100
0010
1000
0110
1000
0100
0010
,
1010
0100
0001
0010
1010
0100
0010
0100
,
1001
0100
0010
1000
1010
0100
0001
0100
,
0110
0010
0001
0010
0011
1000
0001
0100
,
1010
0100
0010
0100
0101
0010
0200
0000
,
0000
0000
0000
0000
1301
0100
0010
0001
0010
0100
1000
0100
0010
0001
0010
0001
,
0010
0100
1000
0100
0010
0001
0010
0100
1000
0100
0010
0001
0010
0100
1000
0100
,
0020
0000
0000
0000
1031
0100
0010
0001
0010
0100
0010
0001
0010
0100
1000
0100
,
0010
0100
1000
0100
0010
0001
0010
0001
0010
0100
1000
0100
0010
0001
0010
0100
,
1000
1000
0000
0000
1001
0000
0000
0000
0200
0000
0310
0000
0000
0000
0020
0000
,
0000
0030
1001
0000
0020
0130
0000
0200
,
0000
0300
2001
0000
0000
3002
0000
0000
,
2003
0100
0100
0100
,
3100
0000
0001
0010
0100
1000
1000
0100
,
0010
0001
0001
0010
0100
1000
1000
0100
,
0010
0001
0001
0010
0100
1000
1000
0100
,
0010
0001
0001
0010
0100
1000
1000
0100
,
0010
0000
0001
0000
1000
0010
0001
0010
0100
1000
0100
0010
0001
0010
0100
1000
,
0100
0010
0001
0010
0100
1000
0100
0010
0001
0010
0100
1000
0100
0010
0001
0010
,
0100
0010
0001
0010
0100
1000
0100
0010
0001
0010
0100
1000
0100
1000
0100
0010
,
0001
0010
0100
1000
0220
0000
0000
0000
0000
0000
0000
0000
0000
0000
0000
0000
,
0330
0000
0000
1001
0000
1000
0000
0110
0000
0010
0000
0011
0000
0001
0000
0011
,
0000
0100
0000
1100
0000
0100
0000
0101
0000
0001
0000
0011
0000
0010
0000
1010
,
0000
0100
0000
1100
0000
1000
0000
1010
0000
0010
0000
0011
0000
0001
0000
1001
,
0000
1000
0000
1010
0000
0010
0000
0110
0000
0100
0000
1100
0000
1000
0000
1001
,
0000
0001
0000
0011
0000
0010
0000
1010
0000
1000
0000
1100
0000
0100
0000
0101
,
0000
0001
0000
1001
0000
0001
0000
1001
0000
1000
0000
1010
0000
0010
0000
0110
,
0000
0100
0000
1100
0000
1000
0000
1010
0000
0010
0000
0110
0000
0100
0000
0110
,
0000
0010
0000
0011
0000
0001
0000
1001
0000
1000
0000
1010
0000
0010
0000
0101
,
0000
0001
1000
0100
0000
0010
0000
1001
0000
1000
0000
1100
0000
1000
0000
1010
,
0000
1000
0000
1100
0000
1000
0000
1001
0000
1000
0000
1100
0000
1000
0000
1010
,
0000
1000
0000
1100
0000
1000
0000
1001
0000
1000
0000
1010
0000
1000
0000
1100
,
0000
1000
0000
1001
0000
1000
0000
1001
0000
0001
0000
0101
0000
0001
0000
0011
,
0000
0001
0000
0101
0000
0001
0000
0011
0000
0001
0000
1001
0000
0001
0000
0101
,
0000
0010
0000
1010
0000
0100
0000
1100
0000
0100
0000
0110
0000
0010
0000
0011
,
0000
0010
0000
1100
0000
0100
0000
0110
0000
0010
0000
0011
0000
0001
0000
0101
,
0000
0100
0000
2001
0000
0000
0000
0000
0000
0000
0000
0000
0000
0000
0000
3000
,
0000
1000
0000
1010
0000
0010
0000
1010
0000
1000
0000
1001
0000
0001
0000
0011
,
0000
0001
0000
0101
0000
0100
0000
0110
0000
0010
0000
0011
0000
0001
0000
0101
,
0000
0100
0000
1100
0000
1000
0000
1010
0000
0010
0000
0110
0000
0100
0000
1100
,
0000
1000
0000
1001
0000
0001
0000
0101
0000
0100
0000
0110
0000
0010
0000
0011
,
0000
0001
0000
1001
0000
1000
0000
1001
0000
0001
0000
0101
0000
0100
0000
0110
,
0000
0010
0000
0011
0000
0001
0000
0101
0000
0100
0000
1100
0000
1000
0000
1010
,
0000
0010
0000
0110
0000
0100
0000
0101
0000
0001
0000
0011
0000
0010
0000
1010
,
0000
1000
0000
1010
0000
0010
0000
0110
0000
0100
0000
0202
0000
0000
0000
0000
,
0303
1000
0100
0011
0000
0010
0000
1100
0000
1000
0000
1010
0000
0010
0000
0011
,
0000
0001
0000
0202
0303
0100
0000
1100
0000
1000
0000
1001
0000
0001
0000
0101
,
0000
0100
0000
0220
0330
0001
0000
0110
0000
0100
0000
1100
0000
1000
0000
0110
,
0000
0010
0000
0022
0033
0001
0000
0101
0000
0100
0000
1100
0000
1000
0000
1010
,
0000
0010
0000
0220
0330
0100
0000
1100
0000
1000
0000
1001
0000
0001
0000
0101
,
0000
0100
0000
0220
0330
0010
0000
0011
0000
0001
0000
0101
0000
0100
0000
1100
,
0000
1000
0000
2020
3030
0010
0000
0011
0000
0001
0000
2002
3003
1000
0000
1010
,
0000
0010
0000
0220
0330
0220
0330
0202
0303
2002
3003
2002
3003
2002
3003
2020
,
3030
0202
0303
0220
0330
1000
0000
0100
0000
0001
0000
0010
0000
1000
1000
0100
,
0000
0010
0000
0001
0000
0010
0000
0100
0000
1000
0000
0100
0000
0001
0001
0010
,
0100
1000
0000
0100
0000
0010
0000
0001
0000
0100
0000
1000
1000
0100
0000
0010
,
0000
0001
0000
0010
0000
0100
0000
1000
0000
0100
0100
0010
0001
0010
0100
0000
,
0000
0000
0000
0100
0000
0010
0001
0000
0000
0001
0010
1000
0000
0000
0000
1000
,
0000
0000
0000
1000
0000
0100
0010
0000
0001
0010
0100
0010
0001
0000
0001
0000
,
0001
2000
0000
3001
0000
0010
0100
0000
0000
1000
0000
0100
0000
0000
0000
0100
,
0000
0001
0000
0010
0000
0100
0000
1000
0000
0100
0000
0010
0001
0010
0001
0000
,
0000
0010
0000
0010
0000
0010
0100
0000
0000
0100
0000
1000
0000
0000
0000
2000
,
0000
0000
0000
3001
0000
0010
0100
0000
0000
1000
0000
0100
0000
0010
0000
0200
,
0000
0000
0000
0301
0000
0010
0100
0000
0000
1000
0000
0001
0000
0000
0000
0010
,
0000
0000
0000
0000
0000
0000
0000
0000
0000
1000
0000
0000
0000
0000
0000
0100
0000
0000
0010
0000
0000
0000
0000
0000
0001
0000
0010
0000
0001
0000
0010
0000
0001
0000
0010
0000
0001
0000
0010
0000
0002
0000
0000
0000
0000
0000
0000
0000
,
0000
0000
0000
0000
0003
0000
0000
0000
0000
1000
0000
0000
0000
0000
0000
0100
0000
0000
0010
0000
0000
0000
0000
0000
0000
0000
0000
0001
0000
0000
0000
0000
0000
0010
0000
0000
0000
0000
0000
1000
0000
0000
0100
0000
0000
0000
0000
0000
,
0000
0001
0000
0010
0000
1000
0100
0000
0000
0100
0000
0001
0000
1000
0010
0000
,
0000
0001
0000
0010
0000
1000
0010
0000
0000
0001
0000
0010
0000
0100
0000
1000
,
0000
0100
0000
0010
0000
0001
0000
0010
0000
0100
0100
0200
0000
0300
0000
2000
,
0000
0000
0000
0000
0000
3001
0000
0010
0000
0100
0000
2000
0000
3100
0000
0010
,
0000
0002
0000
0013
0000
0100
0000
1000
0000
0100
0000
2000
0000
3001
0000
2000
,
0000
3200
0000
0320
0000
0031
0000
0010
0000
0100
0000
2000
0000
3100
0000
0020
,
0000
0031
0000
0010
0000
0200
0000
1300
0000
0100
0000
0020
0000
0031
0000
2000
,
3000
0001
0000
0010
0000
0100
0000
1000
0000
0100
0000
0010
0000
0001
0000
0010
,
0000
0100
0000
1000
0000
0100
0000
0010
0000
0001
0000
0010
0000
0100
0000
1000
,
0000
0100
0000
0010
0000
0100
0000
1000
0000
0100
0000
0010
0000
0001
0000
0010
,
0000
0100
0000
0010
0000
0001
0000
0010
0000
0100
0000
1000
0000
0100
0000
1000
,
0000
0100
0000
0010
0001
0010
0100
1000
0100
0010
0001
0010
0100
1000
0100
0010
,
0100
1000
0100
0010
0001
0010
0100
0010
0100
1000
0100
0010
0100
1000
0100
0010
,
0001
0010
0100
0010
0100
0010
0100
1000
0100
0010
0001
0010
0100
1000
0100
0010
,
0001
1000
0001
0100
0010
1000
0100
0010
0100
1000
0100
0001
0100
0010
1000
0100
,
0010
0000
0000
0001
0000
0000
0010
0000
0000
0100
0000
0000
0001
0000
0010
0000
0001
0000
0010
0000
0001
0000
0010
0000
0001
0000
0010
0000
0001
0000
0010
0000
0001
0000
0010
0000
0001
0000
0010
0000
0001
0000
0010
0000
0001
0000
0010
0000
,
0001
0010
0001
0010
0001
0010
0001
0010
0001
0010
0001
0010
0001
0010
0001
0010
0001
0010
0001
0010
0001
0010
0001
0010
,
0001
0010
0001
0010
0001
0010
0001
0010
0001
0010
0001
0010
0001
0010
0001
0010
0001
0010
0001
0010
0001
0010
0001
0010
,
0001
0010
0001
0010
0001
0020
0000
0000
0000
0000
0000
0000
0000
0000
0000
0000
0000
0000
0000
0000
0000
0000
0000
0000
,
0000
0000
0000
2030
0000
3200
0000
0320
0000
0230
0000
0302
0000
2003
0000
3200
,
0000
0320
0000
0230
0000
0320
0000
0032
0000
0023
0000
0230
0000
2300
0000
3200
,
0000
0320
0000
0032
0000
2003
0000
3020
0000
0230
0000
2300
0000
3002
0000
0023
,
0000
0230
0000
2300
0000
3002
0000
2003
0000
3200
0000
0302
0000
0023
0000
2030
,
0000
3200
0000
0302
0000
2003
0000
3020
0000
0230
0000
2300
0000
3002
0000
0023
,
0000
0230
0000
0302
0000
0023
0000
2030
0000
3200
0000
0320
0000
0032
0000
0023
,
0000
0032
0000
0023
0000
0230
0000
0320
0000
2030
0000
3200
0000
2300
0000
3002
,
0000
0023
0000
2030
0000
3200
0000
2300
0000
3002
0000
0203
0000
0320
0000
2030
,
0000
3002
0010
0203
0000
0320
0000
2030
0000
3002
0000
0203
0000
0320
0000
2030
,
0000
3200
0000
0302
0000
0023
0000
2030
0000
3200
0000
0320
0000
2030
0000
3200
,
0000
0302
0000
0023
0000
2030
0000
3200
0000
0302
0000
0023
0000
2030
0000
3200
,
0000
0302
0000
0023
0000
2030
0000
3200
0000
0302
0000
0023
0000
2030
0000
3200
,
0000
0320
0000
2030
0000
3200
0000
0302
0000
0023
0000
2030
0000
3002
0000
0203
,
0000
0302
0000
0023
0000
2030
0000
3020
0000
0230
0000
2300
0000
3002
0000
0203
,
0000
0320
0000
2030
0000
3200
0000
0302
0000
0023
0000
2030
0000
3002
0000
0203
,
0000
0320
0000
2030
0000
3001
0000
0010
0000
0100
0000
1000
0010
0001
0000
0100
,
0000
1001
0000
0110
0000
2000
0000
3200
0000
0302
0000
2003
0000
3020
0000
0230
,
0000
0302
0000
2003
0000
3020
0000
0230
0000
2300
0000
3002
0000
0203
0000
0320
,
0000
2030
0000
3002
0000
0203
0000
0320
0000
2030
0000
3200
0000
0302
0000
0023
,
0000
2030
0000
3200
0000
0302
0000
2003
0000
3200
0000
0320
0000
2030
0000
3002
,
0000
0203
0000
0320
0000
2030
0000
3002
0000
0203
0000
0320
0000
2030
0000
3002
,
0000
0203
0000
0320
0000
2030
0000
3200
0000
0320
0000
2030
0000
3002
0000
0203
,
0000
0302
0000
2003
0000
3020
0000
0230
0000
2300
0000
3002
0000
0203
0000
0320
,
0000
2030
0000
3002
0000
0103
0000
0010
0000
1000
0000
0001
0000
1000
0000
0100
,
0000
1000
0000
0021
0000
0230
0000
0302
0000
2003
0000
3020
0000
0230
0000
2300
,
0000
3002
0000
1023
0000
0032
0000
2003
0000
3020
0000
0230
0000
2300
0000
3002
,
0000
0203
0000
1320
0000
2030
0000
3002
0000
0203
0000
0320
0000
2030
0000
3020
,
0000
0230
0000
1302
0000
2003
0000
3200
0000
0320
0000
2030
0000
3002
0000
0203
,
0000
2300
0000
3102
0000
0023
0000
2030
0000
3200
0000
0312
0000
2003
0000
3200
,
0000
0320
0000
1032
0000
2003
0000
3002
0000
0203
0000
1320
0000
0032
0000
2003
,
0000
3020
0000
1032
0000
0203
0000
0320
0000
0032
0000
1203
0000
0302
0000
0203
,
0000
0320
0000
1032
0000
1003
0100
0010
0001
0010
0100
1000
0100
0010
0001
0010
,
0100
1000
0000
1000
0000
1010
0000
1000
0000
1010
0000
1000
0000
1010
0000
1000
,
0000
1010
0000
0100
0000
0011
0000
0100
0000
0011
0000
0100
0000
0011
0000
0100
,
0000
0011
0000
0010
0000
1010
0000
0010
0000
1010
0000
0010
0000
1010
0000
0010
,
0000
1010
0000
0001
0000
1001
0000
0001
0000
1001
0000
0001
0000
1001
0000
0001
,
0000
1001
0000
0010
0000
1010
0000
0100
0000
1010
0000
0010
0000
1010
0000
0100
,
0000
1010
0000
0001
0000
0101
0000
0010
0000
0101
0000
0001
0000
0101
0000
0010
,
0000
1010
0000
0001
0000
1001
0000
1000
0000
1001
0000
0001
0000
1001
0000
1000
,
0000
1001
0000
0100
0000
0110
0000
0010
0000
0110
0000
0100
0000
0110
0000
0010
,
0000
0010
0100
0010
0000
1000
0000
0110
0000
0010
0000
0001
0000
0010
0000
1100
,
0000
0010
0000
0001
0000
0100
0000
1010
0000
0100
0000
0001
0000
1000
0000
1010
,
0000
0100
0000
0001
0000
0010
0000
1001
0000
0100
0000
0010
0000
1000
0000
1100
,
0000
0100
0000
0001
0000
1000
0000
1010
0000
0100
0000
0001
0000
1000
0000
0101
,
0000
0010
0000
1000
0000
0100
0000
0110
0000
0010
0000
1000
0000
0010
0000
0101
,
0000
0010
0000
1000
0000
0100
0000
0011
0000
0001
0000
0010
0000
0001
0000
1010
,
0000
0100
0000
0010
0000
0001
0000
1010
0000
0100
0000
1000
0000
0001
0000
0110
,
0000
1000
0000
0100
0000
0010
0000
1010
0000
0100
0000
0010
0000
1000
0000
1001
,
0000
0001
0000
0100
0000
0010
0000
0101
0000
0010
0000
1000
0000
0100
0000
0110
,
0000
0001
0010
0100
1000
0100
0000
0011
0000
0100
1000
0100
0010
0100
0000
0011
,
0000
1000
0100
0010
0100
0010
0000
1010
0000
0100
0010
0001
0010
0100
0000
1010
,
0000
0100
0010
0001
0010
0100
0000
1001
0000
0010
0100
1000
0001
0100
0000
0110
,
0000
1000
0100
0010
0001
0001
0000
1001
0000
0100
0010
1000
0100
0010
0000
1010
,
0000
0100
0001
0010
0100
1000
0000
1001
0000
0100
0010
0001
0010
0100
0000
1001
,
0000
0100
0010
0001
0010
0001
0000
1010
0000
0100
0010
1000
0100
0001
0000
1010
,
0000
0100
0001
0010
0100
1000
0010
1000
0010
0100
0010
0100
1000
0100
0010
0001
,
0010
0100
1000
1001
0000
0110
0000
1010
0000
0101
0000
0110
0000
0101
0000
1010
,
0000
1001
0000
0110
0000
1010
0000
0101
0000
0011
0000
1100
0000
0011
0000
0110
,
0000
1010
0000
0101
0000
1010
0000
0110
0000
0110
0000
1001
0000
1100
0000
0011
,
0000
1010
0000
0101
0000
0011
0000
0110
0000
1100
0000
0110
0000
1001
0000
0110
,
0000
0011
0000
1000
0100
0010
0001
0010
0100
0010
0001
0010
1000
0100
0001
1000
,
0100
0010
0100
0100
1000
0100
0001
0100
0010
1000
0100
0010
0001
0010
0100
1000
,
0100
0001
0100
0010
1000
0100
0010
1000
0100
0001
0100
1000
0100
0010
0001
0100
,
1000
0100
0000
0022
0000
0000
0000
0000
0000
0000
0000
0000
0000
0000
0033
0000
,
0000
0100
0000
0010
0000
0001
0000
1001
0000
0100
0000
0010
0000
0100
0000
1100
,
0000
0100
0000
0010
0000
0001
0000
0110
0000
0100
0000
1000
0000
0100
0000
0110
,
0000
0010
0000
0001
0000
0010
0000
0011
0000
0010
0000
0100
0000
1000
0000
1100
,
0000
0010
0000
0001
0000
0100
0000
1100
0000
0100
0000
0010
0000
0001
0000
1010
,
0000
0100
0000
0010
0000
1000
0000
1100
0000
0100
0000
0010
0000
0001
0000
0011
,
0000
0100
0000
0100
0000
0100
0000
0110
0000
0010
0000
0010
0000
0010
0000
1010
,
0000
1000
0000
1000
0000
1000
0000
1010
0000
0010
0000
0010
0000
0010
0000
0011
,
0000
0001
0000
0001
0000
0001
0000
0101
0000
0100
0000
0010
0000
1000
0000
1100
,
0000
0100
0001
0010
0000
0001
0000
0101
0000
0100
0000
0100
0000
1000
0000
1010
,
0000
0100
0000
0001
0000
0010
0000
1010
0000
0100
0000
0001
0000
0010
0000
1100
,
0000
0100
0000
0001
0000
0010
0000
1010
0000
0100
0000
0001
0000
0010
0000
0011
,
0000
0100
0000
1000
0000
0001
0000
0101
0000
0010
0000
1000
0000
0100
0000
0110
,
0000
1000
0000
0001
0000
0010
0000
1100
0000
0001
0000
0100
0000
0010
0000
1100
,
0000
0100
0000
0010
0000
0001
0000
0110
0000
1000
0000
0001
0000
0100
0000
0011
,
0000
1000
0000
0100
0000
0010
0000
1010
0000
0100
0000
0001
0000
0010
0000
1010
,
0000
0100
0000
0001
0000
0100
0000
1010
0000
0100
0000
0001
0000
0010
0000
0011
,
0000
1000
0000
0100
0000
0010
0000
1010
0000
0100
0000
0001
0000
0010
0000
1001
,
0000
0100
0000
0010
0000
1000
0000
1001
0000
0010
0000
0100
0000
0001
0000
0110
,
0000
1000
0000
0010
0000
0100
0000
1010
0000
0100
0000
0001
0000
0010
0000
1010
,
0000
1000
0000
0100
0000
0010
0000
0110
0000
1000
0000
0001
0000
0100
0000
1100
,
0000
0001
0000
0010
0000
1000
0000
0101
0000
0010
0000
1000
0000
0100
0000
1100
,
0000
0010
0000
0100
0000
0001
0000
1001
0000
0100
0000
0010
0000
1000
0000
1100
,
0000
0001
0000
0100
0000
0010
0000
0101
0000
0010
0000
1000
0000
0001
0000
0110
,
0000
1000
0000
0100
0000
1000
0000
1001
0000
0100
0000
0010
0000
1000
0000
0101
,
0000
1000
0100
0010
0000
0001
0000
1001
0000
0001
0000
1000
0000
0001
0000
0110
,
0000
1000
0000
0101
0000
0010
0000
1010
0000
0100
0000
0001
0000
1000
0000
0110
,
0000
0001
0000
0011
0000
0010
0000
0011
0000
1000
0000
0100
0000
1000
0000
1001
,
0000
0100
0000
1010
0000
1000
0000
1100
0000
0100
0000
0010
0000
0101
0000
0001
,
0000
0100
0000
0101
0000
0100
0000
1100
0000
0100
0000
0010
0000
0001
0000
0101
,
0000
0010
0000
1001
0000
0100
0000
1010
0000
0100
0000
0001
0000
1000
0000
0110
,
0000
0001
0000
0110
0000
0100
0000
1100
0000
0100
0000
0110
0000
1000
0000
0110
,
0000
0001
0000
0110
0000
0101
0000
1100
0000
0101
0000
1010
0000
0101
0000
1100
,
0000
0220
0000
0331
0000
1000
0000
0000
0000
0100
0000
0010
0000
1000
0000
0100
,
0000
0011
0000
0010
0000
0100
0000
1100
0000
0100
0000
0010
0000
0010
0000
0011
,
0000
0010
0000
0100
0000
1000
0000
1001
0000
0010
0000
0100
0000
1000
0000
1100
,
0000
0100
0000
0010
0000
0001
0000
0101
0000
0010
0000
1000
0000
0100
0000
0110
,
0000
0010
0000
0001
0000
0100
0000
1010
0000
0100
0000
0010
0000
0001
0000
0101
,
0000
0100
0000
1000
0000
0100
0000
0011
0000
0010
0000
0100
0000
0010
0000
1001
,
0000
0100
0000
0010
0000
0100
0000
1100
0000
0100
0000
0001
0000
0010
0000
0110
,
0000
0100
0000
1000
0000
0100
0000
0110
0000
0001
0000
0010
0000
0100
0000
1100
,
0000
0100
0010
0001
0000
1000
0000
0110
0000
0001
0000
0010
0000
0100
0000
1100
,
0000
0100
0000
0001
0000
1000
0000
0110
0000
0001
0000
0100
0000
1000
0000
1010
,
0000
0001
0000
0100
0000
0010
0000
1010
0000
0100
0000
0010
0000
0010
0000
0101
,
0000
1000
0000
0001
0000
0100
0000
1010
0000
0100
0000
1000
0000
0100
0000
0011
,
0000
0100
0000
1000
0000
0001
0000
0110
0000
1000
0000
0100
0000
0010
0000
0101
,
0000
0010
0000
0100
0000
1000
0000
1010
0000
0100
0000
1000
0000
0100
0000
1100
,
0000
0001
0000
0010
0000
0100
0000
1100
0000
0100
0000
0010
0000
0100
0000
1100
,
0000
1000
0000
0001
0000
0100
0000
0010
0000
1010
0000
0100
0000
0001
0000
0010
,
0000
1100
0000
0100
0000
0010
0000
0001
0000
0110
0000
0100
0000
0000
0000
0101
,
0000
0000
0000
0100
0000
0000
0000
1100
0000
0000
0000
0100
0000
0000
0000
0101
,
0000
0100
0000
0100
0000
0010
0000
0001
0000
0010
0000
1100
0000
0000
0000
0010
,
0000
0000
0000
0011
0000
0000
0000
0010
0000
0000
0000
1010
0000
0000
0000
0010
,
0000
0010
0000
0011
0000
0010
0000
0100
0000
1000
0000
0200
0000
0000
0000
0301
,
0000
0000
0000
0200
0000
0000
0000
1300
0000
0000
0000
0200
0000
0000
0000
0301
,
0000
0010
0000
0100
0000
1000
0100
0000
0000
0001
0000
0010
0000
0000
0000
1001
,
0000
0000
0000
1000
0000
0000
0000
1001
0000
0000
0000
0001
1000
0002
0000
0000
,
0000
1003
0000
0100
0010
0001
0000
0000
1001
0000
0100
0000
0010
0000
1001
0000
,
0010
0100
0001
0110
0010
0001
0001
1100
,
0010
0100
0100
0101
0010
0001
0001
1100
,
0010
0100
0100
0101
0001
0010
1000
1001
,
0100
0010
1000
1100
0100
0010
0001
0101
,
0010
0100
1000
1100
0100
0010
0100
1100
,
0100
0010
0001
0011
0001
0010
0100
1100
,
1000
0000
0100
0000
0000
0000
0100
0000
0000
0000
0000
0100
1000
0100
0010
0001
,
0000
0001
0000
0000
0000
0001
0000
0000
0000
0001
0000
0000
0000
0001
0000
0000
,
0000
0001
0000
0000
0000
0001
0000
0000
0000
0000
0000
0000
0000
0000
0000
0000
;
