#TITLE:Fast Track to Browntown;
#SUBTITLE:;
#ARTIST:Super Meat Boy;
#TITLETRANSLIT:;
#SUBTITLETRANSLIT:;
#ARTISTTRANSLIT:;
#CREDIT:SWR;
#BANNER:../Tachyon Gamma-bn.png;
#BACKGROUND:../Tachyon Gamma-bg.png;
#LYRICSPATH:;
#CDTITLE:;
#MUSIC:Fast Track to Browntown.ogg;
#OFFSET:-0.147;
#SAMPLESTART:50.680;
#SAMPLELENGTH:14.000;
#SELECTABLE:YES;
#DISPLAYBPM:133.000;
#BPMS:0.000=133.000;
#STOPS:;
#BGCHANGES:;
// cache tags:
#FIRSTBEAT:16.000;
#LASTBEAT:307.000;
#SONGFILENAME:Songs/Tachyon Gamma/Fast Track to Browntown - [SWR]/Fast Track to Browntown.sm;
#HASMUSIC:1;
#HASBANNER:1;
#MUSICLENGTH:144.336;
// end cache tags

//---------------dance-single - SWR----------------
#NOTES:
     dance-single:
     SWR:
     Challenge:
     13:
     1.000,1.000,0.014,0.201,1.000,1010.000,2.000,29.000,0.000,0.000:

0000
0000
0000
0000
,
0000
0000
0000
0000
,
0000
0000
0000
0000
,
0000
0000
0000
0000
,
1000
0001
0000
0010
0000
0000
0000
0000
0001
1000
0000
0010
0000
1000
0100
0100
,
0001
0000
1000
0000
0000
0000
0010
0000
0000
0000
0000
0000
0100
0000
0000
0000
0001
0000
1000
0000
0000
0000
0001
0000
0100
0000
0001
0000
1000
0100
1000
0100
,
1000
0001
0000
0100
0000
0000
0000
0000
0001
1000
0000
0100
0000
1000
0010
0010
,
0001
0000
1000
0000
0000
0000
0100
0000
0000
0000
0000
0000
0010
0000
0000
0000
0001
0000
1000
0000
0000
0000
0001
0000
0010
0000
0001
0000
1000
0010
1000
0010
,
1000
0000
0001
0000
0100
0000
0000
0000
0010
0000
1000
0000
0010
0000
0100
0001
0100
0000
0000
0000
0010
0000
1000
0000
0001
0000
1000
0000
0100
0000
0010
0000
,
0100
0000
1000
0000
0010
0000
0000
0000
0100
0000
0001
0000
1000
0000
0001
0100
0001
0000
1000
0000
0100
0000
0000
0000
0010
0000
0100
0000
1000
0000
0001
0100
,
0001
1000
0200
0000
0000
0000
0020
0000
0300
0000
0000
0000
0000
0000
0030
0000
,
0002
0000
1003
0010
0100
0001
1000
0100
0010
0001
0010
0100
1000
0001
0100
0001
,
1000
0010
1000
0000
0010
0000
1000
0010
1000
0000
0010
0000
0100
0001
0100
0001
0100
0000
0010
0000
1000
0000
0100
0000
1000
0000
0001
0000
0100
0000
0010
1000
,
0010
0100
0001
1000
0100
0010
0001
1000
0010
0000
1000
0001
0000
1000
0100
1000
,
0001
0100
0001
0100
0001
1000
0001
1000
0100
1000
0100
1000
0100
0010
0100
0010
,
0100
1000
0001
0100
0001
0010
0100
1000
0001
1000
0100
1000
0001
0010
0100
0010
0100
1000
0010
0100
0001
1000
0100
1000
,
0010
0000
1000
0010
0100
0010
1000
0010
0100
0000
0001
0010
0100
0010
0001
0000
,
1000
0100
0010
0000
0100
1000
0100
1000
0001
0000
1000
0001
0100
0001
0100
0000
,
0010
0000
0100
0001
1000
0001
0010
0001
0100
0000
0010
1000
0100
0010
0001
0000
,
0100
0000
0010
0000
0100
0000
0000
0000
0001
0000
1000
0000
0100
0000
0010
0000
0100
0000
1000
0001
1000
0000
0010
0000
0100
0000
0001
0000
1000
0001
1000
0001
,
1000
0001
0010
0000
0001
0100
0010
0000
0100
0001
0010
0000
0100
1000
0010
0000
,
0100
0000
0001
0000
1000
0000
0000
0000
0010
0000
1000
0000
0001
0000
0010
0001
0010
0000
0001
0000
0100
0000
0010
0000
1000
0000
0001
0000
0010
0000
0000
0000
,
0001
1000
0001
0000
0100
0010
1000
0000
0001
1000
0100
0000
0010
0100
1000
0000
,
0001
0000
0100
0000
0010
0000
0000
0000
1000
0000
0001
0000
0010
0000
0000
0000
0100
0000
0010
0000
0001
0000
1000
0000
0010
0000
0100
0000
0010
0000
1000
0002
,
2000
0000
0000
0000
0000
0000
0000
0000
0003
0000
0000
0000
3000
0000
0010
0200
0020
0000
0000
0000
0000
0000
0000
0000
0000
0000
0300
0000
0030
0000
1000
0001
,
1000
0100
0010
0001
0010
0100
1000
0100
0010
0001
1000
0001
0100
0001
0010
0001
,
0200
0000
0000
0000
0000
0000
0000
0000
0000
0000
0000
0000
0300
0000
0001
0200
0002
0000
0000
0000
0000
0000
0000
0000
0000
0000
0300
0000
0003
0000
1000
0002
,
2000
0000
0000
0003
0200
3000
0020
0330
,
1001
0000
0001
0000
1000
0000
0010
0000
0000
0000
0100
0000
0001
0000
1000
0000
0010
0000
1000
0000
0100
0000
0010
0000
0001
1000
0001
0000
0100
0000
0010
0000
,
0100
0000
0001
0000
1000
0000
0100
0000
0000
0000
0010
0000
0001
0000
1000
0000
0000
0000
0010
0000
0100
0000
0010
0000
0100
0001
0100
0001
0100
0001
0100
0001
,
0100
0001
1000
0100
0000
1000
0010
0100
0001
1000
0100
0010
0100
1000
0100
0010
,
0001
0010
0100
1000
0000
0000
0010
0100
0001
1000
0000
0000
0001
0100
0001
1000
,
0001
0100
0100
1000
0010
0100
0100
1000
0001
0100
0100
1000
0010
0100
0100
1000
,
0001
0010
0010
1000
0001
0010
0010
0100
0001
0010
0010
1000
0001
0010
0010
0100
,
0001
0000
0000
0100
0000
0000
0100
0000
0000
1000
0000
0000
0001
0000
0000
0100
0000
0000
0100
0000
0000
1000
0000
0000
0001
0000
0000
0010
0000
0000
0010
0000
0000
1000
0000
0000
0001
0000
0000
0010
0000
0000
0100
0000
1000
0000
0001
0000
,
1000
0000
0100
0000
0010
0000
0001
0000
0010
0000
0001
0000
1000
0000
0001
0000
0100
0000
0001
0000
1000
0000
0010
0000
0100
0000
0000
0001
0000
0000
1000
0000
0000
0010
0000
0000
0100
0000
0000
0001
0000
0000
1000
0000
0000
0100
0000
0000
,
0010
0001
1000
0001
0100
0010
1000
0100
0010
0001
1000
0001
0100
0010
1000
0100
,
0010
0100
1000
0001
1000
0010
0100
0001
0010
0100
0010
0001
1000
0010
1000
0100
,
0010
0001
1000
0001
0100
0010
1000
0100
0010
0001
1000
0001
0100
0010
1000
0100
,
0010
0100
1000
0001
1000
0010
0100
0001
0010
0100
0010
0001
1000
0010
1000
0000
,
0001
1000
0000
0100
0000
0000
0000
0000
1000
0001
0000
0100
0000
0001
0010
0010
,
1000
0000
0001
0000
0000
0000
0100
0000
0000
0000
0000
0000
0010
0000
0000
0000
1000
0000
0001
0000
0000
0000
1000
0000
0100
0000
1000
0000
0001
0100
0001
0100
,
0001
1000
0000
0010
0000
0000
0000
0000
1000
0001
0000
0010
0000
0001
0100
0100
,
1000
0000
0001
0000
0000
0000
0010
0000
0000
0000
0000
0000
0100
0000
0000
0000
1000
0000
0001
0000
0000
0000
1000
0000
0010
0000
1000
0000
0001
0010
0001
0010
,
0001
0000
1000
0000
0100
0000
0000
0000
0010
0000
0001
0000
0010
0000
0100
1000
0100
0000
0000
0000
0010
0000
0001
0000
1000
0000
0001
0000
0100
0000
0010
0000
,
0100
0000
0001
0000
0010
0000
0000
0000
0100
0000
1000
0000
0001
0000
1000
0100
1000
0000
0001
0000
0100
0000
0000
0000
0010
0000
0100
0000
0001
0000
1000
0100
,
1000
0001
0020
0000
0000
0000
0200
0000
0030
0000
0000
0000
0000
0000
0300
0000
,
2000
0000
3001
0100
0010
1000
0001
0010
0100
1000
0100
0010
0001
1000
0010
1000
,
0001
0100
0001
0000
0100
0000
0001
0100
0001
0000
0100
0000
0010
1000
0010
1000
0010
0000
0100
0000
0001
0000
0010
0000
0001
0000
1000
0000
0010
0000
0100
0001
,
0100
0010
1000
0001
0010
0100
1000
0001
0100
0000
0001
1000
0000
0001
0010
0001
,
1000
0010
1000
0010
1000
0001
1000
0001
0010
0001
0010
0001
0010
0100
0010
0100
,
0010
0100
1000
0100
1000
0100
0010
0001
0010
0001
1000
0001
0100
0010
0100
0001
1000
0100
1000
0001
0100
0001
0100
0010
,
0100
0000
0001
0100
0010
0100
0001
0100
0010
0000
1000
0100
0010
0100
1000
0000
,
0001
0010
0100
0000
0010
0001
0010
0001
1000
0000
0001
1000
0010
1000
0010
0000
,
0100
0000
0010
1000
0001
1000
0100
1000
0010
0000
0100
0001
0010
0100
1000
0000
,
0010
0000
0100
0000
0010
0000
0000
0000
1000
0000
0001
0000
0010
0000
0100
0000
0010
0000
0001
1000
0001
0000
0100
0000
0010
0000
1000
0000
0001
1000
0001
1000
,
0001
1000
0100
0000
1000
0010
0100
0000
0010
1000
0100
0000
0010
0001
0100
0000
,
0010
0000
1000
0000
0001
0000
0000
0000
0100
0000
0001
0000
1000
0000
0100
1000
0100
0000
1000
0000
0010
0000
0100
0000
0001
0000
1000
0000
0100
0000
0000
0000
,
1000
0001
1000
0000
0010
0100
0001
0000
1000
0001
0010
0000
0100
0010
0001
0000
,
1000
0000
0010
0000
0100
0000
0000
0000
0001
0000
1000
0000
0100
0000
0000
0000
0010
0000
0100
0000
1000
0000
0001
0000
0100
0000
0010
0000
0100
0000
0001
2000
,
0002
0000
0000
0000
0000
0000
0000
0000
3000
0000
0000
0000
0003
0000
0100
0020
0200
0000
0000
0000
0000
0000
0000
0000
0000
0000
0030
0000
0300
0000
0001
1000
,
0001
0010
0100
1000
0100
0010
0001
0010
0100
1000
0001
1000
0010
1000
0100
1000
,
0020
0000
0000
0000
0000
0000
0000
0000
0000
0000
0000
0000
0030
0000
1000
0020
2000
0000
0000
0000
0000
0000
0000
0000
0000
0000
0030
0000
3000
0000
0001
2000
,
0002
0000
0000
3000
0020
0003
0200
0330
,
1001
0000
1000
0000
0001
0000
0010
0000
0000
0000
0100
0000
1000
0000
0001
0000
0010
0000
0001
0000
0100
0000
0010
0000
1000
0001
1000
0000
0100
0000
0010
0000
,
0100
0000
1000
0000
0001
0000
0100
0000
0000
0000
0010
0000
1000
0000
0001
0000
0000
0000
0010
0000
0100
0000
0010
0000
0100
1000
0100
1000
0100
1000
0100
1000
,
0100
1000
0001
0100
0000
0001
0010
0100
1000
0001
0100
0010
0100
0001
0100
0010
,
1000
0010
0100
0001
0000
0000
0010
0100
1000
0001
0000
0000
1000
0100
1000
0001
,
1000
0100
0100
0001
0010
0100
0100
0001
1000
0100
0100
0001
0010
0100
0100
0001
,
1000
0010
0010
0001
1000
0010
0010
0100
1000
0010
0010
0001
1000
0010
0010
0100
,
1000
0000
0000
0100
0000
0000
0100
0000
0000
0001
0000
0000
1000
0000
0000
0100
0000
0000
0100
0000
0000
0001
0000
0000
1000
0000
0000
0010
0000
0000
0010
0000
0000
0001
0000
0000
1000
0000
0000
0100
0000
0000
0010
0000
0001
0000
1000
0000
,
0001
0000
0100
0000
0010
0000
1000
0000
0010
0000
1000
0000
0001
0000
1000
0000
0100
0000
1000
0000
0001
0000
0010
0000
0100
0000
0000
1000
0000
0000
0001
0000
0000
0010
0000
0000
0100
0000
0000
1000
0000
0000
0001
0000
0000
0100
0000
0000
,
0010
1000
0001
1000
0100
0010
0001
0100
0010
1000
0001
1000
0100
0010
0001
0100
,
0010
0100
0001
1000
0001
0010
0100
1000
0010
0100
0010
1000
0001
0010
0001
0100
,
0010
1000
0001
1000
0100
0010
0001
0100
0010
1000
0001
1000
0100
0010
0001
0100
,
0010
0100
0001
1000
0001
0010
0100
1000
0010
0100
0010
1000
0001
0010
0001
1000
,
0200
0000
0000
0300
;
