#TITLE:Remixxxxx para steppppppppp;
#SUBTITLE:;
#ARTIST:Unknown artist;
#TITLETRANSLIT:;
#SUBTITLETRANSLIT:;
#ARTISTTRANSLIT:;
#CREDIT:;
#BANNER:Banner.PNG;
#BACKGROUND:Remixxxxx para steppppppppp.JPG;
#LYRICSPATH:;
#CDTITLE:;
#MUSIC:Remixxxxx para steppppppppp.mp3;
#OFFSET:0.000;
#SAMPLESTART:30.612;
#SAMPLELENGTH:12.000;
#SELECTABLE:YES;
#BPMS:0.000=98.000;
#STOPS:;
#BGCHANGES:;
// cache tags:
#FIRSTBEAT:0.000;
#LASTBEAT:104.000;
#SONGFILENAME:Songs/toune 2/Remixxxxx para steppppppppp/Remixxxxx para steppppppppp.sm;
#HASMUSIC:1;
#HASBANNER:1;
#MUSICLENGTH:67.213;
// end cache tags

//---------------dance-single - ----------------
#NOTES:
     dance-single:
     :
     Medium:
     1:
     0.355,0.445,0.179,0.238,0.193,139.000,12.000,16.000,0.000,9.000:
1000
0100
0010
0010
,
1000
0100
0010
0001
,
2000
0000
0000
0000
,
3200
0000
0000
0000
,
0320
0000
0000
0000
,
0032
0000
0000
0000
,
2103
0100
0100
0100
0100
0100
0100
0100
,
3100
0010
0001
0000
,
0012
0010
0010
0010
0010
0010
0013
0000
,
0210
0001
0010
0001
0010
0001
0010
0001
,
1300
0000
0000
1000
0000
0000
1000
0000
0000
1000
0000
0000
0100
0000
0010
0000
,
0001
0000
0000
0001
0000
0000
0001
0000
0000
0001
0000
0000
0010
0000
0100
0000
,
1000
0000
0000
1000
0000
0000
1000
0000
0000
1000
0000
0000
0100
0000
0110
0000
,
0011
0000
0000
0001
0000
0000
1000
0000
1000
1000
0000
1000
1000
0000
0000
0000
,
1000
0001
0000
0100
0010
0000
0001
1000
0000
0001
1000
0000
1000
0001
1000
0000
,
0100
0010
0000
0001
0010
0000
1000
0100
0000
0100
1000
0000
0010
0001
1000
0000
,
1000
0100
0000
0010
0100
0000
0001
1000
0000
0100
1000
0000
0010
0001
0100
0000
,
2002
0000
0000
0000
0000
0000
0000
0000
0000
0000
0000
0000
0000
0000
0000
0000
0000
0000
0000
0000
0000
0000
0000
0000
0000
0000
0000
0000
0000
0000
0000
0000
0000
0000
0000
0000
0000
0000
0000
0000
0000
0000
0000
0000
0000
0000
0000
0000
0000
0000
0000
0000
0000
0000
0000
0000
0000
0000
0000
0000
0000
3003
0000
0000
,
1000
1000
0100
0100
0010
0010
0001
0001
,
0010
0000
0100
0000
0001
0000
1000
0000
0010
0100
0101
0001
0100
0000
0000
0000
,
0010
0010
0001
0001
0010
1000
0001
1000
,
0220
0331
0200
0301
2000
0001
3000
0202
,
0000
1000
1000
1000
1000
1000
1000
0000
,
2000
0000
0000
0000
0000
0000
0000
3303
,
1001
0000
0000
0000
,
0110
0000
0000
0000
,
1001
0000
0000
0000
;
