#TITLE:DYNAMITE RAVE;
#SUBTITLE:(super euro version);
#ARTIST:NAOKI with Y&Co.;
#TITLETRANSLIT:;
#SUBTITLETRANSLIT:;
#ARTISTTRANSLIT:;
#CREDIT:;
#BANNER:;
#BACKGROUND:;
#LYRICSPATH:;
#CDTITLE:./CDTITLES/PARA PARA PARADISE.PNG;
#MUSIC:125-dynamite_rave_(super_euro_version).mp3;
#OFFSET:-1.780;
#SAMPLESTART:12.946;
#SAMPLELENGTH:15.000;
#SELECTABLE:YES;
#BPMS:0.000=150.000;
#STOPS:;
#BGCHANGES:;
// cache tags:
#FIRSTBEAT:0.000;
#LASTBEAT:208.000;
#SONGFILENAME:Songs/dragon force/DR(SEV)/DYNAMITE RAVE (super euro version).sm;
#HASMUSIC:1;
#HASBANNER:0;
#MUSICLENGTH:88.143;
// end cache tags

//---------------dance-single - Matt's Edit----------------
#NOTES:
     dance-single:
     Matt's Edit:
     Challenge:
     9:
     0.747,0.678,0.465,0.250,0.414,398.000,41.000,22.000,0.000,0.000:


1010
0000
0101
0000
1000
0010
0100
0001
,
0101
0000
1001
0000
1010
0010
0100
0001
,
0101
0000
1000
0000
0100
0000
0010
0001
0000
0001
0010
0000
0200
0000
2300
0000
,
3010
0000
0100
0000
0010
0000
0001
0010
0000
0010
0100
0000
1000
0000
0100
0000
,
0011
0000
0010
0000
0100
0000
1000
0100
0000
0100
0001
0000
0010
0000
0100
0000
,
1000
0000
0001
0000
1000
0000
0100
0010
0000
0010
1000
0000
0100
0000
0010
0000
,
0002
0000
0000
0000
2003
0000
0000
0000
3200
0000
0000
0000
1300
0000
0001
0010
,
0100
0000
1000
0000
0100
0000
0010
0001
0000
0001
1000
0000
0100
0000
1000
0000
,
0110
0000
0100
0001
0000
0001
0100
0000
1000
0000
0100
0000
0001
2000
0100
0000
,
3100
0000
0100
0010
0000
0010
0100
0000
0001
0000
0100
0000
1000
0000
0010
0000
,
0001
0000
1000
0000
0100
0010
0000
0010
0200
0000
0000
0000
0320
0000
0000
0000
,
0130
0000
0100
0010
0000
0010
0100
0000
1000
0000
0100
0000
0001
0000
0100
0000
,
1100
0000
0100
0010
0000
0010
0001
0000
1000
0000
0010
0000
1000
0002
1000
0000
,
0013
0000
1000
0100
0000
0100
1000
0000
0010
0000
0001
0000
0100
0000
1000
0000
,
1001
0000
1000
0100
0000
0100
0010
0000
0110
0000
1100
0000
0110
0000
1001
0000
,
0110
1000
0100
0010
,
0100
0010
1001
0001
,
1000
1001
1010
0101
,
0110
0000
0000
0000
1100
0000
0000
0000
0001
1000
0001
0100
0001
0100
0001
1000
,
0001
0000
1000
0000
0001
0000
0010
0100
0000
0100
0010
0000
0001
0000
1000
0000
,
1001
0000
1000
0000
0100
0000
0010
0100
0000
0100
0010
0000
1000
0000
0001
0000
,
1001
0000
0010
0000
0100
0000
0010
1000
0000
1000
0001
0000
0100
0000
0010
0000
,
1000
0000
0100
0000
0010
0000
0001
0010
0000
0010
0100
0000
1000
0000
0100
0000
,
2100
0000
0000
0000
0100
0000
0000
0000
0010
0000
0000
0001
0010
0000
0100
0000
,
3100
0000
0000
0000
1100
0000
0000
0000
0001
1000
0001
0000
0010
0000
0100
0000
,
1000
0000
0100
0000
0010
0000
0001
1000
0001
0000
0010
0000
0100
0010
0100
0000
,
0001
0000
1000
0000
0001
0000
0100
0000
0010
0100
0010
0000
1000
0000
0001
0000
,
0001
0000
0001
0000
1000
0000
0100
0000
0010
1000
0000
1000
0001
0010
0000
0010
,
0100
0000
1100
0000
0100
0000
0010
0000
0001
0010
0001
0000
0001
0000
0010
0000
,
0100
0000
1000
0000
0100
0000
0010
0000
1000
0000
0001
0000
0001
1000
0001
0000
,
1001
0000
1000
0000
1100
0000
0000
0000
0100
0010
0100
0000
0110
0000
0000
0000
,
2000
0000
3002
0000
0203
0000
0320
1000
,
0031
1001
1000
0000
0100
0110
0010
0000
,
1000
0100
0010
0001
0001
0101
0100
0010
,
1000
0000
0001
0000
0100
0000
0010
0000
0100
0010
0100
0000
0010
0000
1000
0001
,
1000
0000
1000
0000
0100
0000
0010
0000
0001
0010
0001
0000
0010
0000
0100
0010
,
0100
0000
1100
0100
0120
0000
0000
0000
,
0031
1000
0100
0010
,
1001
1000
0100
0010
0001
1000
0100
0010
,
0100
0010
0001
1000
0001
0100
0010
1000
,
0011
1000
1000
0000
0000
0100
0000
0000
,
0000
1000
0000
0000
0000
0100
0000
0001
,
0000
1000
0001
0000
0000
1100
0000
0000
,
0000
0010
0000
0000
0000
2001
0001
0000
,
3001
0000
0100
0010
0000
0010
0100
0000
0001
0000
1000
0000
0100
0000
0010
0000
,
1000
0000
1000
0010
0000
0010
0100
0000
0001
0000
1000
0000
1000
0002
0010
0000
,
0103
0000
0010
0100
0000
0100
0010
0000
0001
0000
1000
0000
0100
0000
0010
0000
,
1010
0000
1000
0001
0000
1000
0001
0000
2000
0000
0000
0000
3200
0000
0000
0000
,
0301
0000
1000
0001
0000
0001
1000
0000
0100
0000
0010
0000
0001
0000
0010
0000
,
1001
0000
0100
0010
0000
0100
0010
0000
0001
0000
1000
0000
0001
2000
0001
0000
,
3001
0000
0001
0010
0000
0010
1000
0000
0100
0000
0001
0000
0010
0000
0100
0000
,
1100
0000
0100
0010
0000
0100
0010
0000
0002
0000
0000
0000
2003
0000
0000
0000
,
3001
0000
0000
0000
;
