#TITLE:Tell My Why Speedcore Is So Awesome (Annoying Ringtone Remix);
#SUBTITLE:EXoduz Violation;
#ARTIST:M1DLET & Annoying Ringtone;
#TITLETRANSLIT:;
#SUBTITLETRANSLIT:;
#ARTISTTRANSLIT:;
#CREDIT:;
#BANNER:../Banner.png;
#BACKGROUND:../Background.png;
#LYRICSPATH:;
#CDTITLE:;
#MUSIC:Tell My Why Speedcore Is So Awesome (Annoying Ringtone Remix).ogg;
#OFFSET:-0.221;
#SAMPLESTART:31.281;
#SAMPLELENGTH:12.000;
#SELECTABLE:YES;
#DISPLAYBPM:200.000;
#BPMS:0.000=226.020,32.000=226.500,36.000=226.000,48.000=226.250,52.000=226.200,67.750=113.100,76.000=113.000,92.000=226.000,269.000=226.500,277.000=226.000,300.000=225.000,352.000=226.000,708.500=50.000;
#STOPS:;
#BGCHANGES:;
// cache tags:
#FIRSTBEAT:4.000;
#LASTBEAT:435.000;
#SONGFILENAME:Songs/EXoduz Violation/Tell My Why Speedcore Is So Awesome (Annoying Ringtone Remix)/Tell My Why Speedcore Is So Awesome (Annoying Ringtone Remix).sm;
#HASMUSIC:1;
#HASBANNER:1;
#MUSICLENGTH:122.154;
// end cache tags

//---------------dance-single - Rynker----------------
#NOTES:
     dance-single:
     Rynker:
     Challenge:
     16:
     1.000,1.000,0.532,0.565,1.000,1202.000,65.000,69.000,0.000,6.000:

0000
0000
0000
0000
,
1010
0010
0100
0001
0010
0100
1000
0001
,
0101
0010
1000
0010
0100
0001
0010
0100
,
1100
0001
0100
0001
1000
0010
0100
0001
,
0110
0100
1000
0001
0100
0110
0100
0110
,
0101
1000
0010
0100
0001
0010
0100
1000
,
0101
1000
0010
0100
0001
0010
0100
1000
,
1010
0010
0100
0001
0100
0001
1000
0010
,
0110
0100
0011
0100
1100
1000
1001
1001
,
0110
1000
0010
0100
0001
0010
0100
1000
,
1100
0100
0010
0001
1000
0001
0100
0010
,
1010
0100
0001
0100
0001
0010
0100
1000
,
1001
0001
1001
0010
0110
0001
0110
1100
,
1100
0000
0100
0000
0010
0000
0001
0000
1000
0000
0001
0000
0100
0000
0001
1000
,
0001
1000
0001
1000
0001
0000
1000
0000
0100
0000
0010
0000
0001
0000
0010
0000
,
0100
0000
1000
0000
0100
0000
0010
0000
0001
0000
1000
0000
0001
0000
0010
0100
,
1000
0001
0100
0001
0100
0000
0001
0000
1000
0010
0100
0001
0010
0100
1000
0002
,
0000
1003
0100
0000
1000
0200
0000
0310
0000
0001
0100
0000
0001
0200
0000
0310
,
0000
1000
0001
0000
1000
0002
0000
0013
0000
0100
1000
0000
0100
2000
0000
3001
,
0220
0330
0200
0000
0320
0000
2030
0000
3200
0000
0320
0000
0032
0000
2003
0000
,
3002
0203
0320
2030
3002
0203
0302
0023
,
0130
1000
0001
0010
0100
1000
0000
0001
0010
0100
1000
0001
0100
0010
0000
1000
,
0100
0000
0010
0000
0001
0000
1000
0000
0100
0000
0010
0000
0000
0000
0001
0000
0100
0000
0001
0000
0100
0000
0010
0000
1000
0000
0001
0000
0100
0010
1000
0100
,
0011
0001
0100
0010
1000
0100
0010
0001
0010
0001
1000
0001
0100
0010
1000
0100
,
0010
0001
1000
0001
0100
0010
1000
0010
0100
0001
0010
0100
1000
0001
0100
0001
,
1000
0001
0100
0001
1000
0010
0100
0001
0010
0001
0010
0100
1000
0001
0100
0001
,
1000
0001
1000
0001
1000
0010
0100
0001
0010
0100
2000
0000
0000
0000
0000
0000
,
3001
1000
0010
0100
0001
0010
0100
1000
0100
1000
0001
0100
0001
1000
0100
1000
,
0001
0100
0001
1000
0010
0100
0001
0010
0100
1000
0100
0010
0001
1000
0001
1000
,
0001
1000
0010
0100
0001
0010
0001
0010
0100
1000
0100
1000
0001
1000
0001
0100
,
0001
1000
0010
0100
0001
0100
0001
1000
0010
0100
0002
0000
0000
0000
0000
0000
,
0013
0100
1000
0001
0100
0001
1000
0010
1000
0010
0100
0001
0010
0100
1000
0001
,
1000
0001
0100
0001
1000
0001
0100
0010
1000
0010
0100
0010
1000
0010
0100
0010
,
1000
0100
0010
0001
0100
0001
1000
0100
0010
0001
1000
0001
0100
0001
1000
0100
,
0010
0001
1000
0010
0100
0010
1000
0010
0100
0001
0020
0000
0000
0000
0000
0000
,
0130
1000
0001
0010
0100
1000
0001
0100
0001
1000
0010
0100
0001
0010
0001
0010
,
0100
1000
0001
1000
0001
0100
0010
1000
0001
1000
0001
1000
0100
0010
0001
0010
,
0100
1000
0001
0100
0001
1000
0010
0100
0001
0010
0001
0010
0100
1000
0001
1000
,
0001
1000
0001
0100
0001
1000
0010
0100
0010
1000
0010
0100
0010
1000
0100
0010
,
0011
0200
2000
0000
0000
0300
0000
3000
,
0000
0000
0121
0000
0101
0000
0101
0000
0131
0000
0111
0000
0000
0000
0100
1000
,
0001
0000
0000
0200
1000
1000
1000
1000
,
1300
0200
1000
1000
1300
0200
2300
0000
,
3000
1200
0310
0001
1010
0001
0100
0010
,
1000
0001
0100
0001
1001
0010
0100
0001
,
0110
1100
0011
0110
1010
1010
0101
0101
,
1010
1000
0001
0001
0100
0010
1000
0100
,
0010
0011
0001
0101
0100
0110
0010
1010
,
1000
1010
0010
0110
0100
0111
0001
1000
,
0020
0000
0000
0000
,
0130
0000
0001
0000
0010
0000
0100
0000
0000
1000
0000
0000
0001
0000
0000
0100
0000
0000
0001
0000
0000
1000
0000
0000
0010
0000
0000
0100
0000
0000
0001
0000
0000
0010
0000
0000
0100
0000
0000
1000
0000
0000
0001
0000
0000
1000
0000
0000
,
0001
1000
0010
0100
0001
0010
0001
0010
0100
1000
0001
1000
0100
0010
0001
0010
,
0001
1000
0001
1000
0001
0100
0010
1000
0010
1000
0010
0100
0001
0010
0100
1000
,
0001
1000
0001
1000
0100
0010
0001
0100
0001
1000
0010
1000
0010
0100
0001
0010
,
0100
1000
0001
1000
0100
0010
0001
0010
0100
1000
0001
1000
0001
0100
0010
1000
,
0010
0100
0001
0010
0100
1000
0100
0010
0001
0100
0001
0100
0001
0010
0001
0100
,
0001
0100
0001
0010
0100
1000
0001
0100
0001
1000
0010
0100
0001
0010
0001
0010
,
0100
1000
0001
0100
0001
1000
0010
0100
0010
1000
0100
0010
0001
1000
0001
1000
,
0001
0100
0010
1000
0010
0100
0001
1000
0001
1000
0100
1000
0010
1000
0010
1000
,
0100
1000
0001
0100
0001
0100
0001
0010
0001
0100
0001
1000
0010
0100
0001
0010
,
0100
1000
0001
0100
0001
1000
0010
0100
0001
0010
0100
1000
0001
1000
0001
1000
,
0100
0010
0001
1000
0001
1000
0010
0100
0001
0010
0100
1000
0001
0100
0001
1000
,
0001
1000
0010
0100
0001
0010
0100
1000
0001
1000
0001
0100
0001
1000
0010
0100
,
0001
0010
0100
1000
0100
0010
0001
1000
0001
0100
0010
1000
0010
0100
0001
0010
,
0100
0010
0001
0010
0100
0010
0001
0100
0001
1000
0001
0100
0001
0100
0001
0100
,
0002
0003
0022
0033
2020
3030
0220
0330
,
2002
3003
0202
0303
2020
3030
0202
0303
,
0002
2003
3001
0000
2200
3300
0022
0033
,
0220
0330
2020
3030
0202
0303
0022
0033
,
1100
0010
0200
0000
0000
0000
0000
0000
,
0000
0000
0000
0000
,
0301
1000
0010
0100
0001
0010
0100
1000
,
0001
0100
0001
1000
0010
0100
0001
0010
,
0100
1000
0001
0001
0001
0001
0001
0001
,
0100
0001
0010
0000
0200
0000
0000
0000
1300
0000
0000
0000
0000
0000
0100
1000
,
0100
1000
0100
0000
0010
0001
0010
0001
0010
0000
0100
0000
1000
0000
0001
0000
,
0100
0001
1000
0010
0100
0001
0010
0100
,
1000
0100
2000
0000
0000
0000
0000
0000
,
0000
0000
0000
0000
,
3001
0100
0010
1000
0010
0100
0001
0010
,
0100
1000
0001
0100
0001
1000
0010
0100
,
0001
0010
0200
0000
0000
0000
0000
0000
,
0000
0000
0000
0000
,
1300
0001
0100
0010
1000
0001
0100
0010
1000
0000
0100
0000
0010
0001
1000
0100
,
0010
0001
1000
0100
0010
0001
0100
0001
1000
0010
1000
0010
1000
0010
1000
0010
,
1000
0000
0000
0001
0000
0000
0100
0000
0000
0001
0000
0000
0010
0000
0000
0100
0000
0000
1000
0001
1000
0001
0000
0000
,
1000
0000
0000
0001
1000
0001
1000
0000
0000
0001
0000
0000
0100
0000
0000
0001
0000
0000
1000
0000
0000
0010
0000
0000
,
0100
0000
0001
0000
0100
0000
0001
0000
0000
1000
0000
0000
0010
0000
0000
1000
0000
0000
0010
0000
0000
0100
0000
0000
0001
0000
0000
0000
0000
0000
1000
0000
0000
0000
0000
0000
0010
0000
0000
0000
0000
0000
0100
0000
0000
0001
0000
0000
,
0010
0100
1000
0001
0100
0010
1000
0000
0100
0000
0010
0000
0001
0000
1000
0000
,
0001
1000
0010
0100
0001
0010
0100
1000
,
0001
1000
0001
0100
0001
1000
0010
0100
,
0001
0000
0010
0000
0100
1000
0001
0010
0100
1000
0001
1000
0001
1000
0010
0100
,
0001
0010
0100
1000
0001
1000
0001
0100
0001
1000
0010
1000
0010
0100
0001
0010
,
0100
0010
0001
0010
0100
0010
0001
1000
0001
0100
0001
1000
0010
0100
0010
1000
,
0100
0010
0001
1000
0001
0100
0001
1000
0001
1000
0010
0100
0001
0010
0100
1000
,
0100
0010
0001
1000
0001
0100
0001
1000
0010
0100
0001
0010
0001
0010
0001
0100
,
0001
1000
0010
1000
0001
1000
0001
1000
0100
0010
0001
1000
0100
0010
0001
1000
,
0001
1000
0001
0100
0001
1000
0010
1000
0010
0100
0001
0010
0100
1000
0001
1000
,
0001
1000
0100
0010
0001
1000
0001
1000
0001
0100
0001
1000
0010
0100
0001
0010
,
0100
1000
0100
0010
0001
1000
0001
0100
0001
1000
0010
0100
0010
1000
0100
0010
,
0001
0100
0001
0010
0001
0100
0001
0010
0100
1000
0100
0010
0001
1000
0001
1000
,
0001
1000
0010
1000
0010
0100
0001
0010
0100
1000
0100
0010
0001
1000
0001
0100
,
0001
1000
0100
1000
0001
0010
0001
1000
0010
1000
0010
0100
0001
0010
0100
1000
,
0001
1000
0001
1000
0100
0010
0001
1000
0001
1000
0100
0010
0001
1000
0100
0010
,
0001
1000
0001
0100
0001
1000
0010
0100
0001
0010
0001
0010
0001
1000
0001
1000
,
0001
0100
0001
1000
0010
0100
0001
0010
0100
1000
0100
0010
0001
1000
0001
0100
,
0001
1000
0010
1000
0010
0100
0010
0100
0010
0100
0001
0100
0001
0100
0010
0100
,
0001
0010
0100
1000
0001
1000
2002
0000
0000
0000
0000
0000
0000
0000
0000
0000
,
0000
0000
0000
3003
;
