#TITLE:Daisuke;
#SUBTITLE:;
#ARTIST:Y&Co;
#TITLETRANSLIT:;
#SUBTITLETRANSLIT:;
#ARTISTTRANSLIT:;
#CREDIT:;
#BANNER:Daisuke - banner.png;
#BACKGROUND:Daisuke - background.png;
#LYRICSPATH:;
#CDTITLE:!kilgacdtitle.png;
#MUSIC:YCo. - Daisuke.mp3;
#OFFSET:-1.060;
#SAMPLESTART:50.780;
#SAMPLELENGTH:19.000;
#SELECTABLE:YES;
#BPMS:0.000=157.000;
#STOPS:;
#BGCHANGES:;
// cache tags:
#FIRSTBEAT:0.000;
#LASTBEAT:324.000;
#SONGFILENAME:Songs/Community Keyboard Megapack - Volume 2/(Kilgamayan) Daisuke/Daisuke.sm;
#HASMUSIC:1;
#HASBANNER:1;
#MUSICLENGTH:127.794;
// end cache tags

//---------------dance-single - Heavy----------------
#NOTES:
     dance-single:
     Heavy:
     Hard:
     11:
     1.000,1.000,1.000,0.180,1.000,908.000,258.000,23.000,0.000,6.000:
0100
0000
0100
0000
2001
0000
3010
0001
0010
0100
0010
0000
1001
0000
0100
0000
,
0001
0000
0010
0000
1100
0000
0100
0010
1000
0010
0100
0000
0011
0000
0100
0000
,
1001
0000
0010
0000
0010
0000
1100
0010
1000
0010
0101
0000
1000
0000
1000
0000
,
0110
0000
1000
0000
0100
0000
0011
1000
0001
0100
1010
0000
0110
0001
1000
0010
,
0100
0000
0100
0000
1002
0000
0103
0010
1000
0001
0010
0000
0101
0000
1000
0000
,
0010
0000
0010
0000
1100
0000
0010
1000
0010
0100
0010
0000
1100
0000
0001
0000
,
0010
0100
0010
1000
0010
0100
1000
0001
1000
0001
0100
0001
0010
0100
0010
0001
,
2010
0000
0010
0000
0010
0000
0010
0010
0000
0010
0010
0000
0010
3000
0000
0000
,
0011
0100
1000
0001
0010
0001
0100
0000
0001
0010
0100
1000
0010
0100
1000
0001
,
1100
0010
1000
0100
0010
0100
1000
0000
0100
0010
0001
0100
0010
0001
0100
0010
,
1001
0010
0100
1000
0001
1000
0100
0000
0010
0100
0010
1000
0100
0001
0010
0100
,
1001
0100
0010
0001
1100
0000
1000
0100
0010
0001
1100
0000
1000
0100
0010
0001
,
1010
0001
0100
0001
0010
0100
1000
0000
0010
0001
0010
0100
0010
0001
1000
0100
,
0011
1000
0001
0010
0100
0010
1000
0000
0010
0100
0001
0010
1000
0100
0010
0100
,
1001
0100
0010
0100
0001
0010
1000
0000
0001
1000
0001
0100
0001
0010
0001
0100
,
1001
0010
0100
1000
0101
0000
0001
0010
0100
1000
0101
0000
0001
0010
0100
1000
,
0011
0011
0110
0011
1100
1100
0010
2010
,
3010
0101
1010
0101
0110
1100
0010
0101
,
1000
0000
0100
0000
0010
0000
1000
0100
0000
0010
0000
1000
0100
0000
0010
0000
,
1001
0010
1001
0010
0110
0210
0310
0110
,
0101
0101
1010
0101
1010
1100
0010
0102
,
0103
0110
1100
1100
0110
1010
0100
0101
,
0001
0000
0010
0000
0100
0000
0001
0010
0000
0100
0000
0001
0010
0000
0100
0000
,
1001
0000
0000
0000
1001
0000
0000
0000
0110
0001
0110
0001
1000
0001
0110
1000
,
0100
0110
0101
0110
1100
0110
0011
1002
,
1003
0110
1010
0110
2100
3002
0203
1302
,
0023
1031
1100
1001
0101
1001
0011
0110
,
0001
1100
0110
1010
0011
0000
0110
1000
,
1100
1100
1010
1100
0011
0100
0002
1103
,
0010
1100
0101
1100
0110
0001
2000
3110
,
0001
0101
0001
0110
1000
1010
1000
1001
,
0101
0010
1100
0010
1000
0100
0011
1000
0100
1000
0101
1000
0100
0010
0001
0100
,
2002
0000
3003
0000
0011
0101
1001
1010
,
1100
0001
0010
0100
0010
0001
1000
0010
0101
0000
1001
0000
1010
0000
1010
0100
,
0010
0100
1001
0100
0010
0001
1000
0010
1100
0000
1010
0000
0110
0000
0101
0000
,
0011
1000
0100
1000
0010
0100
0001
0010
1001
0000
1001
0000
1001
0000
1001
0100
,
1000
0010
0101
0010
1000
0100
0011
0000
0100
0000
1100
0001
1100
0000
0010
0000
,
1001
0010
0100
0010
1001
0100
0010
0100
1010
0000
1100
0000
0011
0000
0011
0000
,
0100
0000
1010
0000
0100
0000
0110
0001
1000
0001
1100
0000
1010
0000
0110
0000
,
1000
0010
0100
1000
0001
0010
0001
0100
0010
0000
1010
0000
0110
0000
0101
0000
,
1000
0100
1000
0010
0100
0001
0010
0100
1000
0000
0110
0000
0101
0000
0011
0000
,
1000
0011
1000
0011
1000
0011
0100
1100
,
0001
0000
0110
0000
1000
0000
0011
0000
1000
0100
0010
0001
0010
0100
1000
0100
,
1001
0100
0110
0000
0110
0101
0011
0101
,
1100
0010
0100
0001
0010
0100
1000
0000
0010
0100
0010
0001
1000
0010
0100
1000
,
0101
0010
0100
1000
0010
0100
0001
0000
0010
0100
1000
0010
0001
0010
1000
0100
,
1010
0100
0010
0100
0001
0010
0100
0000
0001
0010
0001
0100
0001
0010
0100
1000
,
0011
0100
0010
1000
0101
0000
0001
0100
0010
1000
0101
0000
0001
0100
0010
1000
,
0110
1000
0100
1000
0001
0010
0100
0000
0010
0100
0010
1000
0100
0001
0100
1000
,
0011
0100
0001
0010
0100
1000
0100
0000
1000
0010
0100
1000
0001
0010
0100
0010
,
1001
0100
0010
0001
1000
0100
0010
0000
0100
0001
0100
0010
1000
0100
0010
0001
,
1100
0010
0100
0001
1010
0000
1000
0010
0100
0001
1010
0000
1000
0010
0100
0001
,
0100
0000
0010
0000
0100
0000
1001
0010
0100
0010
1001
0000
0010
0000
1000
0000
,
0100
0000
0001
0000
0100
0000
0011
1000
0100
1000
0011
0000
0100
0000
0001
0000
,
1000
0000
0010
0000
0100
0000
1010
0001
0100
0001
1010
0000
0001
0000
0010
0000
,
1000
0001
0010
0001
1100
0000
0110
0000
,
0110
0110
0011
0110
1100
0100
0102
0113
,
0000
0110
0101
0110
1001
1000
1020
1130
,
0000
0001
0100
0001
1000
0010
1000
0100
,
1001
0010
0100
0001
0010
0001
1000
0010
1000
0100
0010
0100
0001
1000
0010
0100
,
2002
0000
3003
0000
0011
1010
0110
0101
,
1100
0000
0010
0000
0010
0001
0010
0100
1010
0000
1001
0000
0101
0000
0101
0010
,
0100
0010
1001
0010
1000
0001
1000
0010
1100
0000
0011
0000
1010
0000
0101
0000
,
1001
0010
0100
0010
0001
1000
0001
0010
1100
0000
1100
0000
1100
0000
1100
0010
,
0100
1000
0011
1000
0001
1000
0110
0000
0100
0000
1001
0010
1001
0000
0100
0000
,
0011
0100
1000
0100
0011
1000
0100
0010
1100
0000
0110
0000
0011
0000
0011
0000
,
1000
0000
0110
0000
0100
0000
1001
0010
0100
1000
0011
0000
0101
0000
1001
0000
,
0010
0100
0010
0001
0010
0100
1000
0001
0010
0000
0101
0000
1001
0000
1010
0000
,
1000
0100
0010
0001
0010
0100
1000
0010
0100
0000
1001
0000
1010
0000
1100
0000
,
0001
1010
0001
1100
0001
1010
0100
0011
,
0100
0000
1001
0000
0010
0000
1100
0000
0001
0010
0001
0010
0100
1000
0100
0010
,
2001
0010
3100
0000
0110
1010
0011
1010
,
0100
0010
0001
0100
0010
0100
1000
0000
0001
1000
0100
0010
0001
0010
0100
1000
,
0101
0010
1000
0100
1000
0010
0100
0000
0010
0001
0010
0100
0001
1000
0010
0100
,
1001
0010
0100
1000
0001
0010
0100
0000
1000
0100
0010
0001
0100
0010
1000
0100
,
0011
0100
1000
0001
0110
0000
0010
0100
1000
0001
0110
0000
0010
0100
1000
0001
,
1100
0010
0001
0100
0010
0001
0010
0000
0001
1000
0001
0100
0001
0010
0100
1000
,
0101
0010
0100
0010
0001
0100
0010
0000
0100
1000
0010
0001
0100
0010
0001
0100
,
1010
0100
1000
0100
0001
0010
0001
0000
1000
0001
1000
0001
1000
0010
0100
1000
,
0101
0010
0100
1000
0110
0000
1000
0100
0010
0001
0110
0000
0010
0100
0010
0100
,
2002
0000
0000
0000
,
3003
0000
0000
0000
;
