#TITLE:Starwolf;
#SUBTITLE:;
#ARTIST:KgZ;
#TITLETRANSLIT:;
#SUBTITLETRANSLIT:;
#ARTISTTRANSLIT:;
#CREDIT:Arvin;
#BANNER:../Tachyon Delta-bn.png;
#BACKGROUND:../Tachyon Delta-bg.png;
#LYRICSPATH:;
#CDTITLE:;
#MUSIC:Starwolf.ogg;
#OFFSET:-0.013;
#SAMPLESTART:28.660;
#SAMPLELENGTH:13.000;
#SELECTABLE:YES;
#BPMS:0.000=170.000;
#STOPS:;
#BGCHANGES:;
// cache tags:
#FIRSTBEAT:8.000;
#LASTBEAT:301.500;
#SONGFILENAME:Songs/Tachyon Delta/Starwolf - [Arvin]/starwolf.sm;
#HASMUSIC:1;
#HASBANNER:1;
#MUSICLENGTH:108.747;
// end cache tags

//---------------dance-single - Arvin----------------
#NOTES:
     dance-single:
     Arvin:
     Challenge:
     14:
     1.000,1.000,0.285,0.717,1.000,723.000,31.000,78.000,0.000,0.000:

0000
0000
0000
0000
,
0000
0000
0000
0000
,
1000
0100
0010
0001
0000
0000
1000
0100
0010
0001
0000
0000
1000
0100
0010
0100
,
1000
0001
0010
0100
1000
0000
0001
0000
0100
0000
0010
0000
0100
0000
0001
0000
,
1000
0010
0100
0001
0000
0000
1000
0010
0100
0001
0000
0000
1000
0010
0100
0001
,
0100
0010
1000
0001
1000
0000
0010
0000
0100
0000
0010
0000
1000
0000
0001
0000
,
1000
0100
0010
0001
0000
0000
1000
0100
0010
0001
0000
0000
1000
0100
0010
0100
,
1000
0001
0010
0100
1000
0000
0001
0000
0100
0000
0010
0000
0100
0000
0001
0000
,
1000
0010
0100
0001
0000
0000
1000
0010
0100
0001
0000
0000
1000
0010
0100
0001
,
0100
0010
1000
0001
1000
0000
0010
0000
0100
0000
0010
0000
1000
0000
0001
0000
,
1000
0000
0000
0001
0100
0000
0001
0000
1000
0000
0000
0100
1000
0000
0001
0000
,
0100
0000
0000
0010
0100
0000
0001
0000
1000
0000
0000
0100
0010
0000
0100
0000
,
1000
0000
0000
0001
0000
0000
0010
0000
0000
0100
0000
0000
1000
0000
0000
0001
0000
0000
1000
0000
0000
0010
0000
0000
1000
0000
0001
0000
1000
0000
0001
0000
0100
0000
0010
0000
1000
0000
0001
0000
1000
0000
0001
0000
0010
0000
0100
0000
,
1000
0001
0000
1000
0000
1000
0000
0000
0010
0100
0001
1000
0001
0000
0000
0000
,
1001
0000
0000
1001
0000
0000
1001
0000
,
1010
0000
0000
1010
0000
0000
1010
0000
,
1001
0000
0000
1001
0000
0000
1001
0000
,
0011
0000
0000
0011
0000
0000
0001
0000
0101
0000
0000
0000
0101
0000
0000
0000
,
1001
0000
0000
1001
0000
0000
1001
0000
,
0101
0000
0000
0101
0000
0000
0101
0000
,
1001
0000
0000
1001
0000
0000
1001
0000
,
1100
0000
0000
1100
0000
0000
1000
0000
1010
0000
0000
0000
1010
0000
0000
0000
,
2000
0000
0000
0000
3000
0000
0010
0000
0200
0000
0000
0302
0000
0000
1003
0000
,
0200
0000
0000
0000
0000
0000
0310
0001
2000
0000
0000
3200
0000
0000
0310
0000
,
0022
0000
0033
0202
0000
0000
0000
0303
,
1000
0000
0000
0010
0000
0000
0100
0000
0001
0000
0000
1000
0000
0000
0100
0000
,
2000
0000
0000
0000
3000
0000
0010
0000
0200
0000
0000
0302
0000
0000
1003
0000
,
0200
0000
0000
0000
0000
0000
0310
0001
2000
0000
0000
3200
0000
0000
0310
0000
,
0002
0000
0000
0000
0000
0000
1003
0000
0010
0000
0000
0100
0000
0000
0001
0000
,
2000
0000
0000
0000
,
3001
0010
0100
1000
0100
0010
0001
1000
0001
0100
0010
0100
0001
1000
0001
0100
,
0010
1000
0001
0100
0001
1000
0010
0100
0001
0100
0010
1000
0001
1000
0001
0100
,
0010
1000
0001
1000
0100
1000
0010
0100
0001
0100
0010
1000
0100
1000
0001
0100
,
0010
1000
0001
0010
0001
1000
0100
1000
0010
0100
0001
0010
0001
1000
0100
1000
,
0020
0000
0000
0230
0000
0000
0302
0000
2003
0000
0000
0000
3001
0000
1000
0100
,
1000
0000
0001
0010
0001
0000
1000
0010
1000
0000
0001
0100
0001
1000
0010
0100
,
0002
0000
0000
2003
0000
0000
3020
0000
0230
0000
0000
0000
0301
0000
1000
0100
,
1000
0000
0001
0010
0001
1000
0100
0000
0010
0000
0001
0010
0100
1000
0100
0010
,
0002
0000
0000
0000
0000
0000
0000
0000
0000
0000
0000
0000
1003
0010
0100
0001
0000
0000
1000
0000
0000
0100
0000
0000
,
0010
0001
1000
0010
1000
0001
0100
0010
0100
0001
1000
0100
0010
0001
1000
0010
,
1000
0001
1000
0001
0010
0100
1000
0001
1000
0001
0010
0100
1000
0001
0100
0001
0100
0010
1000
0010
0100
0001
1000
0001
,
0100
0010
0000
0100
0000
0100
0000
0000
0010
1000
0010
0100
0001
0000
0000
0000
,
1000
0100
1000
0010
0100
0001
0100
0010
1000
0100
1000
0001
0010
0001
0100
0010
,
1000
0001
0010
0001
0100
0010
1000
0100
1000
0010
0100
0001
0010
0100
1000
0001
,
2000
3000
0000
0000
0000
0000
0000
0000
0020
0030
0000
0000
0000
0000
0000
0000
0200
0300
0000
0000
0000
0000
0000
0000
0002
0003
0000
0000
0000
0000
0000
0000
0200
0300
0000
0000
0000
0000
0000
0000
0020
0030
0000
0000
0000
0000
0000
0000
2000
3000
0000
0000
0000
0000
0000
0000
0200
0300
0000
0000
0000
0000
0000
0000
,
0020
0030
0000
0000
0000
0000
0000
0000
0002
0003
0000
0000
0000
0000
0000
0000
0020
0030
0000
0000
0000
0000
0000
0000
0200
0300
0000
0000
0000
0000
0000
0000
2000
3000
0000
0000
0000
0000
0000
0000
0002
0003
0000
0000
0000
0000
0000
0000
0200
0300
0000
0000
0000
0000
0000
0000
0002
0003
0000
0000
0000
0000
0000
0000
,
1000
0100
1000
0010
0100
0001
0100
0010
1000
0100
1000
0001
0010
0100
1000
0001
,
1000
0010
0100
0001
0010
0100
1000
0100
0010
0001
0100
0010
1000
0100
0010
0001
,
2000
3000
0000
0000
0000
0000
0000
0000
0020
0030
0000
0000
0000
0000
0000
0000
0200
0300
0000
0000
0000
0000
0000
0000
0002
0003
0000
0000
0000
0000
0000
0000
0200
0300
0000
0000
0000
0000
0000
0000
0020
0030
0000
0000
0000
0000
0000
0000
2000
3000
0000
0000
0000
0000
0000
0000
0020
0030
0000
0000
0000
0000
0000
0000
,
0200
0000
0000
0000
0000
0000
0000
0000
0000
0000
0000
0000
0000
0000
0000
0300
0202
0000
0000
0000
0000
0000
0000
0000
0000
0000
0000
0000
0000
0000
0000
0303
2200
0000
0000
0000
0000
0000
0000
0000
0000
0000
0000
0000
0000
0000
0000
3300
2020
0000
0000
0000
0000
0000
0000
0000
0000
0000
0000
0000
0000
0000
0000
3030
,
2000
0000
0000
0000
0000
0000
3001
0000
0010
0000
0100
1000
0001
0000
0100
0000
,
0020
0000
0000
0000
0000
0000
1030
0000
0100
0000
0000
0010
0000
0000
0001
0000
,
2000
0000
3020
0000
,
0230
0302
2003
3200
,
0320
0000
0000
0000
0000
0000
0031
0000
2000
0000
0000
3010
0100
0000
0001
0000
,
2000
0000
0000
0000
,
3001
0010
0100
1000
0001
1000
0010
0100
0001
1000
0010
1000
0001
0010
0100
1000
,
0001
1000
0100
0010
0001
1000
0001
1000
0100
0010
0001
1000
0100
1000
0100
0010
0001
0010
0001
1000
0100
0010
0001
1000
,
0002
0000
0000
0000
1003
0100
0020
0000
0000
0000
0000
0000
0031
0000
0010
0000
,
0200
0000
0000
0000
1300
0001
0200
0000
0000
0000
0000
0000
0310
0000
1000
0000
,
0002
0000
0000
0000
1003
0100
0020
0000
0000
0000
0000
0000
0031
0000
0010
0000
,
0200
0000
0000
0000
1300
0010
0200
0000
0000
0000
0000
0000
0301
0000
1000
0000
,
0001
0010
0100
1000
0001
1000
0001
0010
0100
1000
0001
0100
0001
1000
0010
0100
,
0001
1000
0001
1000
0010
0100
0001
1000
0001
1000
0010
0100
0001
0100
0001
1000
0010
0100
0001
0100
0001
1000
0010
1000
,
0001
0100
0010
1000
0000
0000
0001
0100
0010
1000
0000
0000
0001
0010
0100
0010
,
0001
1000
0010
0100
0001
0000
1000
0000
0010
0000
0100
0000
0010
0000
1000
0000
,
0001
0010
0100
1000
0000
0000
0001
0010
0100
1000
0000
0000
0001
0100
0010
1000
,
0010
0100
0001
1000
0001
0000
0100
0000
0010
0000
0100
0000
0001
0000
1000
0000
,
0001
0010
0100
1000
0100
0010
0001
1000
0001
0100
0010
0100
0001
1000
0001
0100
,
0010
1000
0001
0100
0001
1000
0010
0100
0001
0100
0010
1000
0001
1000
0001
0100
,
0010
1000
0001
1000
0100
1000
0010
0100
0001
0100
0010
1000
0100
1000
0001
0100
,
0010
1000
0001
0010
0001
1000
0100
1000
0010
0100
0001
0010
0001
1000
0100
1000
,
0001
0000
0000
1000
0010
0000
1000
0000
0001
0000
0000
0010
0001
0000
1000
0000
,
0010
0000
0000
0100
0010
0000
1000
0000
0001
0000
0000
0010
0100
0000
0010
0000
,
0001
0000
0000
1000
0000
0000
0100
0000
0000
0010
0000
0000
0001
0000
0000
1000
0000
0000
0001
0000
0000
0100
0000
0000
0001
0000
0010
0000
0100
0000
1000
0000
0001
0000
1000
0000
0001
0000
0100
0000
0010
0000
1000
0000
0001
0000
1000
0000
,
0002
0000
0000
0003
0000
0000
0000
0000
;
