#TITLE:Watercolour;
#SUBTITLE:;
#ARTIST:Pendulum;
#TITLETRANSLIT:;
#SUBTITLETRANSLIT:;
#ARTISTTRANSLIT:;
#CREDIT:;
#BANNER:watercolourbn.png;
#BACKGROUND:watercolourbg.png;
#LYRICSPATH:;
#CDTITLE:;
#MUSIC:watercolour.ogg;
#OFFSET:0.042;
#SAMPLESTART:142.205;
#SAMPLELENGTH:22.070;
#SELECTABLE:YES;
#DISPLAYBPM:174.000;
#BPMS:0.000=87.000,48.000=174.000,496.000=87.000,556.000=43.500,558.000=174.000;
#STOPS:;
#BGCHANGES:;
// cache tags:
#FIRSTBEAT:16.000;
#LASTBEAT:752.000;
#SONGFILENAME:Songs/Pendulum/Watercolour/watercolour.sm;
#HASMUSIC:1;
#HASBANNER:1;
#MUSICLENGTH:304.000;
// end cache tags

//---------------dance-single - I. Pyles----------------
#NOTES:
     dance-single:
     I. Pyles:
     Challenge:
     14:
     1.000,1.000,0.372,1.000,1.000,2064.000,113.000,375.000,6.000,7.000:



0000
0000
0000
0000
,
0000
0000
0000
0000
,
0000
0000
0000
0000
,
0000
0000
0000
0000
,
2001
3200
0320
0230
,
2300
3020
0230
0320
,
2030
3200
0320
0230
,
2300
3020
0230
0320
,
2030
3002
0023
0230
,
2300
3002
0203
0320
,
2030
3002
0023
0230
,
2300
3002
0203
0320
,
1030
0010
0100
0001
0100
0001
1000
0100
0010
0001
0010
0001
1000
0010
0100
0001
,
1000
0100
0010
0001
0010
0001
1000
0010
0100
0001
0100
0001
1000
0100
0010
0001
,
1000
0001
0100
0010
0100
0010
1000
0001
0010
0100
0010
0100
1000
0001
0100
0010
,
1000
0001
0010
0100
0010
0100
1000
0001
0100
0010
0100
0010
1000
0001
0010
0100
,
1000
0010
0100
0001
0100
0001
1000
0100
0010
0001
0010
0001
1000
0010
0100
0001
,
1000
0100
0010
0001
0010
0001
1000
0010
0100
0001
0100
0001
1000
0100
0010
0001
,
1000
0001
0100
0010
0100
0010
1000
0001
0010
0100
0010
0100
1000
0001
0100
0010
,
1000
0001
0010
0100
0010
0100
1000
0010
0100
0001
0010
0001
0100
0010
1000
0001
,
1000
0100
0010
0001
0010
0001
1000
0010
0100
0001
0100
0001
1000
0100
0010
0001
,
1000
0010
0100
0001
0100
0001
1000
0001
0010
0001
0100
0001
0010
0100
1000
0001
,
1000
0001
0010
0100
0010
0100
1000
0001
0100
0010
0100
0010
1000
0001
0010
0100
,
1000
0001
0100
0010
0100
0010
1000
0001
0010
0001
0100
0010
1000
0001
0100
0010
,
1000
0100
0010
0001
0010
0001
1000
0010
0100
0001
0100
0001
1000
0100
0010
0001
,
1000
0010
0100
0001
0100
0001
1000
0001
0010
0001
0100
0001
0010
0001
1000
0010
,
1000
0001
0010
0100
0010
0100
1000
0001
0100
0010
0100
0010
1000
0001
0010
0100
,
1000
0001
0100
0010
0100
0010
1000
0001
0010
0001
0100
0001
0010
0001
0100
0010
,
2000
0000
0000
0000
,
0000
0000
0000
0000
,
3200
0000
0000
0000
,
0302
0000
0000
0000
,
2003
0000
0000
0000
,
0000
0000
0000
0000
,
3002
0000
0000
0000
,
0203
0000
0000
0000
,
2300
0000
0000
0000
,
0000
0000
0000
0000
,
3020
0000
0000
0000
,
0032
0000
0000
0000
,
2003
0000
0000
0000
,
0000
0000
0000
0000
,
3002
0000
0000
0000
,
0023
0000
0000
0000
,
1030
0010
0010
1000
0010
0010
1000
0010
,
1000
0010
0100
0100
0010
1000
0001
1000
,
0001
0010
0010
0001
0010
0010
0001
0010
,
0001
0010
0100
0100
0010
0001
0010
0001
,
1000
0100
0100
1000
0100
0100
1000
0100
,
1000
0100
0010
0010
0100
1000
0001
1000
,
0001
0100
0100
0001
0100
0100
0001
0100
,
0001
0100
0010
0010
0100
0001
0100
0010
,
0110
0000
1001
0000
1000
0001
0011
0000
,
0110
0000
1001
0000
0001
1000
1010
0000
,
0110
0000
1001
0000
1000
0001
0011
0000
,
0110
0000
1001
0000
0001
1000
1010
0000
,
1000
0001
0011
0010
0100
1000
1001
0000
,
0001
1000
1010
0010
0100
0001
1001
0000
,
1000
0001
0011
0010
0100
1000
1001
0001
,
0010
0001
0100
0010
1000
0001
0100
0010
1000
0001
1000
0100
1000
0001
0100
0010
,
2000
0000
0000
0000
3200
0000
0000
0000
0320
0000
0000
0000
0032
0000
0000
0000
2003
0000
0000
3000
0200
0000
0000
0300
0020
0000
0000
0030
0002
0000
0000
0003
2000
0000
3000
0000
0200
0000
0300
0000
0020
0000
0030
0000
0002
0000
0003
0000
1000
0000
0000
0000
0010
0000
0000
0000
1000
0000
0000
0000
0001
0000
0000
0000
,
2000
0000
0000
0000
3200
0000
0000
0000
0320
0000
0000
0000
0032
0000
0000
0000
2003
0000
0000
3000
0200
0000
0000
0300
0020
0000
0000
0030
0002
0000
0000
0003
2000
0000
3000
0000
0200
0000
0300
0000
0020
0000
0030
0000
0002
0000
0003
0000
1000
0000
0000
0000
0100
0000
0000
0000
1000
0000
0000
0000
0001
0000
0000
0000
,
2000
0000
0000
0000
3020
0000
0000
0000
0230
0000
0000
0000
0302
0000
0000
0000
2003
0000
0000
3000
0020
0000
0000
0030
0200
0000
0000
0300
0002
0000
0000
0003
2000
0000
3000
0000
0020
0000
0030
0000
0200
0000
0300
0000
0002
0000
0003
0000
1000
0000
0000
0000
0100
0000
0000
0000
1000
0000
0000
0000
0001
0000
0000
0000
,
1000
0100
1000
0100
0010
0100
0010
0100
1000
0010
1000
0010
0100
0010
0100
0010
,
2000
0000
0000
0000
3002
0000
0000
0000
0023
0000
0000
0000
0230
0000
0000
0000
2300
0000
0000
3000
0002
0000
0000
0003
0020
0000
0000
0030
0200
0000
0000
0300
2000
0000
3000
0000
0002
0000
0003
0000
0020
0000
0030
0000
0200
0000
0300
0000
1000
0000
0000
0000
0001
0000
0000
0000
0100
0000
0000
0000
0001
0000
0000
0000
,
2000
0000
0000
0000
3002
0000
0000
0000
0023
0000
0000
0000
0230
0000
0000
0000
2300
0000
0000
3000
0002
0000
0000
0003
0020
0000
0000
0030
0200
0000
0000
0300
2000
0000
3000
0000
0002
0000
0003
0000
0020
0000
0030
0000
0200
0000
0300
0000
1000
0000
0000
0000
0001
0000
0000
0000
0010
0000
0000
0000
0001
0000
0000
0000
,
2000
0000
0000
0000
3002
0000
0000
0000
0203
0000
0000
0000
0320
0000
0000
0000
2030
0000
0000
3000
0002
0000
0000
0003
0200
0000
0000
0300
0020
0000
0000
0030
2000
0000
3000
0000
0002
0000
0003
0000
0200
0000
0300
0000
0020
0000
0030
0000
1000
0000
0000
0000
0001
0000
0000
0000
0010
0000
0000
0000
0001
0000
0000
0000
,
1000
0010
1000
0010
0100
0010
0100
0010
1000
0100
1000
0100
0010
0100
0010
0100
,
2000
0000
0000
0000
3020
0000
0000
0000
0230
0000
0000
0000
0302
0000
0000
0000
2003
0000
0000
3000
0020
0000
0000
0030
0200
0000
0000
0300
0002
0000
0000
0003
2000
0000
3000
0000
0020
0000
0030
0000
0200
0000
0300
0000
0002
0000
0003
0000
1000
0000
0000
0000
0100
0000
0000
0000
1000
0000
0000
0000
0001
0000
0000
0000
,
2000
0000
0000
0000
3020
0000
0000
0000
0230
0000
0000
0000
0302
0000
0000
0000
2003
0000
0000
3000
0020
0000
0000
0030
0200
0000
0000
0300
0002
0000
0000
0003
2000
0000
3000
0000
0020
0000
0030
0000
0200
0000
0300
0000
0002
0000
0003
0000
1000
0000
0000
0000
0010
0000
0000
0000
1000
0000
0000
0000
0001
0000
0000
0000
,
2000
0000
0000
0000
3200
0000
0000
0000
0320
0000
0000
0000
0032
0000
0000
0000
2003
0000
0000
3000
0200
0000
0000
0300
0020
0000
0000
0030
0002
0000
0000
0003
2000
0000
3000
0000
0200
0000
0300
0000
0020
0000
0030
0000
0002
0000
0003
0000
1000
0000
0000
0000
0010
0000
0000
0000
1000
0000
0000
0000
0001
0000
0000
0000
,
1000
0100
1000
0100
0010
0100
0010
0100
1000
0010
1000
0010
0100
0010
0100
0010
,
2000
0000
0000
0000
3002
0000
0000
0000
0203
0000
0000
0000
0320
0000
0000
0000
2030
0000
0000
3000
0002
0000
0000
0003
0200
0000
0000
0300
0020
0000
0000
0030
2000
0000
3000
0000
0002
0000
0003
0000
0200
0000
0300
0000
0020
0000
0030
0000
1000
0000
0000
0000
0001
0000
0000
0000
0010
0000
0000
0000
0001
0000
0000
0000
,
2000
0000
0000
0000
3002
0000
0000
0000
0203
0000
0000
0000
0320
0000
0000
0000
2030
0000
0000
3000
0002
0000
0000
0003
0200
0000
0000
0300
0020
0000
0000
0030
2000
0000
3000
0000
0002
0000
0003
0000
0200
0000
0300
0000
0020
0000
0030
0000
1000
0000
0000
0000
0001
0000
0000
0000
0100
0000
0000
0000
0001
0000
0000
0000
,
2000
0000
0000
0000
3002
0000
0000
0000
0023
0000
0000
0000
0230
0000
0000
0000
2300
0000
0000
3000
0002
0000
0000
0003
0020
0000
0000
0030
0200
0000
0000
0300
2000
0000
3000
0000
0002
0000
0003
0000
0020
0000
0030
0000
0200
0000
0300
0000
1000
0000
0000
0000
0001
0000
0000
0000
0100
0000
0000
0000
0010
0000
0000
0000
,
0100
0000
0100
0000
1001
0000
1000
0001
0010
0100
0010
0000
0110
0000
0010
0100
,
1000
0000
0001
0000
0010
0000
0100
1000
0100
1000
0001
0000
0010
0000
0001
1000
,
0100
0000
1000
0000
1001
0000
0001
0010
0100
1000
0001
0000
0010
0000
0100
0010
,
0001
0000
1000
0000
0010
0000
0100
0001
0100
0001
1000
0000
0010
0000
1000
0001
,
0100
0000
0001
0000
1001
0000
1000
0100
0010
0001
1000
0100
0010
0100
1000
0001
,
1000
0000
0001
0000
0100
0000
0010
1000
0010
1000
0001
0000
0100
0000
0001
1000
,
0100
0000
1000
0000
1001
0000
0001
0100
0010
1000
0001
0000
0100
0000
0010
0100
,
0001
0000
1000
0000
0100
0000
0010
0001
0010
0001
1000
0000
0100
0000
1000
0001
,
0010
0000
0001
0000
1001
0000
1000
0010
0100
0001
1000
0010
0100
0010
1000
0001
,
1000
0000
0001
0000
0010
0000
0100
1000
0100
1000
0001
0000
0010
0000
0001
1000
,
0100
0000
1000
0000
1001
0000
0001
0010
0100
1000
0001
0000
0010
0000
0100
0010
,
0001
0000
1000
0000
0010
0000
0100
0001
0100
0001
1000
0000
0010
0000
1000
0001
,
0100
0000
0001
0000
1001
0000
1000
0100
0010
0001
1000
0100
0010
0100
1000
0001
,
1000
0000
0001
0000
0100
0000
0010
1000
0010
1000
0001
0000
0100
0000
0001
1000
,
0100
0000
1000
0000
1001
0000
0001
0100
0010
1000
0001
0000
0100
0000
0010
0100
,
0001
0000
1000
0000
0100
0000
0010
0001
0010
0001
1000
0000
0100
0000
1000
0001
,
0100
0000
0100
0000
1001
0000
0001
0010
0100
1000
0100
0010
0001
0100
0010
1000
,
0002
0000
0000
0000
0023
0000
0000
0000
0230
0000
0000
0000
2300
0000
0000
0000
3002
0000
0000
0003
0020
0000
0000
0030
0200
0000
0000
0300
2000
0000
0000
3000
0002
0000
0003
0000
0020
0000
0030
0000
0200
0000
0300
0000
2000
0000
3000
0000
0001
0000
0000
0000
0100
0000
0000
0000
0001
0000
0000
0000
1000
0000
0000
0000
,
0002
0000
0000
0000
0023
0000
0000
0000
0230
0000
0000
0000
2300
0000
0000
0000
3002
0000
0000
0003
0020
0000
0000
0030
0200
0000
0000
0300
2000
0000
0000
3000
0002
0000
0003
0000
0020
0000
0030
0000
0200
0000
0300
0000
2000
0000
3000
0000
0001
0000
0000
0000
0010
0000
0000
0000
0001
0000
0000
0000
1000
0000
0000
0000
,
0002
0000
0000
0000
0203
0000
0000
0000
0320
0000
0000
0000
2030
0000
0000
0000
3002
0000
0000
0003
0200
0000
0000
0300
0020
0000
0000
0030
2000
0000
0000
3000
0002
0000
0003
0000
0200
0000
0300
0000
0020
0000
0030
0000
2000
0000
3000
0000
0001
0000
0000
0000
0010
0000
0000
0000
0001
0000
0000
0000
1000
0000
0000
0000
,
0001
0010
0001
0010
0100
0010
0100
0010
0001
0100
0001
0100
0010
0100
0010
0100
,
0002
0000
0000
0000
2003
0000
0000
0000
3200
0000
0000
0000
0320
0000
0000
0000
0032
0000
0000
0003
2000
0000
0000
3000
0200
0000
0000
0300
0020
0000
0000
0030
0002
0000
0003
0000
2000
0000
3000
0000
0200
0000
0300
0000
0020
0000
0030
0000
0001
0000
0000
0000
1000
0000
0000
0000
0010
0000
0000
0000
1000
0000
0000
0000
,
0002
0000
0000
0000
2003
0000
0000
0000
3200
0000
0000
0000
0320
0000
0000
0000
0032
0000
0000
0003
2000
0000
0000
3000
0200
0000
0000
0300
0020
0000
0000
0030
0002
0000
0003
0000
2000
0000
3000
0000
0200
0000
0300
0000
0020
0000
0030
0000
0001
0000
0000
0000
1000
0000
0000
0000
0100
0000
0000
0000
1000
0000
0000
0000
,
0002
0000
0000
0000
2003
0000
0000
0000
3020
0000
0000
0000
0230
0000
0000
0000
0302
0000
0000
0003
2000
0000
0000
3000
0020
0000
0000
0030
0200
0000
0000
0300
0002
0000
0003
0000
2000
0000
3000
0000
0020
0000
0030
0000
0200
0000
0300
0000
0001
0000
0000
0000
1000
0000
0000
0000
0100
0000
0000
0000
1000
0000
0000
0000
,
0001
0100
0001
0100
0010
0100
0010
0100
0001
0010
0001
0010
0100
0010
0100
0010
,
0002
0000
0000
0000
0203
0000
0000
0000
0320
0000
0000
0000
2030
0000
0000
0000
3002
0000
0000
0003
0200
0000
0000
0300
0020
0000
0000
0030
2000
0000
0000
3000
0002
0000
0003
0000
0200
0000
0300
0000
0020
0000
0030
0000
2000
0000
3000
0000
0001
0000
0000
0000
0010
0000
0000
0000
0001
0000
0000
0000
1000
0000
0000
0000
,
0002
0000
0000
0000
0203
0000
0000
0000
0320
0000
0000
0000
2030
0000
0000
0000
3002
0000
0000
0003
0200
0000
0000
0300
0020
0000
0000
0030
2000
0000
0000
3000
0002
0000
0003
0000
0200
0000
0300
0000
0020
0000
0030
0000
2000
0000
3000
0000
0001
0000
0000
0000
0100
0000
0000
0000
0001
0000
0000
0000
1000
0000
0000
0000
,
0002
0000
0000
0000
0023
0000
0000
0000
0230
0000
0000
0000
2300
0000
0000
0000
3002
0000
0000
0003
0020
0000
0000
0030
0200
0000
0000
0300
2000
0000
0000
3000
0002
0000
0003
0000
0020
0000
0030
0000
0200
0000
0300
0000
2000
0000
3000
0000
0001
0000
0000
0000
0100
0000
0000
0000
0001
0000
0000
0000
1000
0000
0000
0000
,
0001
0010
0001
0010
0100
0010
0100
0010
0001
0100
0001
0100
0010
0100
0010
0100
,
0002
0000
0000
0000
2003
0000
0000
0000
3020
0000
0000
0000
0230
0000
0000
0000
0302
0000
0000
0003
2000
0000
0000
3000
0020
0000
0000
0030
0200
0000
0000
0300
0002
0000
0003
0000
2000
0000
3000
0000
0020
0000
0030
0000
0200
0000
0300
0000
0001
0000
0000
0000
1000
0000
0000
0000
0100
0000
0000
0000
1000
0000
0000
0000
,
0002
0000
0000
0000
2003
0000
0000
0000
3020
0000
0000
0000
0230
0000
0000
0000
0302
0000
0000
0003
2000
0000
0000
3000
0020
0000
0000
0030
0200
0000
0000
0300
0002
0000
0003
0000
2000
0000
3000
0000
0020
0000
0030
0000
0200
0000
0300
0000
0001
0000
0000
0000
1000
0000
0000
0000
0010
0000
0000
0000
1000
0000
0000
0000
,
0002
0000
0000
0003
2000
0000
0000
3000
0200
0000
0000
0300
0020
0000
0000
0030
0002
0000
0003
0000
2000
0000
0000
3000
0200
0000
0000
0300
0020
0000
0000
0030
0002
0000
0000
0003
2000
0000
3000
0000
0200
0000
0300
0000
0020
0000
0030
0000
0002
0000
0003
0000
1000
0000
0000
0000
0100
0000
0000
0000
1000
0000
0000
0000
,
0010
0000
0010
0000
1001
0000
1000
0100
0010
0100
0010
0001
0100
0010
1000
0001
,
1000
0000
0001
0000
0010
0000
0100
1000
0100
1000
0001
0000
0010
0000
0001
1000
,
0100
0000
1000
0000
1001
0000
0001
0010
0100
1000
0001
0000
0010
0000
0100
0010
,
0001
0000
1000
0000
0010
0000
0100
0001
0100
0001
1000
0000
0010
0000
1000
0001
,
0100
0000
0001
0000
1001
0000
1000
0100
0010
0001
1000
0100
0010
0100
1000
0001
,
1000
0000
0001
0000
0100
0000
0010
1000
0010
1000
0001
0000
0100
0000
0001
1000
,
0100
0000
1000
0000
1001
0000
0001
0100
0010
1000
0001
0000
0100
0000
0010
0100
,
0001
0000
1000
0000
0100
0000
0010
0001
0010
0001
1000
0000
0100
0000
1000
0001
,
0010
0000
0001
0000
1001
0000
1000
0010
0100
0001
1000
0010
0100
0010
1000
0001
,
0100
0000
0010
0100
0010
0000
1000
0001
0010
0100
1000
0001
0100
0000
0010
0100
,
0001
0000
0100
0010
0100
0000
0001
1000
0100
0010
0001
1000
0010
0000
0100
0010
,
1000
0000
0010
0100
0010
0000
1000
0001
0100
0010
1000
0001
0010
0000
0100
0010
,
0001
0000
0010
0100
0010
0000
0001
1000
0100
0010
0001
0100
0010
0100
0001
1000
,
0100
0000
0010
0001
0010
0000
0100
1000
0001
0100
0010
1000
0001
0000
1000
0001
,
0100
0000
0010
1000
0010
0000
0100
0001
1000
0100
0010
0001
1000
0000
0001
1000
,
0010
0000
0100
0001
0100
0000
0010
1000
0001
0010
0100
1000
0001
0000
1000
0001
,
0010
0000
0010
0100
1000
0001
0100
0010
0100
0001
0010
0100
1000
0001
0100
0010
,
2000
3200
0320
0230
,
2300
3020
0230
0320
,
2030
3200
0320
0230
,
2300
3020
0230
0320
,
2032
0003
3002
0000
0023
0000
2230
3000
,
2302
0003
3002
0000
0203
0000
0320
0000
,
2032
0003
3002
0000
0023
0000
2230
3000
,
2302
0003
3002
0000
0203
0000
0320
0000
,
1031
0001
0100
0001
0101
0001
0100
0010
0100
0010
1010
1000
1001
0001
1000
0001
,
1001
1000
0100
1000
1100
1000
0100
0010
0100
0010
0011
0001
1001
1000
0001
1000
,
1001
0001
0010
0001
0011
0001
0010
0100
0010
0100
1100
1000
1001
0001
1000
0001
,
1001
1000
0010
1000
1010
1000
0010
0100
0010
0100
0101
0001
1001
1000
0001
1000
,
1001
0001
0100
0001
0101
0001
0100
0010
0100
0010
1010
1000
1001
0001
1000
0001
,
1001
1000
0100
1000
1100
1000
0100
0010
0100
0010
0011
0001
1001
1000
0001
1000
,
1001
0001
0010
0001
0011
0001
0010
0100
0010
0100
1100
1000
1001
0001
1000
0001
,
2002
0MM0
0000
0MM0
0000
0MM0
0000
3003
0110
0000
0000
0000
1001
0000
0000
0000
,
1000
0001
0011
0000
0110
0000
1001
0000
,
0001
1000
1010
0000
0110
0000
1001
0000
,
1000
0001
0011
0000
0110
0000
1001
0000
,
0001
1000
1010
0000
0110
0000
1001
0000
,
1000
0001
0011
0000
0110
0000
1001
0000
,
0001
1000
1010
0000
0110
0000
1001
0000
,
1000
0001
0011
0000
0110
0000
1001
0000
,
0001
1000
1010
0010
0100
0001
1001
0000
,
1000
0001
0011
0010
0100
1000
1001
0000
,
0001
1000
1010
0010
0100
0001
1001
0000
,
1000
0001
0011
0010
0100
1000
1001
0000
,
0001
1000
1010
0010
0100
0001
1001
0000
,
1000
0001
0011
0010
0100
1000
1001
0000
,
0001
1000
1010
1000
1001
0001
0101
0001
,
1001
0000
0001
0000
0011
0000
0001
0000
1000
0100
1000
0010
0100
0010
1000
0001
,
1000
0001
0100
0010
1000
0001
0010
0100
1000
0001
0100
0001
0010
0100
1000
0001
,
1000
0001
0010
0001
0100
0010
1000
0001
1000
0001
0010
0001
0100
0010
1000
0001
,
1000
0001
0100
0001
0010
0100
1000
0001
1000
0001
0100
0001
0010
0100
1000
0001
,
1000
0001
0010
0001
0100
0010
1000
0001
1000
0100
0010
0100
1000
0001
0100
0001
,
1000
0100
0010
0100
1000
0010
0100
0010
1000
0001
0010
0001
0100
0010
1000
0001
,
1000
0001
0100
0001
0010
0100
1000
0001
1000
0001
0100
0001
0010
0100
1000
0001
,
1000
0001
0010
0001
0100
0010
1000
0001
1000
0001
0010
0001
0100
0010
1000
0001
,
1000
0001
0100
0001
0010
0100
1000
0001
1000
0010
0100
0010
1000
0001
0010
0001
,
1000
0010
0100
0010
1000
0100
0010
0100
1000
0001
0100
0001
0010
0100
1000
0001
,
1000
0001
0010
0001
0100
0010
1000
0001
1000
0001
0010
0001
0100
0010
1000
0001
,
1000
0001
0100
0001
0010
0100
1000
0001
1000
0001
0100
0001
0010
0100
1000
0001
,
1000
0001
0010
0001
0100
0010
1000
0001
1000
0100
0010
0100
1000
0001
0100
0001
,
1000
0100
0010
0100
1000
0010
0100
0010
1000
0001
0010
0001
0100
0010
1000
0001
,
1000
0001
0100
0001
0010
0100
1000
0001
1000
0001
0100
0001
0010
0100
1000
0001
,
1000
0001
0010
0001
0100
0010
1000
0001
1000
0001
0010
0001
0100
0010
1000
0001
,
1000
0001
0100
0001
0010
0100
1000
0001
1000
0010
1000
0001
0010
0100
0010
0100
,
1000
0100
1000
0100
0010
0001
0010
0001
1000
0001
0010
0001
1000
0001
0010
0001
,
1000
0001
0010
0001
1000
0001
0010
0001
1000
0100
1000
0100
0010
0001
0010
0001
,
1000
0001
1000
0001
0100
0001
0100
0001
1000
0001
0100
0001
1000
0001
0100
0001
,
1000
0001
0100
0001
1000
0001
0100
0001
1000
0001
0010
0001
0010
0100
0010
0100
,
1000
0010
1000
0010
0100
0001
0100
0001
1000
0100
1000
0100
1000
0100
0010
0100
,
0010
0100
0010
0100
1000
0001
1000
0001
1000
0001
1000
0001
0100
0001
0100
0001
,
1000
0010
1000
0010
0100
0001
0100
0001
0010
0100
1000
0100
0010
0100
1000
0100
,
0010
0100
1000
0100
0010
0100
1000
0100
0010
0001
0100
0001
0100
0010
0100
0010
,
1000
0100
1000
0100
0010
0001
0010
0001
1000
0010
0100
0010
1000
0010
0100
0010
,
1000
0010
0100
0010
1000
0010
0100
0010
1000
0001
0010
0001
0010
0100
0010
0100
,
1000
0001
1000
0001
0100
0010
0100
0010
1000
0100
0010
0100
1000
0100
0010
0100
,
1000
0100
0010
0100
1000
0100
0010
0100
1000
0001
0100
0001
0100
0010
0100
0010
,
1000
0010
1000
0010
0100
0001
0100
0001
0010
0001
0010
0001
0010
0001
0010
0100
,
0010
0100
0010
0100
1000
0001
1000
0001
1000
0001
1000
0001
0100
0001
0100
0001
,
0100
0010
0100
0010
1000
0010
1000
0010
0100
0001
0100
0010
0100
0001
0100
0010
,
1000
0100
1000
0001
0100
0010
1000
0100
1000
0000
0000
0000
0011
0000
0000
0000
,
0110
0100
1100
0010
2002
0000
0000
0000
,
3003
0000
0000
0000
;

//---------------dance-single - I. Pyles----------------
#NOTES:
     dance-single:
     I. Pyles:
     Hard:
     13:
     1.000,1.000,0.063,1.000,1.000,1854.000,19.000,445.000,6.000,6.000:




0000
0000
0000
0000
,
0000
0000
0000
0000
,
0000
0000
0000
0000
,
0000
0000
0000
0000
,
2001
3200
0320
0230
,
2300
3020
0230
0320
,
2030
3200
0320
0230
,
2300
3020
0230
0320
,
2030
3002
0023
0230
,
2300
3002
0203
0320
,
2030
3002
0023
0230
,
2300
3002
0203
0320
,
1030
0100
0100
0010
0100
0100
1000
0001
,
0100
0010
0010
1000
0010
0010
0100
0001
,
1000
0010
0010
0100
0010
0010
1000
0001
,
0010
0100
0100
1000
0100
0100
0010
0001
,
1000
0100
0100
0010
0100
0100
1000
0001
,
0100
0010
0010
1000
0010
0010
0100
0001
,
1000
0010
0010
0100
0010
0010
1000
0001
,
0010
0100
0100
1000
0100
0010
0100
1000
,
0001
0100
0100
0010
0100
0100
0001
1000
,
0100
0010
0010
0001
0010
0100
0010
0001
,
1000
0100
0100
0010
0100
0100
1000
0001
,
0100
0010
0010
1000
0010
0100
0010
1000
,
0001
0010
0010
0100
0010
0010
0001
1000
,
0010
0100
0100
0001
0100
0010
0100
0001
,
1000
0010
0010
0100
0010
0010
1000
0001
,
0010
0100
0100
1000
0100
0010
0100
1000
,
2001
0000
0000
0000
,
0000
0000
0000
0000
,
3200
0000
0000
0000
,
0302
0000
0000
0000
,
2003
0000
0000
0000
,
0000
0000
0000
0000
,
3002
0000
0000
0000
,
0203
0000
0000
0000
,
2300
0000
0000
0000
,
0000
0000
0000
0000
,
3020
0000
0000
0000
,
0032
0000
0000
0000
,
2003
0000
0000
0000
,
0000
0000
0000
0000
,
3002
0000
0000
0000
,
0023
0000
0000
0000
,
1030
0010
0010
1000
0010
0010
1000
0010
,
1000
0010
0100
0100
0010
1000
0001
1000
,
0001
0010
0010
0001
0010
0010
0001
0010
,
0001
0010
0100
0100
0010
0001
0010
0001
,
1000
0100
0100
1000
0100
0100
1000
0100
,
1000
0100
0010
0010
0100
1000
0001
1000
,
0001
0100
0100
0001
0100
0100
0001
0100
,
0001
0100
0010
0010
0100
0001
1000
0001
,
0200
0000
0000
0000
0302
0000
1000
0000
0003
0000
0000
0000
0002
0003
0000
0000
,
0020
0000
0000
0000
0032
0000
1000
0000
0003
0000
0000
0000
0002
0003
0000
0000
,
0200
0000
0000
0000
0302
0000
1000
0000
0003
0000
0000
0000
0002
0003
0000
0000
,
0020
0000
0000
0000
0032
0000
1000
0000
0003
0000
0000
0000
0002
0003
0000
0000
,
0200
0000
0000
0000
0302
0000
1000
0000
0003
0000
0000
0000
0002
0003
0000
0000
,
0020
0000
0000
0000
0032
0000
1000
0000
0003
0000
0000
0000
0002
0003
0000
0000
,
0200
0000
0000
0000
0302
0000
1000
0000
0003
0000
0000
0000
0002
0003
0000
0000
,
0010
0001
0100
0010
1000
0001
0100
0010
1000
0001
1000
0100
1000
0001
0100
0010
,
2000
0000
0000
0000
3200
0000
0000
0000
0320
0000
0000
0000
0032
0000
0000
0000
2003
0000
0000
3000
0200
0000
0000
0300
0020
0000
0000
0030
0002
0000
0000
0003
2000
0000
3000
0000
0200
0000
0300
0000
0020
0000
0030
0000
0002
0000
0003
0000
1000
0000
0000
0000
0010
0000
0000
0000
1000
0000
0000
0000
0001
0000
0000
0000
,
2000
0000
0000
0000
3200
0000
0000
0000
0320
0000
0000
0000
0032
0000
0000
0000
2003
0000
0000
3000
0200
0000
0000
0300
0020
0000
0000
0030
0002
0000
0000
0003
2000
0000
3000
0000
0200
0000
0300
0000
0020
0000
0030
0000
0002
0000
0003
0000
1000
0000
0000
0000
0100
0000
0000
0000
1000
0000
0000
0000
0001
0000
0000
0000
,
2000
0000
0000
0000
3020
0000
0000
0000
0230
0000
0000
0000
0302
0000
0000
0000
2003
0000
0000
3000
0020
0000
0000
0030
0200
0000
0000
0300
0002
0000
0000
0003
2000
0000
3000
0000
0020
0000
0030
0000
0200
0000
0300
0000
0002
0000
0003
0000
1000
0000
0000
0000
0100
0000
0000
0000
1000
0000
0000
0000
0001
0000
0000
0000
,
1000
0100
1000
0100
0010
0100
0010
0100
1000
0010
1000
0010
0100
0010
0100
0010
,
2000
0000
0000
0000
3002
0000
0000
0000
0023
0000
0000
0000
0230
0000
0000
0000
2300
0000
0000
3000
0002
0000
0000
0003
0020
0000
0000
0030
0200
0000
0000
0300
2000
0000
3000
0000
0002
0000
0003
0000
0020
0000
0030
0000
0200
0000
0300
0000
1000
0000
0000
0000
0001
0000
0000
0000
0100
0000
0000
0000
0001
0000
0000
0000
,
2000
0000
0000
0000
3002
0000
0000
0000
0023
0000
0000
0000
0230
0000
0000
0000
2300
0000
0000
3000
0002
0000
0000
0003
0020
0000
0000
0030
0200
0000
0000
0300
2000
0000
3000
0000
0002
0000
0003
0000
0020
0000
0030
0000
0200
0000
0300
0000
1000
0000
0000
0000
0001
0000
0000
0000
0010
0000
0000
0000
0001
0000
0000
0000
,
2000
0000
0000
0000
3002
0000
0000
0000
0203
0000
0000
0000
0320
0000
0000
0000
2030
0000
0000
3000
0002
0000
0000
0003
0200
0000
0000
0300
0020
0000
0000
0030
2000
0000
3000
0000
0002
0000
0003
0000
0200
0000
0300
0000
0020
0000
0030
0000
1000
0000
0000
0000
0001
0000
0000
0000
0010
0000
0000
0000
0001
0000
0000
0000
,
1000
0010
1000
0010
0100
0010
0100
0010
1000
0100
1000
0100
0010
0100
0010
0100
,
2000
0000
0000
0000
3020
0000
0000
0000
0230
0000
0000
0000
0302
0000
0000
0000
2003
0000
0000
3000
0020
0000
0000
0030
0200
0000
0000
0300
0002
0000
0000
0003
2000
0000
3000
0000
0020
0000
0030
0000
0200
0000
0300
0000
0002
0000
0003
0000
1000
0000
0000
0000
0100
0000
0000
0000
1000
0000
0000
0000
0001
0000
0000
0000
,
2000
0000
0000
0000
3020
0000
0000
0000
0230
0000
0000
0000
0302
0000
0000
0000
2003
0000
0000
3000
0020
0000
0000
0030
0200
0000
0000
0300
0002
0000
0000
0003
2000
0000
3000
0000
0020
0000
0030
0000
0200
0000
0300
0000
0002
0000
0003
0000
1000
0000
0000
0000
0010
0000
0000
0000
1000
0000
0000
0000
0001
0000
0000
0000
,
2000
0000
0000
0000
3200
0000
0000
0000
0320
0000
0000
0000
0032
0000
0000
0000
2003
0000
0000
3000
0200
0000
0000
0300
0020
0000
0000
0030
0002
0000
0000
0003
2000
0000
3000
0000
0200
0000
0300
0000
0020
0000
0030
0000
0002
0000
0003
0000
1000
0000
0000
0000
0010
0000
0000
0000
1000
0000
0000
0000
0001
0000
0000
0000
,
1000
0100
1000
0100
0010
0100
0010
0100
1000
0010
1000
0010
0100
0010
0100
0010
,
2000
0000
0000
0000
3002
0000
0000
0000
0203
0000
0000
0000
0320
0000
0000
0000
2030
0000
0000
3000
0002
0000
0000
0003
0200
0000
0000
0300
0020
0000
0000
0030
2000
0000
3000
0000
0002
0000
0003
0000
0200
0000
0300
0000
0020
0000
0030
0000
1000
0000
0000
0000
0001
0000
0000
0000
0010
0000
0000
0000
0001
0000
0000
0000
,
2000
0000
0000
0000
3002
0000
0000
0000
0203
0000
0000
0000
0320
0000
0000
0000
2030
0000
0000
3000
0002
0000
0000
0003
0200
0000
0000
0300
0020
0000
0000
0030
2000
0000
3000
0000
0002
0000
0003
0000
0200
0000
0300
0000
0020
0000
0030
0000
1000
0000
0000
0000
0001
0000
0000
0000
0100
0000
0000
0000
0001
0000
0000
0000
,
2000
0000
0000
0000
3002
0000
0000
0000
0023
0000
0000
0000
0230
0000
0000
0000
2300
0000
0000
3000
0002
0000
0000
0003
0020
0000
0000
0030
0200
0000
0000
0300
2000
0000
3000
0000
0002
0000
0003
0000
0020
0000
0030
0000
0200
0000
0300
0000
1000
0000
0000
0000
0001
0000
0000
0000
0100
0000
0000
0000
0010
0000
0000
0000
,
0100
0000
0100
0000
1001
0000
1000
0001
0010
0100
0010
0000
0110
0000
0010
0100
,
1000
0000
0001
0000
0010
0000
0000
0000
0100
1000
0001
0000
0010
0000
0001
1000
,
0100
0000
0100
0000
0010
0000
0001
0010
0100
1000
0001
0000
0010
0000
0100
0010
,
0001
0000
1000
0000
0010
0000
0000
0000
0100
0001
1000
0000
0010
0000
1000
0001
,
0100
0000
0100
0000
0001
0000
1000
0100
0010
0001
1000
0100
0010
0100
1000
0001
,
1000
0000
0001
0000
0100
0000
0000
0000
0010
1000
0001
0000
0100
0000
0001
1000
,
0100
0000
0100
0000
0010
0000
0001
0100
0010
1000
0001
0000
0100
0000
0010
0100
,
0001
0000
1000
0000
0100
0000
0000
0000
0010
0001
1000
0000
0100
0000
1000
0001
,
0010
0000
0010
0000
0001
0000
1000
0010
0100
0001
1000
0010
0100
0010
1000
0001
,
1000
0000
0001
0000
0010
0000
0000
0000
0100
1000
0001
0000
0010
0000
0001
1000
,
0100
0000
0100
0000
0010
0000
0001
0010
0100
1000
0001
0000
0010
0000
0100
0010
,
0001
0000
1000
0000
0010
0000
0000
0000
0100
0001
1000
0000
0010
0000
1000
0001
,
0100
0000
0100
0000
0001
0000
1000
0100
0010
0001
1000
0100
0010
0100
1000
0001
,
1000
0000
0001
0000
0100
0000
0000
0000
0010
1000
0001
0000
0100
0000
0001
1000
,
0100
0000
0100
0000
0010
0000
0001
0100
0010
1000
0001
0000
0100
0000
0010
0100
,
0001
0000
1000
0000
0100
0000
0000
0000
0010
0001
1000
0000
0100
0000
1000
0001
,
0100
0000
0100
0000
0001
0000
1000
0100
0010
0001
0010
0100
1000
0010
0100
0001
,
2000
0000
0000
0000
3200
0000
0000
0000
0320
0000
0000
0000
0032
0000
0000
0000
2003
0000
0000
3000
0200
0000
0000
0300
0020
0000
0000
0030
0002
0000
0000
0003
2000
0000
3000
0000
0200
0000
0300
0000
0020
0000
0030
0000
0002
0000
0003
0000
1000
0000
0000
0000
0010
0000
0000
0000
1000
0000
0000
0000
0001
0000
0000
0000
,
2000
0000
0000
0000
3200
0000
0000
0000
0320
0000
0000
0000
0032
0000
0000
0000
2003
0000
0000
3000
0200
0000
0000
0300
0020
0000
0000
0030
0002
0000
0000
0003
2000
0000
3000
0000
0200
0000
0300
0000
0020
0000
0030
0000
0002
0000
0003
0000
1000
0000
0000
0000
0100
0000
0000
0000
1000
0000
0000
0000
0001
0000
0000
0000
,
2000
0000
0000
0000
3020
0000
0000
0000
0230
0000
0000
0000
0302
0000
0000
0000
2003
0000
0000
3000
0020
0000
0000
0030
0200
0000
0000
0300
0002
0000
0000
0003
2000
0000
3000
0000
0020
0000
0030
0000
0200
0000
0300
0000
0002
0000
0003
0000
1000
0000
0000
0000
0100
0000
0000
0000
1000
0000
0000
0000
0001
0000
0000
0000
,
1000
0100
1000
0100
0010
0100
0010
0100
1000
0010
1000
0010
0100
0010
0100
0010
,
2000
0000
0000
0000
3002
0000
0000
0000
0023
0000
0000
0000
0230
0000
0000
0000
2300
0000
0000
3000
0002
0000
0000
0003
0020
0000
0000
0030
0200
0000
0000
0300
2000
0000
3000
0000
0002
0000
0003
0000
0020
0000
0030
0000
0200
0000
0300
0000
1000
0000
0000
0000
0001
0000
0000
0000
0100
0000
0000
0000
0001
0000
0000
0000
,
2000
0000
0000
0000
3002
0000
0000
0000
0023
0000
0000
0000
0230
0000
0000
0000
2300
0000
0000
3000
0002
0000
0000
0003
0020
0000
0000
0030
0200
0000
0000
0300
2000
0000
3000
0000
0002
0000
0003
0000
0020
0000
0030
0000
0200
0000
0300
0000
1000
0000
0000
0000
0001
0000
0000
0000
0010
0000
0000
0000
0001
0000
0000
0000
,
2000
0000
0000
0000
3002
0000
0000
0000
0203
0000
0000
0000
0320
0000
0000
0000
2030
0000
0000
3000
0002
0000
0000
0003
0200
0000
0000
0300
0020
0000
0000
0030
2000
0000
3000
0000
0002
0000
0003
0000
0200
0000
0300
0000
0020
0000
0030
0000
1000
0000
0000
0000
0001
0000
0000
0000
0010
0000
0000
0000
0001
0000
0000
0000
,
1000
0010
1000
0010
0100
0010
0100
0010
1000
0100
1000
0100
0010
0100
0010
0100
,
2000
0000
0000
0000
3020
0000
0000
0000
0230
0000
0000
0000
0302
0000
0000
0000
2003
0000
0000
3000
0020
0000
0000
0030
0200
0000
0000
0300
0002
0000
0000
0003
2000
0000
3000
0000
0020
0000
0030
0000
0200
0000
0300
0000
0002
0000
0003
0000
1000
0000
0000
0000
0100
0000
0000
0000
1000
0000
0000
0000
0001
0000
0000
0000
,
2000
0000
0000
0000
3020
0000
0000
0000
0230
0000
0000
0000
0302
0000
0000
0000
2003
0000
0000
3000
0020
0000
0000
0030
0200
0000
0000
0300
0002
0000
0000
0003
2000
0000
3000
0000
0020
0000
0030
0000
0200
0000
0300
0000
0002
0000
0003
0000
1000
0000
0000
0000
0010
0000
0000
0000
1000
0000
0000
0000
0001
0000
0000
0000
,
2000
0000
0000
0000
3200
0000
0000
0000
0320
0000
0000
0000
0032
0000
0000
0000
2003
0000
0000
3000
0200
0000
0000
0300
0020
0000
0000
0030
0002
0000
0000
0003
2000
0000
3000
0000
0200
0000
0300
0000
0020
0000
0030
0000
0002
0000
0003
0000
1000
0000
0000
0000
0010
0000
0000
0000
1000
0000
0000
0000
0001
0000
0000
0000
,
1000
0100
1000
0100
0010
0100
0010
0100
1000
0010
1000
0010
0100
0010
0100
0010
,
2000
0000
0000
0000
3002
0000
0000
0000
0203
0000
0000
0000
0320
0000
0000
0000
2030
0000
0000
3000
0002
0000
0000
0003
0200
0000
0000
0300
0020
0000
0000
0030
2000
0000
3000
0000
0002
0000
0003
0000
0200
0000
0300
0000
0020
0000
0030
0000
1000
0000
0000
0000
0001
0000
0000
0000
0010
0000
0000
0000
0001
0000
0000
0000
,
2000
0000
0000
0000
3002
0000
0000
0000
0203
0000
0000
0000
0320
0000
0000
0000
2030
0000
0000
3000
0002
0000
0000
0003
0200
0000
0000
0300
0020
0000
0000
0030
2000
0000
3000
0000
0002
0000
0003
0000
0200
0000
0300
0000
0020
0000
0030
0000
1000
0000
0000
0000
0001
0000
0000
0000
0100
0000
0000
0000
0001
0000
0000
0000
,
2000
0000
0000
3000
0002
0000
0000
0003
0020
0000
0000
0030
0200
0000
0000
0300
2000
0000
3000
0000
0002
0000
0000
0003
0020
0000
0000
0030
0200
0000
0000
0300
2000
0000
0000
3000
0002
0000
0003
0000
0020
0000
0030
0000
0200
0000
0300
0000
2000
0000
3000
0000
0001
0000
0000
0000
0010
0000
0000
0000
0001
0000
0000
0000
,
0100
0000
0100
0000
1001
0000
0001
0010
0100
0010
0100
1000
0010
0100
0001
1000
,
0001
0000
1000
0000
0100
0000
0000
0000
0010
0001
1000
0000
0100
0000
1000
0001
,
0010
0000
0010
0000
0100
0000
1000
0100
0010
0001
1000
0000
0100
0000
0010
0100
,
1000
0000
0001
0000
0100
0000
0000
0000
0010
1000
0001
0000
0100
0000
0001
1000
,
0010
0000
0010
0000
1000
0000
0001
0010
0100
1000
0001
0010
0100
0010
0001
1000
,
0001
0000
1000
0000
0010
0000
0000
0000
0100
0001
1000
0000
0010
0000
1000
0001
,
0010
0000
0010
0000
0100
0000
1000
0010
0100
0001
1000
0000
0010
0000
0100
0010
,
1000
0000
0001
0000
0010
0000
0000
0000
0100
1000
0001
0000
0010
0000
0001
1000
,
0100
0000
0100
0000
1000
0000
0001
0100
0010
1000
0001
0100
0010
0100
0001
1000
,
0001
0000
1000
0000
0100
0000
0010
0001
0010
0001
1000
0000
0100
0000
1000
0001
,
0010
0000
0001
0000
1001
0000
1000
0100
0010
0001
1000
0000
0100
0000
0010
0100
,
1000
0000
0001
0000
0100
0000
0010
1000
0010
1000
0001
0000
0100
0000
0001
1000
,
0010
0000
1000
0000
1001
0000
0001
0010
0100
1000
0001
0010
0100
0010
0001
1000
,
0001
0000
1000
0000
0010
0000
0100
0001
0100
0001
1000
0000
0010
0000
1000
0001
,
0010
0000
0001
0000
1001
0000
1000
0010
0100
0001
1000
0000
0010
0000
0100
0010
,
1000
0000
0001
0000
0010
0000
0100
1000
0100
1000
0001
0000
0010
0000
0001
1000
,
0100
0000
0100
0010
0001
1000
0010
0100
0010
1000
0100
0010
0001
1000
0010
0100
,
0002
0023
0230
0320
,
0032
0203
0320
0230
,
0302
0023
0230
0320
,
0032
0203
0320
0230
,
2302
0003
3002
0000
0023
0000
2230
3000
,
2302
0003
3002
0000
0203
0000
0320
0000
,
2032
0003
3002
0000
0023
0000
2230
3000
,
2302
3000
2003
0000
3020
0000
0230
0000
,
0301
1000
0001
1000
0100
0010
0001
0010
0001
0010
0100
1000
0010
1000
0001
1000
,
0100
0010
0100
0010
0001
1000
0100
1000
0100
1000
0010
1000
0100
0010
0001
0010
,
0100
1000
0001
1000
0010
0100
0001
0100
0001
0100
0010
1000
0100
1000
0001
1000
,
0010
0100
0010
0100
0001
1000
0010
1000
0010
1000
0100
1000
0010
0100
0001
0100
,
0010
1000
0001
1000
0100
0010
0001
0010
0001
0010
0100
1000
0010
1000
0001
1000
,
0100
0010
0100
0010
0001
1000
0100
1000
0100
1000
0010
1000
0100
0010
0001
0010
,
0100
1000
0001
1000
0010
0100
0001
0100
0001
0100
0010
1000
0100
1000
0001
1000
,
2200
00MM
0000
00MM
0000
00MM
3300
0000
0200
0000
0000
0000
2300
0000
0001
0000
,
3000
0000
0000
0000
2000
3000
0000
0000
0020
0000
0000
0000
2030
0000
0001
0000
,
3000
0000
0000
0000
2000
3000
0000
0000
0200
0000
0000
0000
2300
0000
0001
0000
,
3000
0000
0000
0000
2000
3000
0000
0000
0020
0000
0000
0000
2000
0030
0000
0000
,
3002
0000
0000
0000
0020
0003
0000
0000
0230
0000
0000
0000
2300
0000
0001
0000
,
3000
0000
0000
0000
2000
3000
0000
0000
0020
0000
0000
0000
2030
0000
0001
0000
,
3000
0000
0000
0000
2000
3000
0000
0000
0200
0000
0000
0000
2300
0000
0001
0000
,
3000
0000
0000
0000
2000
3000
0000
0000
0020
0000
0000
0000
2000
0030
0000
0000
,
3002
0000
0000
0000
0020
0003
0000
0000
0230
0000
0000
0000
2300
0000
0001
0000
,
3000
0000
0000
0000
2000
3000
0000
0000
0020
0000
0000
0000
2030
0000
0001
0000
,
3000
0000
0000
0000
2000
3000
0000
0000
0200
0000
0000
0000
2300
0000
0001
0000
,
3000
0000
0000
0000
2000
3000
0000
0000
0020
0000
0000
0000
2000
0030
0000
0000
,
3002
0000
0000
0000
0020
0003
0000
0000
0230
0000
0000
0000
2300
0000
0001
0000
,
3000
0000
0000
0000
2000
3000
0000
0000
0020
0000
0000
0000
2030
0000
0001
0000
,
3000
0000
0000
0000
2000
3000
0000
0000
0200
0000
0000
0300
0200
0000
0000
0300
,
0200
0000
0000
0300
0200
0000
0000
0300
1000
0100
1000
0010
0100
0010
1000
0001
,
1000
0001
0100
0010
1000
0001
0010
0100
1000
0001
0100
0001
0010
0100
1000
0001
,
1000
0001
0010
0001
0100
0010
1000
0001
1000
0001
0010
0001
0100
0010
1000
0001
,
1000
0001
0100
0001
0010
0100
1000
0001
1000
0001
0100
0001
0010
0100
1000
0001
,
1000
0001
0010
0001
0100
0010
1000
0001
1000
0100
0010
0100
1000
0001
0100
0001
,
1000
0100
0010
0100
1000
0010
0100
0010
1000
0001
0010
0001
0100
0010
1000
0001
,
1000
0001
0100
0001
0010
0100
1000
0001
1000
0001
0100
0001
0010
0100
1000
0001
,
1000
0001
0010
0001
0100
0010
1000
0001
1000
0001
0010
0001
0100
0010
1000
0001
,
1000
0001
0100
0001
0010
0100
1000
0001
1000
0010
0100
0010
1000
0001
0010
0001
,
1000
0010
0100
0010
1000
0100
0010
0100
1000
0001
0100
0001
0010
0100
1000
0001
,
1000
0001
0010
0001
0100
0010
1000
0001
1000
0001
0010
0001
0100
0010
1000
0001
,
1000
0001
0100
0001
0010
0100
1000
0001
1000
0001
0100
0001
0010
0100
1000
0001
,
1000
0001
0010
0001
0100
0010
1000
0001
1000
0100
0010
0100
1000
0001
0100
0001
,
1000
0100
0010
0100
1000
0010
0100
0010
1000
0001
0010
0001
0100
0010
1000
0001
,
1000
0001
0100
0001
0010
0100
1000
0001
1000
0001
0100
0001
0010
0100
1000
0001
,
1000
0001
0010
0001
0100
0010
1000
0001
1000
0001
0010
0001
0100
0010
1000
0001
,
1000
0001
0100
0001
0010
0100
1000
0001
1000
0010
1000
0001
0010
0100
0010
0100
,
1000
0100
1000
0100
0010
0001
0010
0001
1000
0001
0010
0001
1000
0001
0010
0001
,
1000
0001
0010
0001
1000
0001
0010
0001
1000
0100
1000
0100
0010
0001
0010
0001
,
1000
0001
1000
0001
0100
0001
0100
0001
1000
0001
0100
0001
1000
0001
0100
0001
,
1000
0001
0100
0001
1000
0001
0100
0001
1000
0001
0010
0001
0010
0100
0010
0100
,
1000
0010
1000
0010
0100
0001
0100
0001
1000
0100
1000
0100
1000
0100
0010
0100
,
0010
0100
0010
0100
1000
0001
1000
0001
1000
0001
1000
0001
0100
0001
0100
0001
,
1000
0010
1000
0010
0100
0001
0100
0001
0010
0100
1000
0100
0010
0100
1000
0100
,
0010
0100
1000
0100
0010
0100
1000
0100
0010
0001
0100
0001
0100
0010
0100
0010
,
1000
0100
1000
0100
0010
0001
0010
0001
1000
0010
0100
0010
1000
0010
0100
0010
,
1000
0010
0100
0010
1000
0010
0100
0010
1000
0001
0010
0001
0010
0100
0010
0100
,
1000
0001
1000
0001
0100
0010
0100
0010
1000
0100
0010
0100
1000
0100
0010
0100
,
1000
0100
0010
0100
1000
0100
0010
0100
1000
0001
0100
0001
0100
0010
0100
0010
,
1000
0010
1000
0010
0100
0001
0100
0001
0010
0001
0010
0001
0010
0001
0010
0100
,
0010
0100
0010
0100
1000
0001
1000
0001
1000
0001
1000
0001
0100
0001
0100
0001
,
0100
0010
0100
0010
1000
0010
1000
0010
0100
0001
0100
0010
0100
0001
0100
0010
,
1000
0100
1000
0001
0100
0010
1000
0100
1000
0000
0000
0000
0011
0000
0000
0000
,
0110
0100
1100
0010
2002
0000
0000
0000
,
3003
0000
0000
0000
;

//---------------dance-single - I. Pyles----------------
#NOTES:
     dance-single:
     I. Pyles:
     Medium:
     11:
     0.703,1.000,0.063,0.905,0.391,1197.000,19.000,275.000,6.000,6.000:







0000
0000
0000
0000
,
0000
0000
0000
0000
,
0000
0000
0000
0000
,
0000
0000
0000
0000
,
2001
3200
0320
0230
,
2300
3020
0230
0320
,
2030
3200
0320
0230
,
2300
3020
0230
0320
,
2030
3002
0023
0230
,
2300
3002
0203
0320
,
2030
3002
0023
0230
,
2300
3002
0203
0320
,
1030
0100
0100
0010
0100
0100
1000
0001
,
0100
0010
0010
1000
0010
0010
0100
0001
,
1000
0010
0010
0100
0010
0010
1000
0001
,
0010
0100
0100
1000
0100
0100
0010
0001
,
1000
0100
0100
0010
0100
0100
1000
0001
,
0100
0010
0010
1000
0010
0010
0100
0001
,
1000
0010
0010
0100
0010
0010
1000
0001
,
0010
0100
0100
1000
0100
0010
0100
1000
,
0001
0100
0100
0010
0100
0100
0001
1000
,
0100
0010
0010
0001
0010
0100
0010
0001
,
1000
0100
0100
0010
0100
0100
1000
0001
,
0100
0010
0010
1000
0010
0100
0010
1000
,
0001
0010
0010
0100
0010
0010
0001
1000
,
0010
0100
0100
0001
0100
0010
0100
0001
,
1000
0010
0010
0100
0010
0010
1000
0001
,
0010
0100
0100
1000
0100
0010
0100
1000
,
2001
0000
0000
0000
,
0000
0000
0000
0000
,
3200
0000
0000
0000
,
0302
0000
0000
0000
,
2003
0000
0000
0000
,
0000
0000
0000
0000
,
3002
0000
0000
0000
,
0203
0000
0000
0000
,
2300
0000
0000
0000
,
0000
0000
0000
0000
,
3020
0000
0000
0000
,
0032
0000
0000
0000
,
2003
0000
0000
0000
,
0000
0000
0000
0000
,
3002
0000
0000
0000
,
0023
0000
0000
0000
,
1030
0010
0010
1000
0010
0010
1000
0010
,
1000
0010
0100
0100
0010
1000
0001
1000
,
0001
0010
0010
0001
0010
0010
0001
0010
,
0001
0010
0100
0100
0010
0001
0010
0001
,
1000
0100
0100
1000
0100
0100
1000
0100
,
1000
0100
0010
0010
0100
1000
0001
1000
,
0001
0100
0100
0001
0100
0100
0001
0100
,
0001
0100
0010
0010
0100
0001
1000
0001
,
0200
0000
0000
0000
0302
0000
1000
0000
0003
0000
0000
0000
0002
0003
0000
0000
,
0020
0000
0000
0000
0032
0000
1000
0000
0003
0000
0000
0000
0002
0003
0000
0000
,
0200
0000
0000
0000
0302
0000
1000
0000
0003
0000
0000
0000
0002
0003
0000
0000
,
0020
0000
0000
0000
0032
0000
1000
0000
0003
0000
0000
0000
0002
0003
0000
0000
,
0200
0000
0000
0000
0302
0000
1000
0000
0003
0000
0000
0000
0002
0003
0000
0000
,
0020
0000
0000
0000
0032
0000
1000
0000
0003
0000
0000
0000
0002
0003
0000
0000
,
0200
0000
0000
0000
0302
0000
1000
0000
0003
0000
0000
0000
0002
0003
0000
0000
,
0010
0001
0100
0010
1000
0001
0100
0010
1000
0001
1000
0100
1000
0001
1000
0010
,
0200
0000
0000
0000
0302
0000
1000
0000
0003
0000
0000
0000
0002
0003
0000
0000
,
0020
0000
0000
0000
0032
0000
1000
0000
0003
0000
0000
0000
0002
0003
0000
0000
,
0200
0000
0000
0000
0302
0000
1000
0000
0003
0000
0000
0000
0002
0003
0000
0000
,
0020
0000
0000
0000
0002
0030
0000
0000
2003
0000
0000
0000
0020
3000
0000
0000
,
0230
0000
0000
0000
0302
0000
1000
0000
0003
0000
0000
0000
0002
0003
0000
0000
,
0020
0000
0000
0000
0032
0000
1000
0000
0003
0000
0000
0000
0002
0003
0000
0000
,
0200
0000
0000
0000
0302
0000
1000
0000
0003
0000
0000
0000
0002
0003
0000
0000
,
0020
0000
0000
0000
0002
0030
0000
0000
2003
0000
0000
0000
0020
3000
0000
0000
,
0230
0000
0000
0000
0302
0000
1000
0000
0003
0000
0000
0000
0002
0003
0000
0000
,
0020
0000
0000
0000
0032
0000
1000
0000
0003
0000
0000
0000
0002
0003
0000
0000
,
0200
0000
0000
0000
0302
0000
1000
0000
0003
0000
0000
0000
0002
0003
0000
0000
,
0020
0000
0000
0000
0002
0030
0000
0000
2003
0000
0000
0000
0020
3000
0000
0000
,
0230
0000
0000
0000
0302
0000
1000
0000
0003
0000
0000
0000
0002
0003
0000
0000
,
0020
0000
0000
0000
0032
0000
1000
0000
0003
0000
0000
0000
0002
0003
0000
0000
,
0200
0000
0000
0000
0000
0000
0000
0300
,
0001
0000
0001
0000
1001
0000
1000
0001
0010
0100
0010
0000
0110
0000
0010
0100
,
1000
0000
0001
0000
0010
0000
0000
0000
0100
1000
0001
0000
0010
0000
0001
1000
,
0100
0000
0100
0000
0010
0000
0001
0010
0100
1000
0001
0000
0010
0000
0100
0010
,
0001
0000
1000
0000
0010
0000
0000
0000
0100
0001
1000
0000
0010
0000
1000
0001
,
0100
0000
0100
0000
0001
0000
1000
0100
0010
0001
1000
0100
0010
0100
1000
0001
,
1000
0000
0001
0000
0100
0000
0000
0000
0010
1000
0001
0000
0100
0000
0001
1000
,
0100
0000
0100
0000
0010
0000
0001
0100
0010
1000
0001
0000
0100
0000
0010
0100
,
0001
0000
1000
0000
0100
0000
0000
0000
0010
0001
1000
0000
0100
0000
1000
0001
,
0010
0000
0010
0000
0001
0000
1000
0010
0100
0001
1000
0010
0100
0010
1000
0001
,
1000
0000
0001
0000
0010
0000
0000
0000
0100
1000
0001
0000
0010
0000
0001
1000
,
0100
0000
0100
0000
0010
0000
0001
0010
0100
1000
0001
0000
0010
0000
0100
0010
,
0001
0000
1000
0000
0010
0000
0000
0000
0100
0001
1000
0000
0010
0000
1000
0001
,
0100
0000
0100
0000
0001
0000
1000
0100
0010
0001
1000
0100
0010
0100
1000
0001
,
1000
0000
0001
0000
0100
0000
0000
0000
0010
1000
0001
0000
0100
0000
0001
1000
,
0100
0000
0100
0000
0010
0000
0001
0100
0010
1000
0001
0000
0100
0000
0010
0100
,
0001
0000
1000
0000
0100
0000
0000
0000
0010
0001
1000
0000
0100
0000
1000
0001
,
0100
0000
0100
0000
0001
0000
1000
0100
0010
0001
0010
0100
1000
0010
1000
0001
,
0200
0000
0000
0000
0302
0000
1000
0000
0003
0000
0000
0000
0002
0003
0000
0000
,
0020
0000
0000
0000
0032
0000
1000
0000
0003
0000
0000
0000
0002
0003
0000
0000
,
0200
0000
0000
0000
0302
0000
1000
0000
0003
0000
0000
0000
0002
0003
0000
0000
,
0020
0000
0000
0000
0002
0030
0000
0000
2003
0000
0000
0000
0020
3000
0000
0000
,
0230
0000
0000
0000
0302
0000
1000
0000
0003
0000
0000
0000
0002
0003
0000
0000
,
0020
0000
0000
0000
0032
0000
1000
0000
0003
0000
0000
0000
0002
0003
0000
0000
,
0200
0000
0000
0000
0302
0000
1000
0000
0003
0000
0000
0000
0002
0003
0000
0000
,
0020
0000
0000
0000
0002
0030
0000
0000
2003
0000
0000
0000
0020
3000
0000
0000
,
0230
0000
0000
0000
0302
0000
1000
0000
0003
0000
0000
0000
0002
0003
0000
0000
,
0020
0000
0000
0000
0032
0000
1000
0000
0003
0000
0000
0000
0002
0003
0000
0000
,
0200
0000
0000
0000
0302
0000
1000
0000
0003
0000
0000
0000
0002
0003
0000
0000
,
0020
0000
0000
0000
0002
0030
0000
0000
2003
0000
0000
0000
0020
3000
0000
0000
,
0230
0000
0000
0000
0302
0000
1000
0000
0003
0000
0000
0000
0002
0003
0000
0000
,
0020
0000
0000
0000
0032
0000
1000
0000
0003
0000
0000
0000
0002
0003
0000
0000
,
0200
0000
0000
0000
0000
0000
0000
0300
,
0001
0000
0001
0000
1001
0000
0001
0010
0100
0010
0100
1000
0010
0100
0001
1000
,
0001
0000
1000
0000
0100
0000
0000
0000
0010
0001
1000
0000
0100
0000
1000
0001
,
0010
0000
0010
0000
0100
0000
1000
0100
0010
0001
1000
0000
0100
0000
0010
0100
,
1000
0000
0001
0000
0100
0000
0000
0000
0010
1000
0001
0000
0100
0000
0001
1000
,
0010
0000
0010
0000
1000
0000
0001
0010
0100
1000
0001
0010
0100
0010
0001
1000
,
0001
0000
1000
0000
0010
0000
0000
0000
0100
0001
1000
0000
0010
0000
1000
0001
,
0010
0000
0010
0000
0100
0000
1000
0010
0100
0001
1000
0000
0010
0000
0100
0010
,
1000
0000
0001
0000
0010
0000
0000
0000
0100
1000
0001
0000
0010
0000
0001
1000
,
0100
0000
0100
0000
1000
0000
0001
0100
0010
1000
0001
0100
0010
0100
0001
1000
,
0001
0000
1000
0000
0100
0000
0010
0001
0010
0001
1000
0000
0100
0000
1000
0001
,
0010
0000
0001
0000
1001
0000
1000
0100
0010
0001
1000
0000
0100
0000
0010
0100
,
1000
0000
0001
0000
0100
0000
0010
1000
0010
1000
0001
0000
0100
0000
0001
1000
,
0010
0000
1000
0000
1001
0000
0001
0010
0100
1000
0001
0010
0100
0010
0001
1000
,
0001
0000
1000
0000
0010
0000
0100
0001
0100
0001
1000
0000
0010
0000
1000
0001
,
0010
0000
0001
0000
1001
0000
1000
0010
0100
0001
1000
0000
0010
0000
0100
0010
,
1000
0000
0001
0000
0010
0000
0100
1000
0100
1000
0001
0000
0010
0000
0001
1000
,
0100
0000
0100
0010
0001
1000
0010
0100
0010
1000
0100
0010
0001
1000
0010
0100
,
0002
0023
0230
0320
,
0032
0203
0320
0230
,
0302
0023
0230
0320
,
0032
0203
0320
0230
,
2302
0003
3002
0000
0023
0000
2230
3000
,
2302
0003
3002
0000
0203
0000
0320
0000
,
2032
0003
3002
0000
0023
0000
2230
3000
,
2302
3000
2003
0000
3020
0000
0230
0000
,
0301
1000
0001
1000
0100
0010
0001
0010
0001
0010
0100
1000
0010
1000
0001
1000
,
0100
0010
0100
0010
0001
1000
0100
1000
0100
1000
0010
1000
0100
0010
0001
0010
,
0100
1000
0001
1000
0010
0100
0001
0100
0001
0100
0010
1000
0100
1000
0001
1000
,
0010
0100
0010
0100
0001
1000
0010
1000
0010
1000
0100
1000
0010
0100
0001
0100
,
0010
1000
0001
1000
0100
0010
0001
0010
0001
0010
0100
1000
0010
1000
0001
1000
,
0100
0010
0100
0010
0001
1000
0100
1000
0100
1000
0010
1000
0100
0010
0001
0010
,
0100
1000
0001
1000
0010
0100
0001
0100
0001
0100
0010
1000
0100
1000
0001
1000
,
2200
00MM
0000
00MM
0000
00MM
3300
0000
0200
0000
0000
0000
2300
0000
0001
0000
,
3000
0000
0000
0000
2000
3000
0000
0000
0020
0000
0000
0000
2030
0000
0001
0000
,
3000
0000
0000
0000
2000
3000
0000
0000
0200
0000
0000
0000
2300
0000
0001
0000
,
3000
0000
0000
0000
2000
3000
0000
0000
0020
0000
0000
0000
2000
0030
0000
0000
,
3002
0000
0000
0000
0020
0003
0000
0000
0230
0000
0000
0000
2300
0000
0001
0000
,
3000
0000
0000
0000
2000
3000
0000
0000
0020
0000
0000
0000
2030
0000
0001
0000
,
3000
0000
0000
0000
2000
3000
0000
0000
0200
0000
0000
0000
2300
0000
0001
0000
,
3000
0000
0000
0000
2000
3000
0000
0000
0020
0000
0000
0000
2000
0030
0000
0000
,
3002
0000
0000
0000
0020
0003
0000
0000
0230
0000
0000
0000
2300
0000
0001
0000
,
3000
0000
0000
0000
2000
3000
0000
0000
0020
0000
0000
0000
2030
0000
0001
0000
,
3000
0000
0000
0000
2000
3000
0000
0000
0200
0000
0000
0000
2300
0000
0001
0000
,
3000
0000
0000
0000
2000
3000
0000
0000
0020
0000
0000
0000
2000
0030
0000
0000
,
3002
0000
0000
0000
0020
0003
0000
0000
0230
0000
0000
0000
2300
0000
0001
0000
,
3000
0000
0000
0000
2000
3000
0000
0000
0020
0000
0000
0000
2030
0000
0001
0000
,
3000
0000
0000
0000
2000
3000
0000
0000
0200
0000
0000
0300
0200
0000
0000
0300
,
0200
0000
0000
0300
0200
0000
0000
0300
1000
0100
1000
0010
0100
0010
1000
0001
,
1000
0001
0100
0010
1000
0001
0010
0100
1000
0000
0001
0000
0010
0000
0000
0000
,
0100
1000
0001
0000
0010
0000
0001
1000
0100
0000
0100
0000
0010
0000
0001
0010
,
0100
1000
0001
0000
0010
0000
0100
0010
0001
0000
1000
0000
0010
0000
0000
0000
,
0100
0001
1000
0000
0010
0000
1000
0001
0100
0000
0100
0000
0001
0000
1000
0100
,
0010
0001
1000
0100
0010
0100
1000
0001
1000
0000
0001
0000
0100
0000
0000
0000
,
0010
1000
0001
0000
0100
0000
0001
1000
0100
0000
0100
0000
0010
0000
0001
0100
,
0010
1000
0001
0000
0100
0000
0010
0100
0001
0000
1000
0000
0100
0000
0000
0000
,
0010
0001
1000
0000
0100
0000
1000
0001
0010
0000
0010
0000
0001
0000
1000
0010
,
0100
0001
1000
0010
0100
0010
1000
0001
1000
0000
0001
0000
0010
0000
0000
0000
,
0100
1000
0001
0000
0010
0000
0001
1000
0100
0000
0100
0000
0010
0000
0001
0010
,
0100
1000
0001
0000
0010
0000
0100
0010
0001
0000
1000
0000
0010
0000
0000
0000
,
0100
0001
1000
0000
0010
0000
1000
0001
0100
0000
0100
0000
0001
0000
1000
0100
,
0010
0001
1000
0100
0010
0100
1000
0001
1000
0000
0001
0000
0100
0000
0000
0000
,
0010
1000
0001
0000
0100
0000
0001
1000
0100
0000
0100
0000
0010
0000
0001
0100
,
0010
1000
0001
0000
0100
0000
0010
0100
0001
0000
1000
0000
0100
0000
0000
0000
,
0010
0001
1000
0000
0100
0000
1000
0001
0100
0000
0100
0000
0001
0000
1000
0100
,
0010
0001
0010
0100
1000
0010
1000
0001
0040
0000
0000
0000
0000
0000
0000
0000
,
0000
0000
0030
0002
,
0203
0320
4030
0000
,
0000
0000
3000
0200
,
0320
0000
0230
0000
2300
0000
0000
3002
,
0000
0203
0000
0320
,
2030
3002
0043
0000
,
0000
0000
0030
0002
,
2003
3200
0340
0000
,
0000
0000
0030
0002
,
0203
0320
4030
0000
,
0000
0000
3000
0200
,
0320
0000
0230
0000
2300
0000
0000
3002
,
0000
0203
0000
0320
,
2030
0000
0000
0000
3002
0000
0000
0000
0043
0000
0000
0000
0030
0000
0100
1000
,
0010
0100
0001
1000
0100
1000
0010
0100
0001
0000
0000
0000
0011
0000
0000
0000
,
0110
0100
1100
0010
2002
0000
0000
0000
,
3003
0000
0000
0000
;

//---------------dance-single - I. Pyles----------------
#NOTES:
     dance-single:
     I. Pyles:
     Easy:
     9:
     0.622,1.000,0.122,0.924,0.184,999.000,37.000,281.000,6.000,6.000:





0000
0000
0000
0000
,
0000
0000
0000
0000
,
0000
0000
0000
0000
,
0000
0000
0000
0000
,
2001
3200
0320
0230
,
2300
3020
0230
0320
,
2030
3200
0320
0230
,
2300
3020
0230
0320
,
2030
3002
0023
0230
,
2300
3002
0203
0320
,
2030
3002
0023
0230
,
2300
3002
0203
0320
,
1030
0100
0100
0010
0100
0100
1000
0001
,
0100
0010
0010
1000
0010
0010
0100
0001
,
1000
0010
0010
0100
0010
0010
1000
0001
,
0010
0100
0100
1000
0100
0100
0010
0001
,
1000
0100
0100
0010
0100
0100
1000
0001
,
0100
0010
0010
1000
0010
0010
0100
0001
,
1000
0010
0010
0100
0010
0010
1000
0001
,
0010
0100
0100
1000
0100
0010
0100
1000
,
0001
0100
0100
0010
0100
0100
0001
1000
,
0100
0010
0010
0001
0010
0100
0010
0001
,
1000
0100
0100
0010
0100
0100
1000
0001
,
0100
0010
0010
1000
0010
0100
0010
1000
,
0001
0010
0010
0100
0010
0010
0001
1000
,
0010
0100
0100
0001
0100
0010
0100
0001
,
1000
0010
0010
0100
0010
0010
1000
0001
,
0010
0100
0100
1000
0100
0010
0100
1000
,
2001
0000
0000
0000
,
0000
0000
0000
0000
,
3200
0000
0000
0000
,
0302
0000
0000
0000
,
2003
0000
0000
0000
,
0000
0000
0000
0000
,
3002
0000
0000
0000
,
0203
0000
0000
0000
,
2300
0000
0000
0000
,
0000
0000
0000
0000
,
3020
0000
0000
0000
,
0032
0000
0000
0000
,
2003
0000
0000
0000
,
0000
0000
0000
0000
,
3002
0000
0000
0000
,
0023
0000
0000
0000
,
1030
0010
0010
1000
0010
0010
1000
0010
,
1000
0010
0100
0100
0010
1000
0001
1000
,
0001
0010
0010
0001
0010
0010
0001
0010
,
0001
0010
0100
0100
0010
0001
0010
0001
,
1000
0100
0100
1000
0100
0100
1000
0100
,
1000
0100
0010
0010
0100
1000
0001
1000
,
0001
0100
0100
0001
0100
0100
0001
0100
,
0001
0100
0010
0010
0100
0001
1000
0001
,
0200
0000
0000
0000
0302
0000
1000
0000
0003
0000
0000
0000
0002
0003
0000
0000
,
0020
0000
0000
0000
0032
0000
1000
0000
0003
0000
0000
0000
0002
0003
0000
0000
,
0200
0000
0000
0000
0302
0000
1000
0000
0003
0000
0000
0000
0002
0003
0000
0000
,
0020
0000
0000
0000
0032
0000
1000
0000
0003
0000
0000
0000
0002
0003
0000
0000
,
0200
0000
0000
0000
0302
0000
1000
0000
0003
0000
0000
0000
0002
0003
0000
0000
,
0020
0000
0000
0000
0032
0000
1000
0000
0003
0000
0000
0000
0002
0003
0000
0000
,
0200
0000
0000
0000
0302
0000
1000
0000
0003
0000
0000
0000
0002
0003
0000
0000
,
0020
0000
0000
0000
0032
0000
1000
0000
0003
0000
0000
0000
0002
0003
0000
0000
,
0200
0000
0000
0000
0302
0000
1000
0000
0003
0000
0000
0000
0002
0003
0000
0000
,
0020
0000
0000
0000
0032
0000
1000
0000
0003
0000
0000
0000
0002
0003
0000
0000
,
0200
0000
0000
0000
0302
0000
1000
0000
0003
0000
0000
0000
0002
0003
0000
0000
,
0020
0000
0000
0000
0002
0030
0000
0000
2003
0000
0000
0000
0020
3000
0000
0000
,
0230
0000
0000
0000
0302
0000
1000
0000
0003
0000
0000
0000
0002
0003
0000
0000
,
0020
0000
0000
0000
0032
0000
1000
0000
0003
0000
0000
0000
0002
0003
0000
0000
,
0200
0000
0000
0000
0302
0000
1000
0000
0003
0000
0000
0000
0002
0003
0000
0000
,
0020
0000
0000
0000
0002
0030
0000
0000
2003
0000
0000
0000
0020
3000
0000
0000
,
0230
0000
0000
0000
0302
0000
1000
0000
0003
0000
0000
0000
0002
0003
0000
0000
,
0020
0000
0000
0000
0032
0000
1000
0000
0003
0000
0000
0000
0002
0003
0000
0000
,
0200
0000
0000
0000
0302
0000
1000
0000
0003
0000
0000
0000
0002
0003
0000
0000
,
0020
0000
0000
0000
0002
0030
0000
0000
2003
0000
0000
0000
0020
3000
0000
0000
,
0230
0000
0000
0000
0302
0000
1000
0000
0003
0000
0000
0000
0002
0003
0000
0000
,
0020
0000
0000
0000
0032
0000
1000
0000
0003
0000
0000
0000
0002
0003
0000
0000
,
0200
0000
0000
0000
0000
0000
0000
0300
,
0001
0000
0001
0000
1001
0000
1000
0001
0100
0000
0010
0000
0010
0000
1000
0001
,
1000
0000
0001
0000
0010
0000
0000
0000
0100
1000
0001
0000
0010
0000
0100
0000
,
0100
0000
0000
0000
1001
0000
0000
0000
0001
0100
0001
0000
1000
0000
0000
0000
,
0001
0000
1000
0000
0010
0000
0000
0000
0100
0001
1000
0000
0010
0000
0100
0000
,
0100
0000
0000
0000
1001
0000
0000
0000
0001
0100
0001
0000
1000
0000
0010
0000
,
1000
0000
0001
0000
0100
0000
0000
0000
0010
1000
0001
0000
0100
0000
0010
0000
,
0010
0000
0000
0000
1001
0000
0000
0000
0001
0010
0001
0000
1000
0000
0000
0000
,
0001
0000
1000
0000
0100
0000
0000
0000
0010
0001
1000
0000
0100
0000
0010
0000
,
0010
0000
0000
0000
1001
0000
0000
0000
0001
0100
0001
0000
1000
0000
0100
0000
,
1000
0000
0001
0000
0100
0000
0000
0000
0010
1000
0001
0000
0100
0000
0010
0000
,
0010
0000
0000
0000
1001
0000
0000
0000
0001
0010
0001
0000
1000
0000
0000
0000
,
0001
0000
1000
0000
0100
0000
0000
0000
0010
0001
1000
0000
0100
0000
0010
0000
,
0010
0000
0000
0000
1001
0000
0000
0000
0001
0010
0001
0000
1000
0000
0100
0000
,
1000
0000
0001
0000
0010
0000
0000
0000
0100
1000
0001
0000
0010
0000
0100
0000
,
0100
0000
0000
0000
1001
0000
0000
0000
0001
0100
0001
0000
1000
0000
0000
0000
,
0001
0000
1000
0000
0010
0000
0000
0000
0100
0001
1000
0000
0010
0000
0100
0000
,
0100
0000
0000
0000
1001
0000
0000
0000
0001
0100
0001
0000
1000
0000
0010
0000
,
0200
0000
0000
0000
0302
0000
1000
0000
0003
0000
0000
0000
0002
0003
0000
0000
,
0020
0000
0000
0000
0032
0000
1000
0000
0003
0000
0000
0000
0002
0003
0000
0000
,
0200
0000
0000
0000
0302
0000
1000
0000
0003
0000
0000
0000
0002
0003
0000
0000
,
0020
0000
0000
0000
0002
0030
0000
0000
2003
0000
0000
0000
0020
3000
0000
0000
,
0230
0000
0000
0000
0302
0000
1000
0000
0003
0000
0000
0000
0002
0003
0000
0000
,
0020
0000
0000
0000
0032
0000
1000
0000
0003
0000
0000
0000
0002
0003
0000
0000
,
0200
0000
0000
0000
0302
0000
1000
0000
0003
0000
0000
0000
0002
0003
0000
0000
,
0020
0000
0000
0000
0002
0030
0000
0000
2003
0000
0000
0000
0020
3000
0000
0000
,
0230
0000
0000
0000
0302
0000
1000
0000
0003
0000
0000
0000
0002
0003
0000
0000
,
0020
0000
0000
0000
0032
0000
1000
0000
0003
0000
0000
0000
0002
0003
0000
0000
,
0200
0000
0000
0000
0302
0000
1000
0000
0003
0000
0000
0000
0002
0003
0000
0000
,
0020
0000
0000
0000
0002
0030
0000
0000
2003
0000
0000
0000
0020
3000
0000
0000
,
0230
0000
0000
0000
0302
0000
1000
0000
0003
0000
0000
0000
0002
0003
0000
0000
,
0020
0000
0000
0000
0032
0000
1000
0000
0003
0000
0000
0000
0002
0003
0000
0000
,
0200
0000
0000
0000
0000
0000
0000
0300
,
0001
0000
0001
0000
1001
0000
1000
0001
0100
0000
0010
0000
0010
0000
1000
0001
,
1000
0000
0001
0000
0010
0000
0000
0000
0100
1000
0001
0000
0010
0000
0100
0000
,
0100
0000
0000
0000
1001
0000
0000
0000
0001
0100
0001
0000
1000
0000
0000
0000
,
0001
0000
1000
0000
0010
0000
0000
0000
0100
0001
1000
0000
0010
0000
0100
0000
,
0100
0000
0000
0000
1001
0000
0000
0000
0001
0100
0001
0000
1000
0000
0010
0000
,
1000
0000
0001
0000
0100
0000
0000
0000
0010
1000
0001
0000
0100
0000
0010
0000
,
0010
0000
0000
0000
1001
0000
0000
0000
0001
0010
0001
0000
1000
0000
0000
0000
,
0001
0000
1000
0000
0100
0000
0000
0000
0010
0001
1000
0000
0100
0000
0010
0000
,
0010
0000
0000
0000
1001
0000
0000
0000
0001
0100
0001
0000
1000
0000
0100
0000
,
1000
0000
0001
0000
0100
0000
0000
0000
0010
1000
0001
0000
0100
0000
0010
0000
,
0010
0000
0000
0000
1001
0000
0000
0000
0001
0010
0001
0000
1000
0000
0000
0000
,
0001
0000
1000
0000
0100
0000
0000
0000
0010
0001
1000
0000
0100
0000
0010
0000
,
0010
0000
0000
0000
1001
0000
0000
0000
0001
0010
0001
0000
1000
0000
0100
0000
,
1000
0000
0001
0000
0010
0000
0000
0000
0100
1000
0001
0000
0010
0000
0100
0000
,
0100
0000
0000
0000
1001
0000
0000
0000
0001
0100
0001
0000
1000
0000
0000
0000
,
0001
0000
1000
0000
0010
0000
0000
0000
0100
0001
1000
0000
0010
0000
0000
0000
,
0100
0000
0100
0001
1000
0000
0000
0000
0100
0000
0010
0000
0010
0000
0000
0000
,
0002
0023
0230
0320
,
0032
0203
0320
0230
,
0302
0023
0230
0320
,
0032
0203
0320
0230
,
2302
0003
3002
0000
0023
0000
2230
3000
,
2302
0003
3002
0000
0203
0000
0320
0000
,
2032
0003
3002
0000
0023
0000
2230
3000
,
2302
3000
2003
0000
3020
0000
0230
0000
,
0301
1000
0001
1000
0100
0010
0001
0010
0001
0010
0100
1000
0010
1000
0001
1000
,
0100
0010
0100
0010
0001
1000
0100
1000
0100
1000
0010
1000
0100
0010
0001
0010
,
0100
1000
0001
1000
0010
0100
0001
0100
0001
0100
0010
1000
0100
1000
0001
1000
,
0010
0100
0010
0100
0001
1000
0010
1000
0010
1000
0100
1000
0010
0100
0001
0100
,
0010
1000
0001
1000
0100
0010
0001
0010
0001
0010
0100
1000
0010
1000
0001
1000
,
0100
0010
0100
0010
0001
1000
0100
1000
0100
1000
0010
1000
0100
0010
0001
0010
,
0100
1000
0001
1000
0010
0100
0001
0100
0001
0100
0010
1000
0100
1000
0001
1000
,
2200
00MM
0000
00MM
0000
00MM
3300
0000
0200
0000
0000
0000
2300
0000
0001
0000
,
3000
0000
0000
0000
2000
3000
0000
0000
0020
0000
0000
0000
2030
0000
0001
0000
,
3000
0000
0000
0000
2000
3000
0000
0000
0200
0000
0000
0000
2300
0000
0001
0000
,
3000
0000
0000
0000
2000
3000
0000
0000
0020
0000
0000
0000
2000
0030
0000
0000
,
3002
0000
0000
0000
0020
0003
0000
0000
0230
0000
0000
0000
2300
0000
0001
0000
,
3000
0000
0000
0000
2000
3000
0000
0000
0020
0000
0000
0000
2030
0000
0001
0000
,
3000
0000
0000
0000
2000
3000
0000
0000
0200
0000
0000
0000
2300
0000
0001
0000
,
3000
0000
0000
0000
2000
3000
0000
0000
0020
0000
0000
0000
2000
0030
0000
0000
,
3002
0000
0000
0000
0020
0003
0000
0000
0230
0000
0000
0000
2300
0000
0001
0000
,
3000
0000
0000
0000
2000
3000
0000
0000
0020
0000
0000
0000
2030
0000
0001
0000
,
3000
0000
0000
0000
2000
3000
0000
0000
0200
0000
0000
0000
2300
0000
0001
0000
,
3000
0000
0000
0000
2000
3000
0000
0000
0020
0000
0000
0000
2000
0030
0000
0000
,
3002
0000
0000
0000
0020
0003
0000
0000
0230
0000
0000
0000
2300
0000
0001
0000
,
3000
0000
0000
0000
2000
3000
0000
0000
0020
0000
0000
0000
2030
0000
0001
0000
,
3000
0000
0000
0000
2000
3000
0000
0000
0200
0000
0000
0300
0200
0000
0000
0300
,
0200
0000
0000
0300
0200
0000
0000
0300
1000
0000
0001
0100
0001
0000
1000
0100
,
1000
0001
0001
0000
1000
0001
0010
0000
,
0100
1000
0001
0000
0010
0000
0100
0000
0100
0000
0000
0000
1001
0000
0000
0000
,
0001
0100
0001
0000
1000
0000
0000
0000
0001
0000
1000
0000
0010
0000
0000
0000
,
0100
0001
1000
0000
0010
0000
0100
0000
0100
0000
0000
0000
1001
0000
0000
0000
,
0001
0100
0001
0000
1000
0000
0010
0000
1000
0000
0001
0000
0100
0000
0000
0000
,
0010
1000
0001
0000
0100
0000
0010
0000
0010
0000
0000
0000
1001
0000
0000
0000
,
0001
0010
0001
0000
1000
0000
0000
0000
0001
0000
1000
0000
0100
0000
0000
0000
,
0010
0001
1000
0000
0100
0000
0010
0000
0010
0000
0000
0000
1001
0000
0000
0000
,
0001
0100
0001
0000
1000
0000
0100
0000
1000
0000
0001
0000
0100
0000
0000
0000
,
0010
1000
0001
0000
0100
0000
0010
0000
0010
0000
0000
0000
1001
0000
0000
0000
,
0001
0010
0001
0000
1000
0000
0000
0000
0001
0000
1000
0000
0100
0000
0000
0000
,
0010
0001
1000
0000
0100
0000
0010
0000
0010
0000
0000
0000
1001
0000
0000
0000
,
0001
0010
0001
0000
1000
0000
0100
0000
1000
0000
0001
0000
0010
0000
0000
0000
,
0100
1000
0001
0000
0010
0000
0100
0000
0100
0000
0000
0000
1001
0000
0000
0000
,
0001
0100
0001
0000
1000
0000
0000
0000
0001
0000
1000
0000
0010
0000
0000
0000
,
0100
0001
1000
0000
0010
0000
0000
0000
0100
0000
0100
0000
0002
0000
0000
0000
,
2003
3200
0340
0000
,
0000
0000
0030
0002
,
0203
0320
4030
0000
,
0000
0000
3000
0200
,
0320
0000
0230
0000
2300
0000
0000
3002
,
0000
0203
0000
0320
,
2030
3002
0043
0000
,
0000
0000
0030
0002
,
2003
3200
0340
0000
,
0000
0000
0030
0002
,
0203
0320
4030
0000
,
0000
0000
3000
0200
,
0320
0000
0230
0000
2300
0000
0000
3002
,
0000
0203
0000
0320
,
2030
0000
3002
0000
0043
0000
0030
0001
,
1000
0001
0010
0001
1000
0000
1100
0000
,
0110
0100
1100
0010
2002
0000
0000
0000
,
3003
0000
0000
0000
;

//---------------dance-single - I. Pyles----------------
#NOTES:
     dance-single:
     I. Pyles:
     Beginner:
     1:
     0.025,0.093,0.000,0.000,0.000,54.000,0.000,0.000,0.000,0.000:

0000
0000
0000
0000
,
0000
0000
0000
0000
,
0000
0000
0000
0000
,
0000
0000
0000
0000
,
1000
0000
0000
0000
,
0000
0000
0000
0000
,
0010
0000
0000
0000
,
0000
0000
0000
0000
,
0010
0000
0000
0000
,
0000
0000
0000
0000
,
0010
0000
0000
0000
,
0000
0000
0000
0000
,
0010
0000
0000
0000
,
0000
0000
0000
0000
,
0000
0000
0000
0000
,
0000
0000
0000
0000
,
1000
0000
0000
0000
,
0000
0000
0000
0000
,
0000
0000
0000
0000
,
0000
0000
0000
0000
,
0100
0000
0000
0000
,
0000
0000
0000
0000
,
0000
0000
0000
0000
,
0000
0000
0000
0000
,
0010
0000
0000
0000
,
0000
0000
0000
0000
,
0000
0000
0000
0000
,
0000
0000
0000
0000
,
0001
0000
0000
0000
,
0000
0000
0000
0000
,
0000
0000
0000
0000
,
0000
0000
0000
0000
,
1000
0000
0000
0000
,
0000
0000
0000
0000
,
0000
0000
0000
0000
,
0000
0000
0000
0000
,
0010
0000
0000
0000
,
0000
0000
0000
0000
,
0000
0000
0000
0000
,
0000
0000
0000
0000
,
0001
0000
0000
0000
,
0000
0000
0000
0000
,
0000
0000
0000
0000
,
0000
0000
0000
0000
,
0001
0000
0000
0000
,
0000
0000
0000
0000
,
0000
0000
0000
0000
,
0000
0000
0000
0000
,
0010
0000
0000
0000
,
0000
0000
0000
0000
,
0000
0000
0000
0000
,
0000
0000
0000
0000
,
1000
0000
0000
0000
,
0000
0000
0000
0000
,
0000
0000
0000
0000
,
0000
0000
0000
0000
,
0100
0000
0000
0000
,
0000
0000
0000
0000
,
0000
0000
0000
0000
,
0000
0000
0000
0000
,
0100
0000
0000
0000
,
0000
0000
0000
0000
,
0000
0000
0000
0000
,
0000
0000
0000
0000
,
0100
0000
0000
0000
,
0000
0000
0000
0000
,
0000
0000
0000
0000
,
0000
0000
0000
0000
,
1000
0000
0000
0000
,
0000
0000
0000
0000
,
0000
0000
0000
0000
,
0000
0000
0000
0000
,
1000
0000
0000
0000
,
0000
0000
0000
0000
,
0000
0000
0000
0000
,
0000
0000
0000
0000
,
0010
0000
0000
0000
,
0000
0000
0000
0000
,
0000
0000
0000
0000
,
0000
0000
0000
0000
,
1000
0000
0000
0000
,
0000
0000
0000
0000
,
0000
0000
0000
0000
,
0000
0000
0000
0000
,
1000
0000
0000
0000
,
0000
0000
0000
0000
,
0000
0000
0000
0000
,
0000
0000
0000
0000
,
0010
0000
0000
0000
,
0000
0000
0000
0000
,
0000
0000
0000
0000
,
0000
0000
0000
0000
,
0010
0000
0000
0000
,
0000
0000
0000
0000
,
0000
0000
0000
0000
,
0000
0000
0000
0000
,
1000
0000
0000
0000
,
0000
0000
0000
0000
,
0000
0000
0000
0000
,
0000
0000
0000
0000
,
0100
0000
0000
0000
,
0000
0000
0000
0000
,
0000
0000
0000
0000
,
0000
0000
0000
0000
,
0010
0000
0000
0000
,
0000
0000
0000
0000
,
0000
0000
0000
0000
,
0000
0000
0000
0000
,
0010
0000
0000
0000
,
0000
0000
0000
0000
,
0000
0000
0000
0000
,
0000
0000
0000
0000
,
0100
0000
0000
0000
,
0000
0000
0000
0000
,
0000
0000
0000
0000
,
0000
0000
0000
0000
,
0010
0000
0000
0000
,
0000
0000
0000
0000
,
0000
0000
0000
0000
,
0000
0000
0000
0000
,
0010
0000
0000
0000
,
0000
0000
0000
0000
,
0000
0000
0000
0000
,
0000
0000
0000
0000
,
0010
0000
0000
0000
,
0000
0000
0000
0000
,
0100
0000
0000
0000
,
0000
0000
0000
0000
,
0100
0000
0000
0000
,
0000
0000
0000
0000
,
0010
0000
0000
0000
,
0000
0000
0000
0000
,
0010
0000
0000
0000
,
0000
0000
0000
0000
,
1000
0000
0000
0000
,
0000
0000
0000
0000
,
1000
0000
0000
0000
,
0000
0000
0000
0000
,
0001
0000
0000
0000
,
0100
0000
0100
0000
,
0000
0000
0000
0000
,
0000
0000
0000
0000
,
0000
0000
0000
0000
,
0000
0000
0010
0000
,
0000
0000
0000
0000
,
0000
0000
0000
0000
,
0000
0000
0000
0000
,
0000
0000
0100
0000
,
0000
0000
0000
0000
,
0000
0000
0000
0000
,
0000
0000
0000
0000
,
0000
0000
0010
0000
,
0000
0000
0000
0000
,
0000
0000
0000
0000
,
0000
0000
0000
0000
,
0000
0000
0100
0000
,
0000
0000
0000
0000
,
0000
0000
0000
0000
,
0000
0000
0000
0000
,
0000
0000
0100
0000
,
0000
0000
0000
0000
,
0000
0000
0000
0000
,
0000
0000
0000
0000
,
0000
0000
1000
0000
,
0000
0000
0000
0000
,
0000
0000
0000
0000
,
0000
0000
0000
0000
,
0000
0000
0100
0000
,
0000
0000
0000
0000
,
0000
0000
0000
0000
,
0000
0000
0000
0000
,
0000
0000
0100
0000
,
0000
0000
0000
0000
,
0000
0000
0000
0000
,
0000
0000
0000
0000
,
0000
0000
0010
0000
,
0000
0000
0000
0000
,
0000
0000
0000
0000
,
0000
0000
0000
0000
,
0000
0000
0010
0000
,
0000
0000
0000
0000
,
0000
0000
0000
0000
,
0000
0000
0000
0000
,
0000
0000
0100
0000
,
0000
0000
0000
0000
,
0000
0000
0000
0000
,
0000
0000
0000
0000
,
0000
0000
0100
0000
;
