#TITLE:Blossom;
#SUBTITLE:;
#ARTIST:leonid;
#TITLETRANSLIT:;
#SUBTITLETRANSLIT:;
#ARTISTTRANSLIT:;
#CREDIT:leonid;
#BANNER:bn.jpg;
#BACKGROUND:bg.jpg;
#LYRICSPATH:;
#CDTITLE:!cdtitle.jpg;
#MUSIC:leonid_blossom.mp3;
#OFFSET:-0.053;
#SAMPLESTART:32.680;
#SAMPLELENGTH:13.000;
#SELECTABLE:YES;
#BPMS:0.000=235.000,56.000=117.500,60.000=235.000,252.000=117.500,256.000=235.000;
#STOPS:;
#BGCHANGES:;
// cache tags:
#FIRSTBEAT:0.000;
#LASTBEAT:336.000;
#SONGFILENAME:Songs/Hard Songs Megapack Volume 9/Blossom/blossom.sm;
#HASMUSIC:1;
#HASBANNER:1;
#MUSICLENGTH:87.931;
// end cache tags

//---------------dance-single - yayyy----------------
#NOTES:
     dance-single:
     yayyy:
     Edit:
     25:
     1.000,1.000,1.000,0.716,1.000,914.000,302.000,63.000,24.000,37.000:
0001
0001
0001
0001
0010
0010
0100
0100
0100
0001
0100
0100
0001
0001
0100
0100
,
1000
1000
0001
1000
0001
1000
1000
1000
0011
0000
0100
0000
0100
0000
0100
0000
,
2020
3000
0000
0000
0100
0000
0000
0000
1000
0000
0000
0000
0100
0000
0000
0000
1000
0000
0000
0000
0100
0000
0000
0000
1000
0000
0000
0000
0100
0000
0000
0000
1000
0000
0000
0000
0100
0000
0000
0000
1000
0000
0000
0000
0100
0000
0000
0000
1000
0000
0000
0000
0100
0000
0000
0000
1000
0000
0000
0000
0100
0000
0000
0000
,
1000
0100
1000
0100
1000
0100
1000
0100
1000
0100
1000
0100
1000
0100
1000
0100
,
0232
0003
0000
0000
0010
0000
0000
0000
0001
0000
0000
0000
0010
0000
0000
0000
0001
0000
0000
0000
0010
0000
0000
0000
0001
0000
0000
0000
0010
0000
0000
0000
0001
0000
0000
0000
0010
0000
0000
0000
0001
0000
0000
0000
0010
0000
0000
0000
0001
0000
0000
0000
0010
0000
0000
0000
0001
0000
0000
0000
0010
0000
0000
0000
,
0001
0010
0001
0010
0001
0010
0001
0010
0001
0010
0001
0010
0001
0010
0001
0010
,
2320
3000
0000
0000
0001
0000
0000
0000
1000
0000
0000
0000
0001
0000
0000
0000
1000
0000
0000
0000
0001
0000
0000
0000
1000
0000
0000
0000
0001
0000
0000
0000
1000
0000
0000
0000
0001
0000
0000
0000
1000
0000
0000
0000
0001
0000
0000
0000
1000
0000
0000
0000
0001
0000
0000
0000
1000
0000
0000
0000
0001
0000
0000
0000
,
1000
0001
1000
0001
1000
0001
1000
0001
1000
0001
1000
0001
1000
0001
1000
0001
,
0232
0003
0000
1000
0000
0000
0010
0000
0000
1000
0000
0000
0010
0000
0000
1000
0000
0000
0010
0000
0000
1000
0000
0000
0010
0000
0000
1000
0000
0000
0010
0000
0000
1000
0000
0000
0010
0000
0000
1000
0000
0000
0010
0000
0000
1000
0000
0000
,
0001
0001
0010
0010
1000
0001
0010
1000
1001
0010
1001
0010
1001
0010
1001
0010
,
1300
0100
0010
0001
1100
0000
0000
0000
1001
0100
0010
0001
1000
0100
0010
0001
,
1100
0100
1010
0100
0110
0010
0101
0001
1100
0100
0110
0010
0011
0001
1001
1000
,
2002
3003
0000
0000
0100
0000
0000
0000
0010
0000
0000
0000
0001
0000
0000
0000
1000
0000
0000
0000
0100
0000
0000
0000
0010
0000
0000
0000
0001
0000
0000
0000
0100
0000
0000
0000
0010
0000
0000
0000
1000
0000
0000
0000
0001
0000
0000
0000
0100
0000
0000
0000
0010
0000
0000
0000
1000
0000
0000
0000
0001
0000
0000
0000
,
2200
3300
0000
0000
0010
0000
0000
0000
0202
0303
0000
0000
1000
0000
0000
0000
0022
0033
0000
0000
1000
0000
0000
0000
0202
0303
0000
0000
1000
0000
0000
0000
0202
0303
0000
0000
0010
0000
0000
0000
0100
0000
0000
0000
1000
0000
0000
0000
0001
0000
0000
0000
0010
0000
0000
0000
0100
0000
0000
0000
1000
0000
0000
0000
,
0110
0000
1000
0000
0110
0000
1000
0000
0101
0000
0010
0000
0110
0000
1000
0000
1100
0000
1010
0000
1001
0000
1100
0000
1001
0001
0011
0001
0101
0001
1001
0001
,
1020
0030
0000
0000
0000
0000
0000
0000
0101
0000
0000
0000
0000
0000
0000
0000
0010
0000
0000
0000
0000
0000
0000
0000
0011
0000
0000
0000
0000
0000
0000
0000
0100
0000
0000
0000
0000
0000
0000
0000
0011
0000
0000
0000
0000
0000
0000
0000
1000
0000
0000
0000
0000
0000
0000
0000
0011
0000
0000
0000
0000
0000
0000
0000
,
0001
0011
0100
0011
1000
0011
0100
0011
,
0102
0003
0000
0000
0000
0000
0000
0000
1100
0000
0000
0000
0000
0000
0000
0000
0001
0000
0000
0000
0000
0000
0000
0000
1100
0000
0000
0000
0000
0000
0000
0000
0010
0000
0000
0000
0000
0000
0000
0000
1001
0000
0000
0000
0000
0000
0000
0000
0100
0000
0000
0000
0000
0000
0000
0000
1010
0000
0000
0000
0000
0000
0000
0000
,
0001
0110
0010
0101
0100
0101
1000
0011
,
1002
0003
0000
0000
0000
0000
0000
0000
0101
0000
0000
0000
0000
0000
0000
0000
0010
0000
0000
0000
0000
0000
0000
0000
0011
0000
0000
0000
0000
0000
0000
0000
0100
0000
0000
0000
0000
0000
0000
0000
0011
0000
0000
0000
0000
0000
0000
0000
1000
0000
0000
0000
0000
0000
0000
0000
0011
0000
0000
0000
0000
0000
0000
0000
,
0001
0110
1000
0110
1000
0011
0100
0011
,
0120
0030
0000
0000
0000
0000
0000
0000
1100
0000
0000
0000
0000
0000
0000
0000
0001
0000
0000
0000
0000
0000
0000
0000
1100
0000
0000
0000
0000
0000
0000
0000
0010
0000
0000
0000
0000
0000
0000
0000
1001
0000
0000
0000
0000
0000
0000
0000
1000
0000
0000
0000
0000
0000
0000
0000
0110
0000
0000
0000
0000
0000
0000
0000
,
0001
1010
0100
0110
1000
0110
0100
1010
,
1020
0030
0000
0000
0000
0000
0000
0000
1100
0000
0000
0000
0000
0000
0000
0000
0010
0000
0000
0000
0000
0000
0000
0000
1001
0000
0000
0000
0000
0000
0000
0000
0100
0000
0000
0000
0000
0000
0000
0000
1010
0000
0000
0000
0000
0000
0000
0000
1000
0000
0000
0000
0000
0000
0000
0000
0110
0000
0000
0000
0000
0000
0000
0000
,
0001
0011
0100
0011
1000
0011
0100
0011
,
2001
3000
0000
0000
0000
0000
0000
0000
1010
0000
0000
0000
0000
0000
0000
0000
0001
0000
0000
0000
0000
0000
0000
0000
1100
0000
0000
0000
0000
0000
0000
0000
0010
0000
0000
0000
0000
0000
0000
0000
0011
0000
0000
0000
0000
0000
0000
0000
0100
0000
0000
0000
0000
0000
0000
0000
0110
0000
0000
0000
0000
0000
0000
0000
,
0001
0011
0100
0011
0100
0011
1000
0011
,
1020
0030
0000
0000
0000
0000
0000
0000
0101
0000
0000
0000
0000
0000
0000
0000
0010
0000
0000
0000
0000
0000
0000
0000
0011
0000
0000
0000
0000
0000
0000
0000
0100
0000
0000
0000
0000
0000
0000
0000
0011
0000
0000
0000
0000
0000
0000
0000
1000
0000
0000
0000
0000
0000
0000
0000
0110
0000
0000
0000
0000
0000
0000
0000
,
0001
0101
1000
0101
0010
0011
0100
0011
,
1002
0003
0000
0000
0000
0000
0000
0000
1100
0000
0000
0000
0000
0000
0000
0000
0001
0000
0000
0000
0000
0000
0000
0000
1100
0000
0000
0000
0000
0000
0000
0000
1000
0000
0000
0000
0000
0000
0000
0000
1010
0000
0000
0000
0000
0000
0000
0000
0100
0000
0000
0000
0000
0000
0000
0000
1010
0000
0000
0000
0000
0000
0000
0000
,
0001
0000
0110
0000
0100
0000
0110
0000
1001
0001
0011
0001
0110
0010
0010
0010
,
1011
0100
0101
0100
0101
0100
0101
0100
,
1011
0010
0110
0010
1110
0010
0110
0010
,
1101
0100
0101
0100
0101
0100
0101
0100
,
1010
0010
1010
0010
1010
0010
1010
0010
,
1011
0001
0101
0001
0101
0001
0101
0001
,
1011
1000
1001
1000
1110
1000
1010
1000
,
1011
0001
0101
0001
0101
0001
0101
0001
,
1001
0000
1001
0000
1001
0000
1001
0000
MMM1
0001
MMM1
0001
MMM1
0001
MMM1
0001
,
1011
0010
0110
0010
0110
0010
0110
0010
,
0111
0100
0101
0100
1101
0100
0101
0100
,
1011
0010
1010
0010
1010
0010
1010
0010
,
1001
0001
1001
0101
1001
0001
1011
0001
,
2202
3303
0000
0000
0000
0000
0000
0000
1000
0000
0000
0000
0000
0000
0000
0000
0011
0000
0000
0000
0000
0000
0000
0000
1000
0000
0000
0000
0000
0000
0000
0000
0101
0000
0000
0000
0000
0000
0000
0000
1000
0000
0000
0000
0000
0000
0000
0000
0011
0000
0000
0000
0000
0000
0000
0000
1000
0000
0000
0000
0000
0000
0000
0000
,
1010
0100
0011
0100
1010
0100
0011
0100
,
2202
3303
0000
0000
0000
0000
0000
0000
0001
0000
0000
0000
0000
0000
0000
0000
1000
0000
0000
0000
0000
0000
0000
0000
0001
0000
0000
0000
0000
0000
0000
0000
1000
0000
0000
0000
0000
0000
0000
0000
0001
0000
0000
0000
0000
0000
0000
0000
1000
0000
0000
0000
0000
0000
0000
0000
0001
0000
0000
0000
0000
0000
0000
0000
,
0110
0000
0110
0000
0110
0000
0110
0000
0001
0010
0100
1000
0001
0010
0100
1000
,
0111
0010
1010
0010
1010
0010
1010
0010
,
0111
0100
0101
0100
1101
0100
0101
0100
,
0111
0010
0110
0010
0110
0010
0110
0010
,
0101
0100
0101
0100
0101
0100
0101
0100
,
1011
0001
0101
0001
0101
0001
0101
0001
,
1110
1000
1001
1000
1101
1000
1001
1000
,
1101
0001
0101
0001
0101
0001
0101
0001
,
1100
0000
0100
0000
0011
0000
0001
0000
1MMM
1000
1MMM
1000
1MMM
1000
1MMM
1000
,
0222
0333
0000
0000
0000
0000
0000
0000
0010
0000
0000
0000
0000
0000
0000
0000
0100
0000
0000
0000
0000
0000
0000
0000
0010
0000
0000
0000
0000
0000
0000
0000
0100
0000
0000
0000
0000
0000
0000
0000
0010
0000
0000
0000
0000
0000
0000
0000
0100
0000
0000
0000
0000
0000
0000
0000
0010
0000
0000
0000
0000
0000
0000
0000
,
1101
0001
1000
0001
1110
0001
1000
0001
,
0222
0333
0000
0000
0000
0000
0000
0000
0010
0000
0000
0000
0000
0000
0000
0000
0100
0000
0000
0000
0000
0000
0000
0000
0010
0000
0000
0000
0000
0000
0000
0000
0100
0000
0000
0000
0000
0000
0000
0000
0010
0000
0000
0000
0000
0000
0000
0000
0100
0000
0000
0000
0000
0000
0000
0000
0010
0000
0000
0000
0000
0000
0000
0000
,
1110
0001
1000
0011
1000
0001
1100
0001
,
2202
3303
0000
0000
0000
0000
0000
0000
0100
0000
0000
0000
0000
0000
0000
0000
0010
0000
0000
0000
0000
0000
0000
0000
0100
0000
0000
0000
0000
0000
0000
0000
0010
0000
0000
0000
0000
0000
0000
0000
0100
0000
0000
0000
0000
0000
0000
0000
0011
0000
0000
0000
0000
0000
0000
0000
0100
0000
0000
0000
0000
0000
0000
0000
,
1001
1000
0001
1000
0001
1000
0001
1000
,
0202
0303
0000
0000
0000
0000
0000
0000
0010
0000
0000
0000
0000
0000
0000
0000
1000
0000
0000
0000
0000
0000
0000
0000
0010
0000
0000
0000
0000
0000
0000
0000
1000
0000
0000
0000
0000
0000
0000
0000
0010
0000
0000
0000
0000
0000
0000
0000
1000
0000
0000
0000
0000
0000
0000
0000
0010
0000
0000
0000
0000
0000
0000
0000
,
0101
0000
0101
0000
0101
0000
0101
0000
0001
0001
0001
0001
0010
0010
0010
0010
,
1100
0000
0100
0000
0011
0000
0100
0000
1001
0000
0010
0000
0101
0000
1000
0000
1100
0000
0110
0000
0101
0000
0011
0000
1010
1000
1100
1000
1001
1000
1100
1000
,
2020
3030
0000
0100
0000
0000
0010
0000
0000
0001
0000
0000
1010
0000
0000
0100
0000
0000
0010
0000
0000
0001
0000
0000
1100
0000
0000
0010
0000
0000
0001
0000
0000
0010
0000
0000
1100
0000
0000
0010
0000
0000
0100
0000
0000
0001
0000
0000
,
1010
0100
0001
0010
0101
1000
0001
0010
0101
1000
0001
0010
0101
1000
0001
0010
,
2002
3003
0000
0100
0000
0000
0001
0000
0000
0010
0000
0000
1001
0000
0000
0100
0000
0000
0001
0000
0000
0010
0000
0000
1100
0000
0000
0010
0000
0000
0100
0000
0000
0010
0000
0000
1100
0000
0000
0001
0000
0000
1000
0000
0000
0001
0000
0000
,
1100
0010
0100
0001
1100
0010
0100
0001
1010
0100
0010
0001
1010
0100
1000
0100
,
2002
3003
0000
0100
0000
0000
0010
0000
0000
0001
0000
0000
1010
0000
0000
0100
0000
0000
0010
0000
0000
0001
0000
0000
1100
0000
0000
0010
0000
0000
0001
0000
0000
0010
0000
0000
1100
0000
0000
0010
0000
0000
0100
0000
0000
0001
0000
0000
,
1010
0100
0001
0010
0101
1000
0001
0010
0101
1000
0001
0010
0101
1000
0100
0010
,
2002
3003
0000
0100
0000
0000
0001
0000
0000
0010
0000
0000
1001
0000
0000
0100
0000
0000
0001
0000
0000
0010
0000
0000
1001
0000
0000
0100
0000
0000
0010
0000
0000
0001
0000
0000
1010
0000
0000
0100
0000
0000
1000
0000
0000
0100
0000
0000
,
1001
0010
0100
1000
0101
0010
0100
1000
0101
0010
0100
0010
1001
0010
0100
1000
,
0202
0303
0000
0010
0000
0000
0001
0000
0000
0010
0000
0000
1001
0000
0000
0100
0000
0000
0010
0000
0000
0001
0000
0000
1100
0000
0000
0010
0000
0000
0001
0000
0000
0010
0000
0000
1100
0000
0000
0010
0000
0000
0100
0000
0000
0001
0000
0000
,
1010
0100
1000
0100
1001
0010
0100
0010
0101
1000
0100
0010
1001
0010
0100
1000
,
0202
0303
0000
0010
0000
0000
0001
0000
0000
0010
0000
0000
0101
0000
0000
1000
0000
0000
0001
0000
0000
0010
0000
0000
0101
0000
0000
1000
0000
0000
0001
0000
0000
0010
0000
0000
0101
0000
0000
1000
0000
0000
0100
0000
0000
0010
0000
0000
,
1001
0010
0100
0001
1100
0010
0100
0001
1010
0100
0010
0001
1010
0100
1000
0100
,
2002
3003
0000
0100
0000
0000
0010
0000
0000
0001
0000
0000
1010
0000
0000
0100
0000
0000
0010
0000
0000
0001
0000
0000
1100
0000
0000
0010
0000
0000
0001
0000
0000
0010
0000
0000
1100
0000
0000
0010
0000
0000
0100
0000
0000
0001
0000
0000
,
1010
0100
1000
0100
1010
0001
0010
0100
0011
0100
0010
0100
0011
0100
0010
0100
,
1001
0001
0101
0001
1001
1000
1100
1000
0101
0001
0011
0001
1100
1000
1010
1000
,
0011
0010
0110
0010
1010
0010
0011
0010
1010
0000
0011
0000
1100
0000
0011
0000
,
2222
3003
0000
0000
0000
0000
0000
0000
0000
0000
0000
0000
0000
0000
0000
0000
0000
0000
0000
0000
0000
0000
0000
0000
0000
0000
0000
0000
0000
0000
0000
0000
0000
0000
0000
0000
0000
0000
0000
0000
0000
0000
0000
0000
0000
0000
0000
0000
0000
0000
0000
0000
0000
0000
0000
0000
0000
0000
0000
0000
0000
0000
0000
0000
,
0000
0000
0000
0000
,
0000
0000
0000
0000
,
0000
0000
0000
0000
,
0330
0000
0000
0000
;

//---------------dance-single - ----------------
#NOTES:
     dance-single:
     :
     Hard:
     13:
     1.000,1.000,1.000,0.455,0.506,729.000,98.000,40.000,0.000,4.000:
0001
0010
0001
0010
0001
0010
0100
1000
0100
0001
0010
0100
0010
0100
1000
0100
,
1000
0100
0001
0010
0001
0010
0100
1000
0011
0000
0100
0000
0100
0000
0100
0000
,
2020
3000
0000
0000
0000
0000
0000
0000
1000
0000
0000
0000
0000
0000
0000
0000
0001
0000
0000
0000
0000
0000
0000
0000
1000
0000
0000
0000
0000
0000
0000
0000
0001
0000
0000
0000
0000
0000
0000
0000
1000
0000
0000
0000
0000
0000
0000
0000
0001
0000
0000
0000
0000
0000
0000
0000
1000
0000
0000
0000
0000
0000
0000
0000
,
0001
1000
0001
1000
0001
1000
0001
1000
,
0232
0003
0000
0000
0000
0000
0000
0000
1000
0000
0000
0000
0000
0000
0000
0000
0010
0000
0000
0000
0000
0000
0000
0000
1000
0000
0000
0000
0000
0000
0000
0000
0010
0000
0000
0000
0000
0000
0000
0000
1000
0000
0000
0000
0000
0000
0000
0000
0010
0000
0000
0000
0000
0000
0000
0000
1000
0000
0000
0000
0000
0000
0000
0000
,
0010
1000
0010
1000
0010
1000
0010
1000
,
2320
3000
0000
0000
0000
0000
0000
0000
0100
0000
0000
0000
0000
0000
0000
0000
0001
0000
0000
0000
0000
0000
0000
0000
0100
0000
0000
0000
0000
0000
0000
0000
0001
0000
0000
0000
0000
0000
0000
0000
0100
0000
0000
0000
0000
0000
0000
0000
0001
0000
0000
0000
0000
0000
0000
0000
0100
0000
0000
0000
0000
0000
0000
0000
,
0001
0100
0001
0100
0001
0100
0001
0100
,
0232
0003
0000
0000
0000
0000
1000
0000
0000
0000
0000
0000
0010
0000
0000
0000
0000
0000
1000
0000
0000
0000
0000
0000
0010
0000
0000
0000
0000
0000
1000
0000
0000
0000
0000
0000
0010
0000
0000
0000
0000
0000
1000
0000
0000
0000
0000
0000
,
0001
0010
0001
0010
0001
0010
0001
0010
1000
0000
1000
0000
1000
0000
1000
0000
,
1300
0100
0010
0001
1100
0000
0000
0000
1001
0100
0010
0001
0100
0010
1000
0001
,
1000
0100
0010
0001
1000
0100
0010
0001
,
2002
3003
0000
0000
0100
0000
0000
0000
0010
0000
0000
0000
0001
0000
0000
0000
1000
0000
0000
0000
0100
0000
0000
0000
0010
0000
0000
0000
0001
0000
0000
0000
0100
0000
0000
0000
0010
0000
0000
0000
1000
0000
0000
0000
0001
0000
0000
0000
0100
0000
0000
0000
0010
0000
0000
0000
1000
0000
0000
0000
0001
0000
0000
0000
,
2200
3300
0000
0000
0000
0000
0000
0000
0202
0303
0000
0000
0000
0000
0000
0000
0022
0033
0000
0000
0000
0000
0000
0000
0202
0303
0000
0000
0000
0000
0000
0000
2002
3003
0000
0000
0010
0000
0000
0000
0100
0000
0000
0000
1000
0000
0000
0000
0001
0000
0000
0000
0010
0000
0000
0000
0100
0000
0000
0000
0000
0000
0000
0000
,
0110
0000
1000
0000
0110
0000
1000
0000
0101
0000
0010
0000
0101
0000
1000
0000
1100
0000
0110
0000
0011
0000
1100
0000
1001
0010
0100
1000
0001
0010
0100
1000
,
0021
0030
0000
0000
0000
0000
0000
0000
0100
0000
0000
0000
0000
0000
0000
0000
0010
0000
0000
0000
0000
0000
0000
0000
0001
0000
0000
0000
0000
0000
0000
0000
0100
0000
0000
0000
0000
0000
0000
0000
0010
0000
0000
0000
0000
0000
0000
0000
1000
0000
0000
0000
0000
0000
0000
0000
0010
0000
0000
0000
0000
0000
0000
0000
,
0001
0010
0100
0010
1000
0010
0100
0010
,
0102
0003
0000
0000
0000
0000
0000
0000
1000
0000
0000
0000
0000
0000
0000
0000
0001
0000
0000
0000
0000
0000
0000
0000
1000
0000
0000
0000
0000
0000
0000
0000
0010
0000
0000
0000
0000
0000
0000
0000
0100
0000
0000
0000
0000
0000
0000
0000
1000
0000
0000
0000
0000
0000
0000
0000
0100
0000
0000
0000
0000
0000
0000
0000
,
0001
0010
0100
0010
1000
0010
0100
0010
,
1002
0003
0000
0000
0000
0000
0000
0000
0100
0000
0000
0000
0000
0000
0000
0000
0010
0000
0000
0000
0000
0000
0000
0000
0001
0000
0000
0000
0000
0000
0000
0000
0100
0000
0000
0000
0000
0000
0000
0000
0010
0000
0000
0000
0000
0000
0000
0000
1000
0000
0000
0000
0000
0000
0000
0000
0010
0000
0000
0000
0000
0000
0000
0000
,
0001
0010
0100
0010
1000
0010
0100
0010
,
0120
0030
0000
0000
0000
0000
0000
0000
1000
0000
0000
0000
0000
0000
0000
0000
0001
0000
0000
0000
0000
0000
0000
0000
0100
0000
0000
0000
0000
0000
0000
0000
0010
0000
0000
0000
0000
0000
0000
0000
0001
0000
0000
0000
0000
0000
0000
0000
1000
0000
0000
0000
0000
0000
0000
0000
0010
0000
0000
0000
0000
0000
0000
0000
,
0001
0010
0100
0010
1000
0010
0100
0010
,
1020
0030
0000
0000
0000
0000
0000
0000
0100
0000
0000
0000
0000
0000
0000
0000
0010
0000
0000
0000
0000
0000
0000
0000
0001
0000
0000
0000
0000
0000
0000
0000
0100
0000
0000
0000
0000
0000
0000
0000
0010
0000
0000
0000
0000
0000
0000
0000
1000
0000
0000
0000
0000
0000
0000
0000
0010
0000
0000
0000
0000
0000
0000
0000
,
0001
0010
0100
0010
1000
0010
0100
0001
,
2001
3000
0000
0000
0000
0000
0000
0000
0010
0000
0000
0000
0000
0000
0000
0000
0001
0000
0000
0000
0000
0000
0000
0000
0100
0000
0000
0000
0000
0000
0000
0000
0010
0000
0000
0000
0000
0000
0000
0000
0001
0000
0000
0000
0000
0000
0000
0000
0100
0000
0000
0000
0000
0000
0000
0000
0010
0000
0000
0000
0000
0000
0000
0000
,
0001
0010
0100
0010
0100
0010
1000
0010
,
1020
0030
0000
0000
0000
0000
0000
0000
0100
0000
0000
0000
0000
0000
0000
0000
0010
0000
0000
0000
0000
0000
0000
0000
0001
0000
0000
0000
0000
0000
0000
0000
0100
0000
0000
0000
0000
0000
0000
0000
0010
0000
0000
0000
0000
0000
0000
0000
1000
0000
0000
0000
0000
0000
0000
0000
0100
0000
0000
0000
0000
0000
0000
0000
,
0001
0100
1000
0100
0010
0001
0100
0010
,
1002
0003
0000
0000
0000
0000
0000
0000
0100
0000
0000
0000
0000
0000
0000
0000
0001
0000
0000
0000
0000
0000
0000
0000
0100
0000
0000
0000
0000
0000
0000
0000
1000
0000
0000
0000
0000
0000
0000
0000
0010
0000
0000
0000
0000
0000
0000
0000
0100
0000
0000
0000
0000
0000
0000
0000
0010
0000
0000
0000
0000
0000
0000
0000
,
0001
0000
0010
0000
0100
0000
0010
0000
1001
0010
0101
0010
1100
0010
0101
0010
,
1001
0100
0010
0100
0010
0100
0010
0100
,
1010
0001
1000
0001
1100
0001
1000
0001
,
0101
0010
0100
0010
0100
0010
0100
0010
,
1000
0001
1000
0001
1000
0001
1000
0001
,
0101
0001
0100
0001
0100
0001
0100
0001
,
1010
0010
1000
0010
1100
0010
1000
0010
,
0110
0001
0100
0001
0100
0001
0100
0001
,
0010
0000
0010
0000
0010
0000
0010
0000
1000
0100
0010
0001
1000
0010
0100
0001
,
1010
0010
0100
0010
0100
0010
0100
0010
,
1010
0001
1000
0001
1100
0001
1000
0001
,
0101
0010
0100
0010
0100
0010
0100
0010
,
1100
0001
1000
0101
1000
0001
1001
0001
,
1100
0010
0101
0010
0011
0010
1001
0010
,
1000
0001
1000
0001
1000
0001
1000
0001
,
0100
0010
0100
0010
0100
0010
0100
0010
,
0001
0000
0001
0000
0001
0000
0001
0000
0001
0010
0100
1000
0001
0100
0010
1000
,
0011
0010
0100
0010
0100
0010
0100
0010
,
1001
0001
1000
0001
1010
0001
1000
0001
,
0101
0010
0100
0010
0100
0010
0100
0010
,
1000
0001
1000
0001
1000
0001
1000
0001
,
1001
0010
1000
0010
1000
0010
1000
0010
,
0110
0001
0100
0001
0101
0001
0100
0001
,
1100
0010
1000
0010
1000
0010
1000
0010
,
0001
0000
0001
0000
0001
0000
0001
0000
1000
0100
0010
0001
0100
0010
1000
0001
,
1100
0010
0100
0010
0100
0010
0100
0010
,
1010
0001
1000
0001
1100
0001
1000
0001
,
0101
0010
0100
0010
0100
0010
0100
0010
,
1010
0001
1000
0011
1000
0001
1010
0001
,
1010
0010
0100
0010
0100
0010
0101
0010
,
1100
0001
1000
0001
1000
0001
1000
0001
,
0100
0010
0100
0010
0100
0010
0100
0010
,
1000
0000
1000
0000
1000
0000
1000
0000
0100
0010
0001
0010
0100
1000
0100
0010
,
1100
0000
0100
0000
0011
0000
0100
0000
1001
0000
0010
0000
0101
0000
1000
0000
1100
0000
0110
0000
0011
0000
1001
0000
1010
0100
0010
0001
1000
0100
0010
0001
,
2200
3300
0000
0000
0000
0000
0000
0000
0100
0000
0000
0000
0000
0000
0000
0000
0010
0000
0000
0000
0000
0000
0000
0000
0001
0000
0000
0000
0000
0000
0000
0000
0100
0000
0000
0000
0000
0000
0000
0000
0001
0000
0000
0000
0000
0000
0000
0000
1000
0000
0000
0000
0000
0000
0000
0000
0100
0000
0000
0000
0000
0000
0000
0000
,
0001
0010
0100
0010
1000
0010
0100
0010
,
1002
0003
0000
0000
0000
0000
0000
0000
0100
0000
0000
0000
0000
0000
0000
0000
0001
0000
0000
0000
0000
0000
0000
0000
0010
0000
0000
0000
0000
0000
0000
0000
0100
0000
0000
0000
0000
0000
0000
0000
0010
0000
0000
0000
0000
0000
0000
0000
1000
0000
0000
0000
0000
0000
0000
0000
0010
0000
0000
0000
0000
0000
0000
0000
,
0001
0100
1000
0010
1000
0010
0100
0010
,
1002
0003
0000
0000
0000
0000
0000
0000
0100
0000
0000
0000
0000
0000
0000
0000
0010
0000
0000
0000
0000
0000
0000
0000
0001
0000
0000
0000
0000
0000
0000
0000
0100
0000
0000
0000
0000
0000
0000
0000
0010
0000
0000
0000
0000
0000
0000
0000
1000
0000
0000
0000
0000
0000
0000
0000
0100
0000
0000
0000
0000
0000
0000
0000
,
0001
0010
0100
0010
1000
0010
0100
0001
,
1020
0030
0000
0000
0000
0000
0000
0000
0100
0000
0000
0000
0000
0000
0000
0000
0001
0000
0000
0000
0000
0000
0000
0000
0010
0000
0000
0000
0000
0000
0000
0000
0100
0000
0000
0000
0000
0000
0000
0000
0010
0000
0000
0000
0000
0000
0000
0000
1000
0000
0000
0000
0000
0000
0000
0000
0010
0000
0000
0000
0000
0000
0000
0000
,
0001
0010
0100
0010
1000
0010
0100
0010
,
1002
0003
0000
0000
0000
0000
0000
0000
0100
0000
0000
0000
0000
0000
0000
0000
0010
0000
0000
0000
0000
0000
0000
0000
0001
0000
0000
0000
0000
0000
0000
0000
0100
0000
0000
0000
0000
0000
0000
0000
0010
0000
0000
0000
0000
0000
0000
0000
1000
0000
0000
0000
0000
0000
0000
0000
0010
0000
0000
0000
0000
0000
0000
0000
,
0001
0100
0010
0001
0100
0010
1000
0010
,
2100
3000
0000
0000
0000
0000
0000
0000
0010
0000
0000
0000
0000
0000
0000
0000
0001
0000
0000
0000
0000
0000
0000
0000
0100
0000
0000
0000
0000
0000
0000
0000
1000
0000
0000
0000
0000
0000
0000
0000
0010
0000
0000
0000
0000
0000
0000
0000
1000
0000
0000
0000
0000
0000
0000
0000
0010
0000
0000
0000
0000
0000
0000
0000
,
0001
0100
1000
0010
0100
0010
1000
0100
,
1002
0003
0000
0000
0000
0000
0000
0000
0100
0000
0000
0000
0000
0000
0000
0000
0010
0000
0000
0000
0000
0000
0000
0000
0001
0000
0000
0000
0000
0000
0000
0000
0010
0000
0000
0000
0000
0000
0000
0000
0100
0000
0000
0000
0000
0000
0000
0000
1000
0000
0000
0000
0000
0000
0000
0000
0010
0000
0000
0000
0000
0000
0000
0000
,
0001
0010
0100
0010
1000
0010
0100
0001
,
1001
0100
0010
0001
1010
0100
0010
0001
1100
0010
0100
0001
1010
0100
0010
0001
,
1100
0010
0100
0010
0101
0010
0100
0010
1001
0000
0011
0000
1100
0000
0011
0000
,
2222
3003
0000
0000
0000
0000
0000
0000
0000
0000
0000
0000
0000
0000
0000
0000
0000
0000
0000
0000
0000
0000
0000
0000
0000
0000
0000
0000
0000
0000
0000
0000
0000
0000
0000
0000
0000
0000
0000
0000
0000
0000
0000
0000
0000
0000
0000
0000
0000
0000
0000
0000
0000
0000
0000
0000
0000
0000
0000
0000
0000
0000
0000
0000
,
0000
0000
0000
0000
,
0000
0000
0000
0000
,
0000
0000
0000
0000
,
0330
0000
0000
0000
;

//---------------dance-single - ----------------
#NOTES:
     dance-single:
     :
     Challenge:
     16:
     1.000,1.000,1.000,0.648,0.898,798.000,305.000,57.000,0.000,37.000:
0001
0010
0001
0010
0001
0010
0100
1000
0100
0010
0100
0010
0001
0010
0100
1000
,
0100
0010
0001
0010
0100
1000
0100
1000
0011
0000
0100
0000
0100
0000
0100
0000
,
2020
3000
0000
0000
0100
0000
0000
0000
0001
0000
0000
0000
0100
0000
0000
0000
0001
0000
0000
0000
0100
0000
0000
0000
0001
0000
0000
0000
0100
0000
0000
0000
0001
0000
0000
0000
0100
0000
0000
0000
0001
0000
0000
0000
0100
0000
0000
0000
0001
0000
0000
0000
0100
0000
0000
0000
0001
0000
0000
0000
0100
0000
0000
0000
,
0001
0100
0001
0100
0001
0100
0001
0100
0001
0100
0001
0100
0001
0100
0001
1000
,
0232
0003
0000
0000
1000
0000
0000
0000
0010
0000
0000
0000
1000
0000
0000
0000
0010
0000
0000
0000
1000
0000
0000
0000
0010
0000
0000
0000
1000
0000
0000
0000
0010
0000
0000
0000
1000
0000
0000
0000
0010
0000
0000
0000
1000
0000
0000
0000
0010
0000
0000
0000
1000
0000
0000
0000
0010
0000
0000
0000
1000
0000
0000
0000
,
0010
1000
0010
1000
0010
1000
0010
1000
0010
1000
0010
1000
0010
1000
0010
0001
,
2320
3000
0000
0000
0001
0000
0000
0000
1000
0000
0000
0000
0001
0000
0000
0000
1000
0000
0000
0000
0001
0000
0000
0000
1000
0000
0000
0000
0001
0000
0000
0000
1000
0000
0000
0000
0001
0000
0000
0000
1000
0000
0000
0000
0001
0000
0000
0000
1000
0000
0000
0000
0001
0000
0000
0000
1000
0000
0000
0000
0001
0000
0000
0000
,
1000
0001
1000
0001
1000
0001
1000
0001
1000
0001
1000
0001
1000
0001
0100
1000
,
0232
0003
0000
1000
0000
0000
0010
0000
0000
1000
0000
0000
0010
0000
0000
1000
0000
0000
0010
0000
0000
1000
0000
0000
0010
0000
0000
1000
0000
0000
0010
0000
0000
1000
0000
0000
0010
0000
0000
1000
0000
0000
0010
0000
0000
1000
0000
0000
,
0001
0010
0001
0010
0001
0010
1000
0010
1001
0000
1001
0000
1001
0000
1001
0000
,
1300
0100
0010
0001
1100
0000
0000
0000
1001
0100
0010
0001
1000
0100
0010
0001
,
1100
0010
1100
0001
0110
0001
0110
1000
0101
1000
0101
1000
0011
1000
0011
0100
,
2002
3003
0000
0000
0100
0000
0000
0000
0010
0000
0000
0000
0001
0000
0000
0000
1000
0000
0000
0000
0100
0000
0000
0000
0010
0000
0000
0000
0001
0000
0000
0000
0100
0000
0000
0000
0010
0000
0000
0000
1000
0000
0000
0000
0001
0000
0000
0000
0100
0000
0000
0000
0010
0000
0000
0000
1000
0000
0000
0000
0001
0000
0000
0000
,
2200
3300
0000
0000
0010
0000
0000
0000
0202
0303
0000
0000
1000
0000
0000
0000
0022
0033
0000
0000
1000
0000
0000
0000
0202
0303
0000
0000
1000
0000
0000
0000
0202
0303
0000
0000
0010
0000
0000
0000
0100
0000
0000
0000
1000
0000
0000
0000
0001
0000
0000
0000
0010
0000
0000
0000
0100
0000
0000
0000
1000
0000
0000
0000
,
0110
0000
1000
0000
0110
0000
1000
0000
0101
0000
0010
0000
0110
0000
1000
0000
1100
0000
1010
0000
1001
0000
1100
0000
1001
0100
0011
0100
1010
0100
0011
0100
,
1020
0030
0000
0000
0000
0000
0000
0000
0101
0000
0000
0000
0000
0000
0000
0000
0010
0000
0000
0000
0000
0000
0000
0000
0011
0000
0000
0000
0000
0000
0000
0000
0100
0000
0000
0000
0000
0000
0000
0000
0011
0000
0000
0000
0000
0000
0000
0000
1000
0000
0000
0000
0000
0000
0000
0000
0011
0000
0000
0000
0000
0000
0000
0000
,
0001
0011
0100
0011
1000
0011
0100
0011
,
0102
0003
0000
0000
0000
0000
0000
0000
1100
0000
0000
0000
0000
0000
0000
0000
0001
0000
0000
0000
0000
0000
0000
0000
1100
0000
0000
0000
0000
0000
0000
0000
0010
0000
0000
0000
0000
0000
0000
0000
1001
0000
0000
0000
0000
0000
0000
0000
0100
0000
0000
0000
0000
0000
0000
0000
1010
0000
0000
0000
0000
0000
0000
0000
,
0001
0110
0010
0101
0100
0101
1000
0011
,
1002
0003
0000
0000
0000
0000
0000
0000
0101
0000
0000
0000
0000
0000
0000
0000
0010
0000
0000
0000
0000
0000
0000
0000
0011
0000
0000
0000
0000
0000
0000
0000
0100
0000
0000
0000
0000
0000
0000
0000
0011
0000
0000
0000
0000
0000
0000
0000
1000
0000
0000
0000
0000
0000
0000
0000
0011
0000
0000
0000
0000
0000
0000
0000
,
0001
0110
1000
0110
1000
0011
0100
0011
,
0120
0030
0000
0000
0000
0000
0000
0000
1100
0000
0000
0000
0000
0000
0000
0000
0001
0000
0000
0000
0000
0000
0000
0000
1100
0000
0000
0000
0000
0000
0000
0000
0010
0000
0000
0000
0000
0000
0000
0000
1001
0000
0000
0000
0000
0000
0000
0000
1000
0000
0000
0000
0000
0000
0000
0000
0110
0000
0000
0000
0000
0000
0000
0000
,
0001
1010
0100
0110
1000
0110
0100
1010
,
1020
0030
0000
0000
0000
0000
0000
0000
1100
0000
0000
0000
0000
0000
0000
0000
0010
0000
0000
0000
0000
0000
0000
0000
1001
0000
0000
0000
0000
0000
0000
0000
0100
0000
0000
0000
0000
0000
0000
0000
1010
0000
0000
0000
0000
0000
0000
0000
1000
0000
0000
0000
0000
0000
0000
0000
0110
0000
0000
0000
0000
0000
0000
0000
,
0001
0011
0100
0011
1000
0011
0100
0011
,
2001
3000
0000
0000
0000
0000
0000
0000
1010
0000
0000
0000
0000
0000
0000
0000
0001
0000
0000
0000
0000
0000
0000
0000
1100
0000
0000
0000
0000
0000
0000
0000
0010
0000
0000
0000
0000
0000
0000
0000
0011
0000
0000
0000
0000
0000
0000
0000
0100
0000
0000
0000
0000
0000
0000
0000
0110
0000
0000
0000
0000
0000
0000
0000
,
0001
0011
0100
0011
0100
0011
1000
0011
,
1020
0030
0000
0000
0000
0000
0000
0000
0101
0000
0000
0000
0000
0000
0000
0000
0010
0000
0000
0000
0000
0000
0000
0000
0011
0000
0000
0000
0000
0000
0000
0000
0100
0000
0000
0000
0000
0000
0000
0000
0011
0000
0000
0000
0000
0000
0000
0000
1000
0000
0000
0000
0000
0000
0000
0000
0110
0000
0000
0000
0000
0000
0000
0000
,
0001
0101
1000
0101
0010
0011
0100
0011
,
1002
0003
0000
0000
0000
0000
0000
0000
1100
0000
0000
0000
0000
0000
0000
0000
0001
0000
0000
0000
0000
0000
0000
0000
1100
0000
0000
0000
0000
0000
0000
0000
1000
0000
0000
0000
0000
0000
0000
0000
1010
0000
0000
0000
0000
0000
0000
0000
0100
0000
0000
0000
0000
0000
0000
0000
1010
0000
0000
0000
0000
0000
0000
0000
,
0001
0000
0110
0000
0100
0000
0110
0000
1001
0100
0011
0100
1010
0100
0010
0001
,
1110
0100
0101
0100
0101
0100
0101
0100
,
1011
0010
0110
0010
1110
0010
0110
0010
,
1101
0100
0101
0100
0101
0100
0101
0100
,
1010
0010
1010
0010
1010
0010
1010
0010
,
1011
0001
0101
0001
0101
0001
0101
0001
,
1011
1000
1001
1000
1110
1000
1010
1000
,
1011
0001
0101
0001
0101
0001
0101
0001
,
1001
0000
0100
0000
1001
0000
0010
0000
0100
0010
0100
0010
0100
0010
0100
0010
,
1101
0010
0110
0010
0110
0010
0110
0010
,
0111
0100
0101
0100
1101
0100
0101
0100
,
1011
0010
1010
0010
1010
0010
1010
0010
,
1001
0001
1001
0101
1001
0001
1011
0001
,
2202
3303
0000
0000
0000
0000
0000
0000
1000
0000
0000
0000
0000
0000
0000
0000
0011
0000
0000
0000
0000
0000
0000
0000
1000
0000
0000
0000
0000
0000
0000
0000
0101
0000
0000
0000
0000
0000
0000
0000
1000
0000
0000
0000
0000
0000
0000
0000
0011
0000
0000
0000
0000
0000
0000
0000
1000
0000
0000
0000
0000
0000
0000
0000
,
1010
0100
0011
0100
1010
0100
0011
0100
,
2202
3303
0000
0000
0000
0000
0000
0000
0001
0000
0000
0000
0000
0000
0000
0000
1000
0000
0000
0000
0000
0000
0000
0000
0001
0000
0000
0000
0000
0000
0000
0000
1000
0000
0000
0000
0000
0000
0000
0000
0001
0000
0000
0000
0000
0000
0000
0000
1000
0000
0000
0000
0000
0000
0000
0000
0001
0000
0000
0000
0000
0000
0000
0000
,
1001
0000
0110
0000
1001
0000
0110
0000
0001
0010
0100
1000
0001
0010
0100
1000
,
0111
0010
1010
0010
1010
0010
1010
0010
,
0111
0100
0101
0100
1101
0100
0101
0100
,
0111
0010
0110
0010
0110
0010
0110
0010
,
0101
0100
0101
0100
0101
0100
0101
0100
,
1011
0001
0101
0001
0101
0001
0101
0001
,
1110
1000
1001
1000
1101
1000
1001
1000
,
1101
0001
0101
0001
0101
0001
0101
0001
,
1100
0000
0100
0000
0011
0000
0001
0000
0100
0010
0100
0010
0100
0010
0100
0010
,
2202
3303
0000
0000
0000
0000
0000
0000
0010
0000
0000
0000
0000
0000
0000
0000
0100
0000
0000
0000
0000
0000
0000
0000
0010
0000
0000
0000
0000
0000
0000
0000
0100
0000
0000
0000
0000
0000
0000
0000
0010
0000
0000
0000
0000
0000
0000
0000
0100
0000
0000
0000
0000
0000
0000
0000
0010
0000
0000
0000
0000
0000
0000
0000
,
1101
0001
1000
0001
1110
0001
1000
0001
,
0222
0333
0000
0000
0000
0000
0000
0000
0010
0000
0000
0000
0000
0000
0000
0000
0100
0000
0000
0000
0000
0000
0000
0000
0010
0000
0000
0000
0000
0000
0000
0000
0100
0000
0000
0000
0000
0000
0000
0000
0010
0000
0000
0000
0000
0000
0000
0000
0100
0000
0000
0000
0000
0000
0000
0000
0010
0000
0000
0000
0000
0000
0000
0000
,
1110
0001
1000
0011
1000
0001
1100
0001
,
2202
3303
0000
0000
0000
0000
0000
0000
0100
0000
0000
0000
0000
0000
0000
0000
0010
0000
0000
0000
0000
0000
0000
0000
0100
0000
0000
0000
0000
0000
0000
0000
0010
0000
0000
0000
0000
0000
0000
0000
0100
0000
0000
0000
0000
0000
0000
0000
0011
0000
0000
0000
0000
0000
0000
0000
0100
0000
0000
0000
0000
0000
0000
0000
,
1001
1000
0001
1000
0001
1000
0001
1000
,
0202
0303
0000
0000
0000
0000
0000
0000
0010
0000
0000
0000
0000
0000
0000
0000
1000
0000
0000
0000
0000
0000
0000
0000
0010
0000
0000
0000
0000
0000
0000
0000
1000
0000
0000
0000
0000
0000
0000
0000
0010
0000
0000
0000
0000
0000
0000
0000
1000
0000
0000
0000
0000
0000
0000
0000
0010
0000
0000
0000
0000
0000
0000
0000
,
0011
0000
1000
0000
0011
0000
0100
0000
0001
0010
0001
0010
0100
1000
0100
1000
,
0011
0000
0100
0000
0011
0000
0100
0000
1001
0000
0010
0000
0101
0000
1000
0000
1100
0000
0110
0000
0101
0000
0011
0000
1010
0100
1010
0100
1001
0010
0101
0010
,
2002
3003
0000
0000
0000
0000
0000
0000
0101
0000
0000
0000
0000
0000
0000
0000
0010
0000
0000
0000
0000
0000
0000
0000
0011
0000
0000
0000
0000
0000
0000
0000
0100
0000
0000
0000
0000
0000
0000
0000
0011
0000
0000
0000
0000
0000
0000
0000
1000
0000
0000
0000
0000
0000
0000
0000
0101
0000
0000
0000
0000
0000
0000
0000
,
0001
0011
0100
0011
1000
0011
0100
0011
,
1002
0003
0000
0000
0000
0000
0000
0000
1100
0000
0000
0000
0000
0000
0000
0000
0001
0000
0000
0000
0000
0000
0000
0000
1010
0000
0000
0000
0000
0000
0000
0000
0100
0000
0000
0000
0000
0000
0000
0000
1010
0000
0000
0000
0000
0000
0000
0000
1000
0000
0000
0000
0000
0000
0000
0000
1010
0000
0000
0000
0000
0000
0000
0000
,
0001
0110
0100
0011
1000
0011
0100
0011
,
1002
0003
0000
0000
0000
0000
0000
0000
0101
0000
0000
0000
0000
0000
0000
0000
0010
0000
0000
0000
0000
0000
0000
0000
0011
0000
0000
0000
0000
0000
0000
0000
0100
0000
0000
0000
0000
0000
0000
0000
0011
0000
0000
0000
0000
0000
0000
0000
1000
0000
0000
0000
0000
0000
0000
0000
0101
0000
0000
0000
0000
0000
0000
0000
,
0001
0011
0100
0011
1000
0011
0100
0011
,
1020
0030
0000
0000
0000
0000
0000
0000
1100
0000
0000
0000
0000
0000
0000
0000
0001
0000
0000
0000
0000
0000
0000
0000
1010
0000
0000
0000
0000
0000
0000
0000
0100
0000
0000
0000
0000
0000
0000
0000
0110
0000
0000
0000
0000
0000
0000
0000
1000
0000
0000
0000
0000
0000
0000
0000
0110
0000
0000
0000
0000
0000
0000
0000
,
0001
1010
0100
0011
1000
0011
0100
0011
,
1002
0003
0000
0000
0000
0000
0000
0000
0101
0000
0000
0000
0000
0000
0000
0000
0010
0000
0000
0000
0000
0000
0000
0000
0011
0000
0000
0000
0000
0000
0000
0000
0100
0000
0000
0000
0000
0000
0000
0000
0011
0000
0000
0000
0000
0000
0000
0000
1000
0000
0000
0000
0000
0000
0000
0000
0011
0000
0000
0000
0000
0000
0000
0000
,
0001
0101
0010
1001
0100
0011
1000
0011
,
2100
3000
0000
0000
0000
0000
0000
0000
1010
0000
0000
0000
0000
0000
0000
0000
0001
0000
0000
0000
0000
0000
0000
0000
1100
0000
0000
0000
0000
0000
0000
0000
0100
0000
0000
0000
0000
0000
0000
0000
0110
0000
0000
0000
0000
0000
0000
0000
1000
0000
0000
0000
0000
0000
0000
0000
0110
0000
0000
0000
0000
0000
0000
0000
,
0001
0101
1000
0011
0100
0011
1000
0101
,
1002
0003
0000
0000
0000
0000
0000
0000
0101
0000
0000
0000
0000
0000
0000
0000
0010
0000
0000
0000
0000
0000
0000
0000
0101
0000
0000
0000
0000
0000
0000
0000
0010
0000
0000
0000
0000
0000
0000
0000
0101
0000
0000
0000
0000
0000
0000
0000
0100
0000
0000
0000
0000
0000
0000
0000
0011
0000
0000
0000
0000
0000
0000
0000
,
0001
0011
0100
0011
1000
0011
0100
0011
,
1001
0100
1010
0001
1010
0100
1010
0001
1100
0010
1100
0010
1100
0001
1100
0001
,
1010
0100
1001
0010
0101
1000
0101
0010
1001
0000
0011
0000
1100
0000
0011
0000
,
2222
3003
0000
0000
0000
0000
0000
0000
0000
0000
0000
0000
0000
0000
0000
0000
0000
0000
0000
0000
0000
0000
0000
0000
0000
0000
0000
0000
0000
0000
0000
0000
0000
0000
0000
0000
0000
0000
0000
0000
0000
0000
0000
0000
0000
0000
0000
0000
0000
0000
0000
0000
0000
0000
0000
0000
0000
0000
0000
0000
0000
0000
0000
0000
,
0000
0000
0000
0000
,
0000
0000
0000
0000
,
0000
0000
0000
0000
,
0330
0000
0000
0000
;
