#TITLE:SHOOTING STAR;
#SUBTITLE:;
#ARTIST:BANG;
#TITLETRANSLIT:;
#SUBTITLETRANSLIT:;
#ARTISTTRANSLIT:;
#CREDIT:;
#BANNER:star bn.png;
#BACKGROUND:star bg.png;
#LYRICSPATH:;
#CDTITLE:;
#MUSIC:SHOOTING STAR.ogg;
#OFFSET:-0.813;
#SAMPLESTART:58.320;
#SAMPLELENGTH:12.000;
#SELECTABLE:YES;
#DISPLAYBPM:170.000;
#BPMS:0.000=170.200,224.000=340.400,228.000=170.200;
#STOPS:224.000=0.088
,224.500=0.088
,225.000=0.088
,225.500=0.088
,226.000=0.044
,226.250=0.044
,226.500=0.044
,226.750=0.044
,227.000=0.044
,227.250=0.044
,227.500=0.044
,227.750=0.044
;
#BGCHANGES:;
// cache tags:
#FIRSTBEAT:0.000;
#LASTBEAT:260.500;
#SONGFILENAME:Songs/SSSC Pack 2/Shooting Star [NIQ9]/SHOOTING STAR.sm;
#HASMUSIC:1;
#HASBANNER:1;
#MUSICLENGTH:93.409;
// end cache tags

//---------------dance-single - NIQ9----------------
#NOTES:
     dance-single:
     NIQ9:
     Challenge:
     13:
     1.000,1.000,0.310,0.439,0.996,632.000,29.000,41.000,0.000,0.000:
1000
0010
0100
0001
,
1000
1000
0001
0001
,
0010
0100
1000
0100
,
0010
0001
1000
0010
,
1001
0001
0100
0010
,
0100
0001
1000
0100
,
0010
0010
0100
1000
,
0010
0010
0100
0001
,
2001
0000
3010
0200
0000
0310
1000
0100
,
0010
0020
0130
0020
0000
0031
0010
0100
,
2000
0000
3001
2000
0000
3010
0100
0001
,
0020
0000
0031
0020
0000
0031
1000
0100
,
2000
0000
3010
0200
0000
0310
1000
0100
,
0010
0020
0130
0020
0000
0130
0010
0001
,
0200
0000
0310
0200
0000
0310
1000
0100
,
0020
0000
0000
0000
0031
0000
2000
0000
3001
0000
0000
1000
0001
0000
0100
0000
,
1001
0000
0110
1010
,
1001
0001
0010
0100
1000
0001
0100
0010
,
0100
0000
0001
0000
0010
0000
0100
0000
0010
0000
0001
0000
1000
0000
0010
1000
,
0010
0100
0010
1000
0100
0010
0100
1000
,
0010
0100
0001
0010
0001
1000
0100
1100
,
1100
1000
0100
0010
0001
0100
0010
0100
,
0001
0000
1000
0000
0100
0000
0010
0000
0100
0000
1000
0000
0010
0000
1000
0001
,
1000
0001
0010
0100
1000
0010
0100
0001
,
0010
0000
0100
0000
1000
0000
0001
0100
0001
0000
1000
0100
0010
0001
0100
0010
,
2000
0100
3100
0010
0001
1000
0010
0100
,
0010
0000
1000
0000
0100
0000
0010
0000
0100
0000
1000
0000
0001
0000
0100
0001
,
0200
0310
0100
0001
0010
0100
0010
0001
,
0100
0010
1000
0100
1000
0001
0010
0011
,
0021
0031
0010
0100
1000
0010
0100
0010
,
1000
0000
0001
0000
0010
0000
0100
0000
0010
0000
0001
0000
0100
0000
0001
1000
,
0002
1003
0100
0010
0001
0100
0010
1000
,
0100
0000
0010
0000
0001
0000
1000
0010
1000
0000
0001
0010
0100
1000
0010
0100
,
0001
1000
0010
1000
0001
1000
0010
1000
0001
1000
0010
1000
0001
1000
0010
1000
,
0100
0010
0001
0010
0100
0010
0001
0010
0100
0010
0001
0010
0100
0010
0001
1000
,
0001
0100
0010
0100
0001
0100
0010
0100
0001
0100
0010
0100
0001
0100
0010
1000
,
0001
1000
0100
1000
0001
1000
0100
1000
0001
1000
0100
1000
0001
1000
0100
1000
,
0001
0100
0010
1000
0010
0100
0010
1000
0010
0100
0010
1000
0010
0100
0010
1000
,
0001
0010
0100
0010
0001
0010
0100
0010
0001
0010
0100
0010
0001
0010
0100
0010
,
0001
0000
1000
1000
1001
1000
0000
2100
,
0000
0002
0000
0000
3003
0000
1000
0001
,
0010
0001
0010
0100
0010
0001
1000
0010
1000
0001
0100
0010
0100
0001
1000
0100
,
0010
0100
1000
0010
1000
0001
0100
0010
0100
0001
0010
0100
1000
0010
0100
0001
,
0010
0100
0010
0001
1000
0100
0010
0100
1000
0010
0100
0010
1000
0001
0010
0001
,
1000
0100
1000
0010
1000
0001
0100
0010
0100
0001
0010
0100
0010
0001
1000
0100
,
0010
0100
1000
0010
1000
0001
0100
0010
0100
0001
0010
0001
1000
0001
0100
0010
,
0100
0001
1000
0100
0010
0100
1000
0100
0010
0001
1000
0010
1000
0001
0100
0010
,
0100
0001
0010
0100
1000
0010
0100
0001
1000
0010
1000
0001
0100
0010
0100
0001
,
0010
0100
0010
0001
1000
0100
0010
0100
1000
0010
0100
0001
0100
0010
1000
0001
,
0010
0001
1000
0100
0010
0001
1000
0010
1000
0001
0100
0010
0100
0001
1000
0100
,
0010
0100
1000
0010
1000
0001
0100
0010
0100
0001
0010
0100
1000
0010
0100
0001
,
0010
0100
0010
0001
1000
0100
0010
0100
1000
0010
0100
0010
1000
0001
0010
0001
,
1000
0100
1000
0010
1000
0001
0100
0010
0100
0001
0010
0100
0010
0001
1000
0100
,
0010
0100
1000
0010
1000
0001
0100
0010
0100
0001
0010
0001
1000
0001
0100
0010
,
0100
0001
1000
0100
0010
0100
1000
0100
0010
0001
1000
0010
1000
0001
0100
0010
,
0100
0001
0010
0100
1000
0010
0100
0001
1000
0010
1000
0001
0100
0010
0100
0001
,
0010
0000
0001
0000
0010
0000
0100
0000
0010
0001
0100
0010
1000
0100
0010
0001
,
2000
0000
3002
0000
0013
0100
1000
1100
,
1200
0000
0320
0000
0130
1000
1001
0001
,
0201
0000
0320
0000
1030
0100
0010
0011
,
0021
0000
0000
0000
0230
0000
0000
0000
1300
0000
0001
0010
0000
0000
0011
0000
,
0002
0000
2003
0000
3100
0010
0001
1001
,
2001
0000
0000
0000
3020
0000
0000
0030
1010
0000
1000
0000
1001
0000
1000
0000
,
1200
0000
0320
0000
0031
0100
0010
1010
,
2010
0000
0000
3000
0102
0000
0000
0003
2100
0000
3001
0000
0100
0000
0102
0000
,
2000
3003
0000
0000
0000
0000
0000
0000
;
