#TITLE:Black UFO;
#SUBTITLE:(The Factory Team Eurobeat Revenge);
#ARTIST:Lupin;
#TITLETRANSLIT:;
#SUBTITLETRANSLIT:;
#ARTISTTRANSLIT:;
#CREDIT:;
#BANNER:bn.jpg;
#BACKGROUND:bg.jpg;
#LYRICSPATH:;
#CDTITLE:kevcdms4.png;
#MUSIC:Black UFO.mp3;
#OFFSET:-5.930;
#SAMPLESTART:5.967;
#SAMPLELENGTH:12.000;
#SELECTABLE:YES;
#BPMS:0.000=162.000;
#STOPS:;
#BGCHANGES:;
// cache tags:
#FIRSTBEAT:0.000;
#LASTBEAT:288.000;
#SONGFILENAME:Songs/cedric step/Black UFO/Black UFO.sm;
#HASMUSIC:1;
#HASBANNER:1;
#MUSICLENGTH:114.866;
// end cache tags

//---------------dance-single - Copied from Copied f----------------
#NOTES:
     dance-single:
     Copied from Copied f:
     Hard:
     12:
     0.928,1.000,0.322,0.461,0.862,656.000,37.000,53.000,0.000,0.000:
1000
0000
0010
0000
0100
0010
0001
0010
1000
0100
0010
0001
0100
0010
0001
0100
,
1000
0010
0100
1000
0001
0010
0100
0001
1000
0010
0100
1000
0001
1000
0100
0010
,
1000
0001
0010
1000
0100
1000
0001
0010
1000
0010
0100
1000
0010
0100
0001
1000
,
0100
0010
0001
0100
1000
0010
0001
0100
0010
1000
0001
0100
1000
0010
1000
0100
,
0001
1000
0100
0001
0010
0100
1000
0100
0001
0010
0100
1000
0010
0001
1000
0100
,
0001
0010
0100
0010
1000
0001
0100
1000
0001
0010
0100
0010
1000
0001
0100
0010
,
0001
1000
0010
0001
0100
0010
1000
0100
0001
0010
0100
1000
0010
0001
1000
0100
,
0001
0010
0100
1000
0001
0100
1000
0010
0100
0001
1000
0010
0001
0100
0010
0100
,
1001
0000
0110
0000
0011
0000
2002
0000
0000
0000
0000
0000
3003
0000
0100
0010
,
0100
0010
1000
0010
0100
0001
1000
0100
,
0010
0000
0100
0000
0001
0000
0220
0000
0000
0000
0000
0000
0330
0000
0001
1000
,
0010
0100
0010
0100
0010
0100
0010
0100
,
1000
0000
0100
0000
0010
0000
0001
0100
0010
0000
0001
0010
0100
0000
0010
0000
,
0000
1000
0001
0010
0100
1000
0100
0010
,
0200
0010
0010
0001
,
0301
0010
0001
0010
0100
0000
0000
0000
0010
0001
0010
0100
1000
0000
0000
0000
,
1000
0000
0100
0000
0010
0000
0022
0000
0000
0000
0000
0000
0033
0000
0010
0001
,
0100
0100
1000
0010
0100
0010
1000
0100
,
1000
0000
0010
0000
0100
0000
2020
0000
0000
0000
0000
0000
3030
0000
0100
0010
,
1000
0100
0001
0010
0001
1000
0100
0010
,
0001
1000
0100
0002
0003
0100
0000
1000
,
0000
0010
0100
0010
0001
0010
1000
0100
,
0020
1000
0001
0030
,
0001
1000
0010
1000
0100
0000
0000
0000
0010
0001
0100
0010
1000
0000
0000
0000
,
1002
0000
0000
0000
0000
0000
0000
0000
0200
0000
0000
0000
0000
0300
2000
3003
,
0000
0000
0001
0010
0100
0000
0000
0000
0001
0000
0000
0000
0001
0000
0010
0000
,
0100
0000
0000
0011
0000
0000
0010
0000
0100
0000
0000
0110
0000
0000
0010
0000
,
0100
0000
1100
0000
0001
0000
0001
1000
,
2100
0000
0000
0000
0000
0000
0000
0000
0200
0000
0000
0000
0300
0000
0020
3030
,
0000
0000
1000
0001
0010
0000
0000
1001
0000
0000
0100
0000
0000
1100
0000
0000
,
1002
0000
0000
0000
0100
0000
0000
0000
1000
0000
0000
0000
0103
0000
0001
0100
,
1000
0100
0010
0001
0010
0001
0100
0010
0100
0010
0100
0010
0100
0000
0000
0000
,
0102
0000
0000
0000
0000
0000
1003
0000
0000
0000
0001
0000
1000
0000
0000
1000
,
0001
0100
0010
0001
0100
0010
2000
0000
0000
0000
3000
0000
0001
0010
0100
0010
,
0100
0000
0000
0000
0001
0000
0010
0000
0000
0000
0010
1000
0001
0010
0100
0010
,
0001
0100
1000
0000
0200
0300
0000
0000
0202
0303
0000
0000
0010
0000
0000
0000
,
2100
0000
0000
0000
0000
0000
3001
0000
0000
0000
1000
0100
0001
0100
0000
0000
,
1000
0000
0100
0000
0010
0000
0002
0000
0000
0000
0003
0000
1000
0100
0010
0001
,
0010
0000
0000
0000
1000
0000
0100
0000
0000
0000
0100
0001
1000
0001
0010
0001
,
1000
0100
0001
0010
0200
0300
0000
0000
0220
0330
0001
0000
1000
0000
0001
0000
,
2001
0000
0000
0000
0010
0000
3100
0000
0000
0000
0001
0010
0100
0000
0000
0000
,
0010
0100
1000
0001
0010
0000
0200
0000
0000
0000
0300
0000
0001
0010
0100
0000
,
0100
0000
0001
0000
0100
0000
1000
0000
0000
0000
0100
0000
0001
0100
1000
0100
,
0001
0100
1000
0010
0200
0300
0000
0000
2020
3030
0000
0000
0010
0000
0000
0000
,
1020
0000
0000
0000
1000
0000
0130
0000
0000
0000
1000
0100
0010
0000
0000
0000
,
0100
0000
0001
0000
0100
0000
0020
0000
0000
0000
0030
0000
1000
0100
0010
0000
,
0001
0000
1000
0000
0100
0000
0001
0000
0000
0000
0100
1000
0010
1000
0001
0100
,
1000
0010
0100
0000
2000
3000
0000
0000
2200
3300
0000
0000
0001
0000
0100
0000
,
0101
0000
1000
0001
0100
0010
1000
0001
,
0010
0001
0100
1000
0001
0100
0010
1000
,
0100
0001
0010
0100
1000
0100
0010
0100
,
0001
0100
0010
0001
0100
0010
1000
0100
,
1100
0000
0001
1000
0010
1000
0001
1000
,
0100
0001
0010
0100
0010
0100
0010
0100
,
1001
0100
0010
0000
0010
0100
0001
0000
1001
0000
0100
1000
0010
0001
0100
0000
,
1100
0001
0010
0000
0101
0000
1000
0100
0011
0000
0010
0100
1010
0000
0000
0000
,
1002
0000
0000
0003
0002
0000
1003
0000
,
0100
0000
0001
0000
0100
0000
0020
0000
0000
0030
1000
0001
0100
0000
0000
0000
,
1000
0000
0001
0000
0100
0000
1000
0000
0000
0000
0100
1000
0001
0100
1000
0010
,
0100
0001
0010
0000
0020
0030
0000
0000
2002
3003
0000
0000
1000
0000
0100
0000
,
2100
0000
0000
3020
0000
0000
0130
0000
,
0010
0100
1000
0000
0010
0000
0100
0000
0000
0000
0001
0000
0010
0000
0000
0000
,
0001
0010
1000
0100
0010
1000
0001
0000
0100
0000
0010
0000
1000
0000
0001
0000
,
0100
0001
0010
0100
2000
3000
0000
0000
0220
0330
0001
0000
0101
0000
0000
0000
,
1000
0000
0010
0000
0100
1000
0001
0010
1000
0100
0010
0001
0100
1000
0001
0010
,
1000
0010
0100
1000
0001
0010
0100
0001
1000
0001
0100
1000
0001
0010
0100
0010
,
1000
0100
0010
0001
0100
0010
0001
0100
1000
0010
0100
0001
0010
0100
0001
1000
,
0100
0010
0001
0100
1000
0010
0001
0100
0010
1000
0001
0100
1000
0010
1000
0010
,
0001
1000
0100
0001
0010
0100
1000
0100
0001
1000
0100
0001
0010
0100
1000
0010
,
0001
0010
0100
0010
1000
0001
0100
0010
0001
0010
0100
0001
0010
1000
0100
1000
,
0001
1000
0010
0001
0100
0010
1000
0100
0001
0010
0100
1000
0010
0100
1000
0010
,
0001
1000
0100
0010
0001
0100
1000
0100
0020
0030
0020
0030
0022
0000
0000
0000
,
0033
0000
0000
0000
;
