#TITLE:[F-3] Dash Hopes II;
#SUBTITLE:;
#ARTIST:Renard;
#TITLETRANSLIT:;
#SUBTITLETRANSLIT:;
#ARTISTTRANSLIT:;
#CREDIT:;
#BANNER:../Beast 4 - bn.png;
#BACKGROUND:../Beast 4 - bg.png;
#LYRICSPATH:;
#CDTITLE:;
#MUSIC:Dash Hopes 2.ogg;
#OFFSET:0.000;
#SAMPLESTART:4.800;
#SAMPLELENGTH:12.000;
#SELECTABLE:YES;
#DISPLAYBPM:250.000;
#BPMS:0.000=250.000;
#STOPS:;
#BGCHANGES:;
// cache tags:
#FIRSTBEAT:20.000;
#LASTBEAT:368.000;
#SONGFILENAME:Songs/Beast Aoreo BEAST! 4/Dash Hopes 2 - [Aoreo]/Dash Hopes 2.sm;
#HASMUSIC:1;
#HASBANNER:1;
#MUSICLENGTH:105.000;
// end cache tags

//---------------dance-single - J. Nero----------------
#NOTES:
     dance-single:
     J. Nero:
     Challenge:
     20:
     1.000,1.000,0.010,0.238,1.000,984.000,1.000,25.000,0.000,0.000:
0000
0000
0000
0000
,
0000
0000
0000
0000
,
0000
0000
0000
0000
,
0000
0000
0000
0000
,
0000
0000
0000
0000
,
1000
0010
1000
0001
0100
0010
0100
0001
1000
0100
0010
0100
1000
0001
0010
0100
,
1000
0001
0100
0010
0100
0001
1000
0010
1000
0001
0010
0100
1000
0001
0010
0001
,
1000
0010
0100
0001
1000
0001
0100
0010
1000
0001
1000
0100
0010
0001
1000
0100
,
1000
0001
0100
0010
1000
0001
0100
0001
1000
0100
0010
0001
1000
0100
1000
0001
,
1000
0010
0100
0001
1000
0001
0100
0010
1000
0001
1000
0100
0010
0100
1000
0001
,
0100
0001
1000
0010
0100
0010
1000
0001
1000
0100
0010
0001
1000
0100
1000
0001
,
1000
0010
0100
0010
1000
0001
0100
0001
1000
0100
0010
0100
1000
0001
0010
0001
,
1000
0010
1000
0001
0100
0010
0100
0001
1000
0100
0010
0001
1000
0100
1000
0001
,
0100
0010
0100
0001
1000
0010
0100
0001
1000
0100
1000
0001
0010
0100
1000
0001
,
1000
0010
0100
0010
1000
0001
0100
0010
1000
0001
0010
0100
1000
0001
0010
0100
,
1000
0001
0100
0010
0100
0001
1000
0010
1000
0001
0010
0100
0010
0001
1000
0100
,
1000
0001
0100
0010
0100
0001
1000
0010
1000
0001
0010
0100
1000
0001
0010
0001
,
1000
0010
0100
0001
1000
0001
0100
0010
1000
0001
0010
0100
0010
0001
1000
0100
,
1000
0001
0100
0010
0100
0001
1000
0001
0010
0100
1000
0001
0010
0100
0010
0001
,
1000
0010
1000
0001
0100
0010
0100
0001
1000
0100
0010
0100
1000
0001
0010
0100
,
1000
0001
1000
0010
0100
0010
1000
0001
1000
0100
0010
0100
1000
0001
0010
0100
,
1000
0010
0100
0010
1000
0001
0010
0100
1000
0001
0100
0010
0100
0001
1000
0100
,
0010
0001
1000
0100
1000
0001
0100
0010
0100
0001
1000
0001
0010
0100
1000
0001
,
0100
0010
0100
0001
1000
0100
1000
0001
0100
0010
1000
0001
0010
0001
1000
0100
,
0010
0001
1000
0100
1000
0001
0100
0010
0100
0001
1000
0001
0100
0010
1000
0001
,
0010
0100
0010
0001
1000
0100
1000
0001
0100
0010
0100
0001
1000
0100
0010
0100
,
1000
0001
1000
0010
0100
0010
1000
0001
0100
0001
1000
0100
0010
0001
1000
0100
,
1000
0001
0100
0010
0100
0001
1000
0001
0010
0100
1000
0001
0100
0010
0100
0001
,
1000
0100
0010
0100
1000
0001
0100
0010
0100
0001
1000
0100
0010
0001
1000
0010
,
1000
0001
0100
0010
1000
0001
0010
0100
1000
0001
0100
0010
0100
0001
1000
0100
,
1000
0001
0100
0001
1000
0100
1000
0001
0100
0010
0100
0001
1000
0100
0010
0001
,
1000
0010
0100
0010
1000
0001
0010
0100
1000
0001
0100
0010
0100
0001
1000
0100
,
0010
0100
1000
0001
0100
0001
1000
0010
0100
0001
1000
0100
1000
0001
0010
0100
,
1000
0010
0100
0001
0010
0001
1000
0100
1000
0010
0100
0001
0010
0100
1000
0010
,
0100
0001
1000
0010
0100
0001
1000
0100
0010
0100
1000
0010
0100
0001
0010
0001
,
1000
0100
0010
0001
0100
0010
1000
0100
0010
0001
0100
0010
0100
0001
1000
0100
,
1000
0010
0100
0001
0010
0001
0100
0010
1000
0000
0000
0000
0000
0000
0000
0000
,
4001
0000
0000
0000
,
0000
0000
0000
0000
,
0000
0000
0000
0000
,
0000
0000
0000
0000
,
0000
0000
0000
0000
0000
0000
0000
3000
,
0200
0300
2000
3000
0002
0003
0200
0300
,
0002
0003
0020
0030
0200
0300
2000
3000
,
0020
0030
0200
0300
0002
0003
0020
0030
,
0100
1000
0001
0100
0010
0100
0001
0000
,
1002
0003
2000
3000
0200
0300
0020
0030
,
0002
0000
0003
0000
2000
0000
3000
0000
0001
0000
1000
0000
0010
1000
0001
0010
,
0100
1000
0010
0100
0001
1000
0100
0010
,
0001
0100
0010
1000
0100
1000
0010
0100
0001
0010
0100
1000
0010
0100
0001
0010
,
0004
0000
0000
0000
,
0000
0000
0000
0000
,
0000
0000
0000
0000
,
0000
0000
0000
0000
,
0000
0000
0000
0000
0000
0000
0000
0003
,
1000
0000
0001
0010
0100
0000
1000
0000
0001
0000
1000
0010
0100
0000
0001
0000
,
0010
0000
0100
1000
0001
0000
0100
0000
0010
0000
1000
0000
0100
0000
0000
0000
,
1000
0000
0010
0100
0001
0000
0010
0000
0100
0000
1000
0001
0100
0000
0010
0000
,
1000
0000
0001
0010
0100
0000
1000
0000
0001
0000
0100
0000
0010
0000
0000
0000
,
1000
0000
0010
0100
0001
0000
0010
0000
0100
0000
1000
0010
0100
0000
0001
0000
,
1000
0000
0001
0010
0100
0000
1000
0000
0010
0000
0100
0000
0001
0000
0000
0000
,
0100
0000
0001
1000
0100
0000
0010
0000
0001
0000
0010
0100
1000
0000
0001
0000
,
1000
0000
0001
1000
0010
0000
0100
0000
0001
0000
1000
0000
0010
0000
0000
0000
,
1000
0100
1000
0010
0100
0001
0010
0100
1000
0001
0100
0010
0100
0001
1000
0100
,
1000
0001
0100
0010
0100
0001
1000
0001
0010
0100
1000
0010
0100
0001
0010
0001
,
1000
0100
1000
0010
0100
0001
0010
0100
1000
0001
1000
0010
0100
0001
1000
0100
,
0010
0100
1000
0001
0100
0010
0100
0001
1000
0100
0010
0001
0100
0010
1000
0100
,
1000
0001
0010
0100
1000
0001
0100
0010
1000
0100
1000
0010
0100
0001
0010
0100
,
1000
0001
0100
0010
0100
0001
0010
0100
1000
0010
0100
0001
1000
0100
0010
0001
,
2000
0000
0000
3200
0000
0000
0320
0000
,
0000
0032
0000
0000
2003
0000
3020
0000
,
1030
0001
0100
0010
1000
0010
0100
0001
1000
0100
0010
0100
1000
0001
0010
0100
,
1000
0001
0100
0010
0100
0001
1000
0010
1000
0001
0010
0100
1000
0001
0010
0001
,
1000
0010
0100
0001
1000
0001
0100
0010
1000
0001
1000
0100
0010
0001
1000
0100
,
1000
0001
0100
0010
1000
0001
0100
0001
1000
0100
0010
0001
1000
0100
1000
0001
,
1000
0010
0100
0001
1000
0001
0100
0010
1000
0001
1000
0100
0010
0100
1000
0001
,
0100
0001
1000
0010
0100
0010
1000
0001
1000
0100
0010
0001
1000
0100
1000
0001
,
1000
0010
0100
0010
1000
0001
0100
0001
1000
0100
0010
0100
1000
0001
0010
0001
,
1000
0010
1000
0001
0100
0010
0100
0001
1000
0100
0010
0001
1000
0100
1000
0001
,
4000
0000
0000
0000
,
0000
0000
0000
0000
,
0000
0000
0000
0000
,
0000
0000
0000
0000
,
0000
0000
0000
0000
0000
0000
0000
0000
0000
0000
0000
0000
0000
0000
0000
3000
,
0001
0100
0001
1000
0010
0100
0001
1000
0001
0010
0100
1000
0001
0100
0010
0100
,
0001
1000
0100
0010
0100
1000
0001
0100
0010
0100
0001
1000
0100
0010
0001
1000
,
0001
0100
0010
0100
0001
1000
0100
0010
0100
1000
0001
0010
0001
1000
0100
1000
,
0001
0100
0010
0100
0001
1000
0001
0010
0100
1000
0001
0100
0001
1000
0010
0100
,
0001
0010
0100
1000
0010
0100
0001
0100
0010
1000
0001
0010
0100
0010
0001
0100
,
0010
1000
0100
1000
0001
0010
0100
1000
0010
0100
0001
1000
0100
1000
0010
0100
,
0001
0010
0100
1000
0001
0010
0001
0100
0010
1000
0100
0010
0100
1000
0001
0100
,
0010
0100
0001
0010
0100
1000
0010
0100
0002
0000
0000
0000
0000
0000
0000
0000
,
0003
0000
0000
0000
;

//---------------dance-single - J. Nero----------------
#NOTES:
     dance-single:
     J. Nero:
     Hard:
     19:
     1.000,1.000,0.010,0.238,1.000,912.000,1.000,25.000,0.000,0.000:
0000
0000
0000
0000
,
0000
0000
0000
0000
,
0000
0000
0000
0000
,
0000
0000
0000
0000
,
0000
0000
0000
0000
,
1000
0000
0001
0100
0001
0000
1000
0000
0100
0000
0010
0001
1000
0000
0100
0000
,
1000
0000
0001
0100
0001
0000
1000
0000
0010
0000
0100
0001
0010
0000
0100
0000
,
1000
0010
0100
0001
1000
0001
0100
0010
1000
0001
1000
0100
0010
0001
1000
0100
,
1000
0001
0100
0010
1000
0001
0100
0001
1000
0100
0010
0001
1000
0100
1000
0001
,
0100
0000
0001
0010
0100
0000
1000
0000
0001
0000
0100
0001
1000
0000
0100
0000
,
1000
0000
0010
0100
0001
0000
0010
0000
0100
0000
1000
0001
0100
0000
0001
0000
,
1000
0010
0100
0010
1000
0001
0100
0001
1000
0100
0010
0100
1000
0001
0010
0001
,
1000
0010
1000
0001
0100
0010
0100
0001
1000
0100
0010
0001
1000
0100
1000
0001
,
0100
0000
0001
0010
0100
0000
1000
0000
0010
0000
0100
0001
0010
0000
0100
0000
,
1000
0000
0001
0100
0010
0000
1000
0000
0100
0000
0010
0100
1000
0000
0010
0000
,
1000
0001
0100
0010
0100
0001
1000
0010
1000
0001
0010
0100
0010
0001
1000
0100
,
1000
0001
0100
0010
0100
0001
1000
0010
1000
0001
0010
0100
1000
0001
0010
0001
,
1000
0000
0100
1000
0010
0000
0100
0000
0001
0000
0010
0100
1000
0000
0010
0000
,
1000
0000
0100
0010
0001
0000
1000
0000
0010
0000
0100
0001
0010
0000
0100
0000
,
1000
0010
1000
0001
0100
0010
0100
0001
1000
0100
0010
0100
1000
0001
0010
0100
,
1000
0001
1000
0010
0100
0010
1000
0001
1000
0100
0010
0100
1000
0001
0010
0100
,
1000
0010
0100
0010
1000
0001
0010
0100
1000
0001
0100
0010
0100
0001
1000
0100
,
0010
0001
1000
0100
1000
0001
0100
0010
0100
0001
1000
0001
0010
0100
1000
0001
,
0100
0010
0100
0001
1000
0100
1000
0001
0100
0010
1000
0001
0010
0001
1000
0100
,
0010
0001
1000
0100
1000
0001
0100
0010
0100
0001
1000
0001
0100
0010
1000
0001
,
0010
0100
0010
0001
1000
0100
1000
0001
0100
0010
0100
0001
1000
0100
0010
0100
,
1000
0001
1000
0010
0100
0010
1000
0001
0100
0001
1000
0100
0010
0001
1000
0100
,
1000
0001
0100
0010
0100
0001
1000
0001
0010
0100
1000
0001
0100
0010
0100
0001
,
1000
0100
0010
0100
1000
0001
0100
0010
0100
0001
1000
0100
0010
0001
1000
0010
,
1000
0001
0100
0010
1000
0001
0010
0100
1000
0001
0100
0010
0100
0001
1000
0100
,
1000
0001
0100
0001
1000
0100
1000
0001
0100
0010
0100
0001
1000
0100
0010
0001
,
1000
0010
0100
0010
1000
0001
0010
0100
1000
0001
0100
0010
0100
0001
1000
0100
,
0010
0100
1000
0001
0100
0001
1000
0010
0100
0001
1000
0100
1000
0001
0010
0100
,
1000
0010
0100
0001
0010
0001
1000
0100
1000
0010
0100
0001
0010
0100
1000
0010
,
0100
0001
1000
0010
0100
0001
1000
0100
0010
0100
1000
0010
0100
0001
0010
0001
,
1000
0100
0010
0001
0100
0010
1000
0100
0010
0001
0100
0010
0100
0001
1000
0100
,
1000
0010
0100
0001
0010
0001
0100
0010
1000
0000
0000
0000
0000
0000
0000
0000
,
4001
0000
0000
0000
,
0000
0000
0000
0000
,
0000
0000
0000
0000
,
0000
0000
0000
0000
,
0000
0000
0000
0000
0000
0000
0000
3000
,
0200
0300
2000
3000
0002
0003
0200
0300
,
0002
0003
0020
0030
0200
0300
2000
3000
,
0020
0030
0200
0300
0002
0003
0020
0030
,
0100
1000
0001
0100
0010
0100
0001
0000
,
1002
0003
2000
3000
0200
0300
0020
0030
,
0002
0000
0003
0000
2000
0000
3000
0000
0001
0000
1000
0000
0010
1000
0001
0010
,
0100
1000
0010
0100
0001
1000
0100
0010
,
0001
0100
0010
1000
0100
1000
0010
0100
0001
0010
0100
1000
0010
0100
0001
0010
,
0004
0000
0000
0000
,
0000
0000
0000
0000
,
0000
0000
0000
0000
,
0000
0000
0000
0000
,
0000
0000
0000
0000
0000
0000
0000
0003
,
1000
0000
0001
0010
0100
0000
1000
0000
0001
0000
1000
0010
0100
0000
0001
0000
,
0010
0000
0100
1000
0001
0000
0100
0000
0010
0000
1000
0000
0100
0000
0000
0000
,
1000
0000
0010
0100
0001
0000
0010
0000
0100
0000
1000
0001
0100
0000
0010
0000
,
1000
0000
0001
0010
0100
0000
1000
0000
0001
0000
0100
0000
0010
0000
0000
0000
,
1000
0000
0010
0100
0001
0000
0010
0000
0100
0000
1000
0010
0100
0000
0001
0000
,
1000
0000
0001
0010
0100
0000
1000
0000
0010
0000
0100
0000
0001
0000
0000
0000
,
0100
0000
0001
1000
0100
0000
0010
0000
0001
0000
0010
0100
1000
0000
0001
0000
,
1000
0000
0001
1000
0010
0000
0100
0000
0001
0000
1000
0000
0010
0000
0000
0000
,
1000
0100
1000
0010
0100
0001
0010
0100
1000
0001
0100
0010
0100
0001
1000
0100
,
1000
0001
0100
0010
0100
0001
1000
0001
0010
0100
1000
0010
0100
0001
0010
0001
,
1000
0100
1000
0010
0100
0001
0010
0100
1000
0001
1000
0010
0100
0001
1000
0100
,
0010
0100
1000
0001
0100
0010
0100
0001
1000
0100
0010
0001
0100
0010
1000
0100
,
1000
0001
0010
0100
1000
0001
0100
0010
1000
0100
1000
0010
0100
0001
0010
0100
,
1000
0001
0100
0010
0100
0001
0010
0100
1000
0010
0100
0001
1000
0100
0010
0001
,
2000
0000
0000
3200
0000
0000
0320
0000
,
0000
0032
0000
0000
2003
0000
3020
0000
,
1030
0000
0001
0010
0100
0000
1000
0000
0010
0000
0100
0001
0010
0000
0100
0000
,
1000
0000
0001
0100
0010
0000
1000
0000
0100
0000
0010
0100
1000
0000
0001
0000
,
1000
0010
0100
0001
1000
0001
0100
0010
1000
0001
1000
0100
0010
0001
1000
0100
,
1000
0001
0100
0010
1000
0001
0100
0001
1000
0100
0010
0001
1000
0100
1000
0001
,
1000
0000
0010
0100
0001
0000
0010
0000
0100
0000
1000
0010
0100
0000
0001
0000
,
1000
0000
0100
1000
0010
0000
0100
0000
0001
0000
0010
0100
1000
0000
0001
0000
,
1000
0010
0100
0010
1000
0001
0100
0001
1000
0100
0010
0100
1000
0001
0010
0001
,
1000
0010
1000
0001
0100
0010
0100
0001
1000
0100
0010
0001
1000
0100
1000
0001
,
4000
0000
0000
0000
,
0000
0000
0000
0000
,
0000
0000
0000
0000
,
0000
0000
0000
0000
,
0000
0000
0000
0000
0000
0000
0000
0000
0000
0000
0000
0000
0000
0000
0000
3000
,
0001
0100
0001
1000
0010
0100
0001
1000
0001
0010
0100
1000
0001
0100
0010
0100
,
0001
1000
0100
0010
0100
1000
0001
0100
0010
0100
0001
1000
0100
0010
0001
1000
,
0001
0100
0010
0100
0001
1000
0100
0010
0100
1000
0001
0010
0001
1000
0100
1000
,
0001
0100
0010
0100
0001
1000
0001
0010
0100
1000
0001
0100
0001
1000
0010
0100
,
0001
0010
0100
1000
0010
0100
0001
0100
0010
1000
0001
0010
0100
0010
0001
0100
,
0010
1000
0100
1000
0001
0010
0100
1000
0010
0100
0001
1000
0100
1000
0010
0100
,
0001
0010
0100
1000
0001
0010
0001
0100
0010
1000
0100
0010
0100
1000
0001
0100
,
0010
0100
0001
0010
0100
1000
0010
0100
0002
0000
0000
0000
0000
0000
0000
0000
,
0003
0000
0000
0000
;

//---------------dance-single - J. Nero----------------
#NOTES:
     dance-single:
     J. Nero:
     Medium:
     18:
     1.000,1.000,0.010,0.238,1.000,864.000,1.000,25.000,0.000,0.000:
0000
0000
0000
0000
,
0000
0000
0000
0000
,
0000
0000
0000
0000
,
0000
0000
0000
0000
,
0000
0000
0000
0000
,
1000
0000
0001
0100
0001
0000
1000
0000
0100
0000
0010
0001
1000
0000
0100
0000
,
1000
0000
0001
0100
0001
0000
1000
0000
0010
0000
0100
0001
0010
0000
0100
0000
,
1000
0000
0001
0100
0001
0000
1000
0100
0010
0000
0100
1000
0001
0000
0100
0001
,
0100
0000
0010
1000
0010
0000
0100
0001
1000
0000
0001
0010
0100
1000
0001
0000
,
0100
0000
0001
0010
0100
0000
1000
0000
0001
0000
0100
0001
1000
0000
0100
0000
,
1000
0000
0010
0100
0001
0000
0010
0000
0100
0000
1000
0001
0100
0000
0001
0000
,
1000
0000
0100
1000
0001
0000
0100
0010
0100
0000
0001
1000
0001
0000
1000
0100
,
0010
0000
0001
1000
0001
0000
0100
0010
1000
0000
0001
1000
0100
0010
0001
0000
,
0100
0000
0001
0010
0100
0000
1000
0000
0010
0000
0100
0001
0010
0000
0100
0000
,
1000
0000
0001
0100
0010
0000
1000
0000
0100
0000
0010
0100
1000
0000
0010
0000
,
1000
0000
0001
0010
0100
0000
1000
0001
0100
0000
0010
1000
0100
0000
0010
0001
,
1000
0000
0001
0100
0010
0000
0100
0001
1000
0000
0100
0010
0001
1000
0001
0000
,
1000
0000
0100
1000
0010
0000
0100
0000
0001
0000
0010
0100
1000
0000
0010
0000
,
1000
0000
0100
0010
0001
0000
1000
0000
0010
0000
0100
0001
0010
0000
0100
0000
,
1000
0000
0001
0100
0010
0000
0100
0001
0100
0000
0010
1000
0010
0000
0100
0001
,
1000
0000
0001
0010
0100
0000
1000
0001
1000
0000
0010
0100
0001
1000
0001
0000
,
1000
0010
0100
0010
1000
0001
0010
0100
1000
0001
0100
0010
0100
0001
1000
0100
,
0010
0001
1000
0100
1000
0001
0100
0010
0100
0001
1000
0001
0010
0100
1000
0001
,
0100
0010
0100
0001
1000
0100
1000
0001
0100
0010
1000
0001
0010
0001
1000
0100
,
0010
0001
1000
0100
1000
0001
0100
0010
0100
0001
1000
0001
0100
0010
1000
0001
,
0010
0100
0010
0001
1000
0100
1000
0001
0100
0010
0100
0001
1000
0100
0010
0100
,
1000
0001
1000
0010
0100
0010
1000
0001
0100
0001
1000
0100
0010
0001
1000
0100
,
1000
0001
0100
0010
0100
0001
1000
0001
0010
0100
1000
0001
0100
0010
0100
0001
,
1000
0100
0010
0100
1000
0001
0100
0010
0100
0001
1000
0100
0010
0001
1000
0010
,
1000
0001
0100
0010
1000
0001
0010
0100
1000
0001
0100
0010
0100
0001
1000
0100
,
1000
0001
0100
0001
1000
0100
1000
0001
0100
0010
0100
0001
1000
0100
0010
0001
,
1000
0010
0100
0010
1000
0001
0010
0100
1000
0001
0100
0010
0100
0001
1000
0100
,
0010
0100
1000
0001
0100
0001
1000
0010
0100
0001
1000
0100
1000
0001
0010
0100
,
1000
0010
0100
0001
0010
0001
1000
0100
1000
0010
0100
0001
0010
0100
1000
0010
,
0100
0001
1000
0010
0100
0001
1000
0100
0010
0100
1000
0010
0100
0001
0010
0001
,
1000
0100
0010
0001
0100
0010
1000
0100
0010
0001
0100
0010
0100
0001
1000
0100
,
1000
0010
0100
0001
0010
0001
0100
0010
1000
0000
0000
0000
0000
0000
0000
0000
,
4001
0000
0000
0000
,
0000
0000
0000
0000
,
0000
0000
0000
0000
,
0000
0000
0000
0000
,
0000
0000
0000
0000
0000
0000
0000
3000
,
0200
0300
2000
3000
0002
0003
0200
0300
,
0002
0003
0020
0030
0200
0300
2000
3000
,
0020
0030
0200
0300
0002
0003
0020
0030
,
0100
1000
0001
0100
0010
0100
0001
0000
,
1002
0003
2000
3000
0200
0300
0020
0030
,
0002
0000
0003
0000
2000
0000
3000
0000
0001
0000
1000
0000
0010
1000
0001
0010
,
0100
1000
0010
0100
0001
1000
0100
0010
,
0001
0100
0010
1000
0100
1000
0010
0100
0001
0010
0100
1000
0010
0100
0001
0010
,
0004
0000
0000
0000
,
0000
0000
0000
0000
,
0000
0000
0000
0000
,
0000
0000
0000
0000
,
0000
0000
0000
0000
0000
0000
0000
0003
,
1000
0000
0001
0010
0100
0000
1000
0000
0001
0000
1000
0010
0100
0000
0001
0000
,
0010
0000
0100
1000
0001
0000
0100
0000
0010
0000
1000
0000
0100
0000
0000
0000
,
1000
0000
0010
0100
0001
0000
0010
0000
0100
0000
1000
0001
0100
0000
0010
0000
,
1000
0000
0001
0010
0100
0000
1000
0000
0001
0000
0100
0000
0010
0000
0000
0000
,
1000
0000
0010
0100
0001
0000
0010
0000
0100
0000
1000
0010
0100
0000
0001
0000
,
1000
0000
0001
0010
0100
0000
1000
0000
0010
0000
0100
0000
0001
0000
0000
0000
,
0100
0000
0001
1000
0100
0000
0010
0000
0001
0000
0010
0100
1000
0000
0001
0000
,
1000
0000
0001
1000
0010
0000
0100
0000
0001
0000
1000
0000
0010
0000
0000
0000
,
1000
0100
1000
0010
0100
0001
0010
0100
1000
0001
0100
0010
0100
0001
1000
0100
,
1000
0001
0100
0010
0100
0001
1000
0001
0010
0100
1000
0010
0100
0001
0010
0001
,
1000
0100
1000
0010
0100
0001
0010
0100
1000
0001
1000
0010
0100
0001
1000
0100
,
0010
0100
1000
0001
0100
0010
0100
0001
1000
0100
0010
0001
0100
0010
1000
0100
,
1000
0001
0010
0100
1000
0001
0100
0010
1000
0100
1000
0010
0100
0001
0010
0100
,
1000
0001
0100
0010
0100
0001
0010
0100
1000
0010
0100
0001
1000
0100
0010
0001
,
2000
0000
0000
3200
0000
0000
0320
0000
,
0000
0032
0000
0000
2003
0000
3020
0000
,
1030
0000
0001
0010
0100
0000
1000
0000
0010
0000
0100
0001
0010
0000
0100
0000
,
1000
0000
0001
0100
0010
0000
1000
0000
0100
0000
0010
0100
1000
0000
0001
0000
,
1000
0000
0001
0100
0010
0000
0100
0001
1000
0000
0001
0010
0100
0000
1000
0001
,
1000
0000
0010
0100
0001
0000
0010
0100
1000
0000
0001
0010
0100
1000
0010
0000
,
1000
0000
0010
0100
0001
0000
0010
0000
0100
0000
1000
0010
0100
0000
0001
0000
,
1000
0000
0100
1000
0010
0000
0100
0000
0001
0000
0010
0100
1000
0000
0001
0000
,
1000
0000
0001
0100
0010
0000
0100
0001
1000
0000
0001
0010
0100
0000
1000
0001
,
1000
0000
0010
0100
0001
0000
1000
0100
0010
0000
0001
0010
0100
1000
0010
0000
,
4000
0000
0000
0000
,
0000
0000
0000
0000
,
0000
0000
0000
0000
,
0000
0000
0000
0000
,
0000
0000
0000
0000
0000
0000
0000
0000
0000
0000
0000
0000
0000
0000
0000
3000
,
0001
0100
0001
1000
0010
0100
0001
1000
0001
0010
0100
1000
0001
0100
0010
0100
,
0001
1000
0100
0010
0100
1000
0001
0100
0010
0100
0001
1000
0100
0010
0001
1000
,
0001
0100
0010
0100
0001
1000
0100
0010
0100
1000
0001
0010
0001
1000
0100
1000
,
0001
0100
0010
0100
0001
1000
0001
0010
0100
1000
0001
0100
0001
1000
0010
0100
,
0001
0010
0100
1000
0010
0100
0001
0100
0010
1000
0001
0010
0100
0010
0001
0100
,
0010
1000
0100
1000
0001
0010
0100
1000
0010
0100
0001
1000
0100
1000
0010
0100
,
0001
0010
0100
1000
0001
0010
0001
0100
0010
1000
0100
0010
0100
1000
0001
0100
,
0010
0100
0001
0010
0100
1000
0010
0100
0002
0000
0000
0000
0000
0000
0000
0000
,
0003
0000
0000
0000
;

//---------------dance-single - J. Nero----------------
#NOTES:
     dance-single:
     J. Nero:
     Easy:
     18:
     1.000,1.000,0.010,0.238,1.000,834.000,1.000,25.000,0.000,0.000:
0000
0000
0000
0000
,
0000
0000
0000
0000
,
0000
0000
0000
0000
,
0000
0000
0000
0000
,
0000
0000
0000
0000
,
1000
0000
0001
0100
0001
0000
1000
0000
0100
0000
0010
0001
1000
0000
0100
0000
,
1000
0000
0001
0100
0001
0000
1000
0000
0010
0000
0100
0001
0010
0000
0100
0000
,
1000
0000
0001
0100
0001
0000
1000
0100
0010
0000
0100
1000
0001
0000
0100
0001
,
0100
0000
0010
1000
0010
0000
0100
0001
1000
0000
0001
0010
0100
1000
0001
0000
,
0100
0000
0001
0010
0100
0000
1000
0000
0001
0000
0100
0001
1000
0000
0100
0000
,
1000
0000
0010
0100
0001
0000
0010
0000
0100
0000
1000
0001
0100
0000
0001
0000
,
1000
0000
0100
1000
0001
0000
0100
0010
0100
0000
0001
1000
0001
0000
1000
0100
,
0010
0000
0001
1000
0001
0000
0100
0010
1000
0000
0001
1000
0100
0010
0001
0000
,
0100
0000
0001
0010
0100
0000
1000
0000
0010
0000
0100
0001
0010
0000
0100
0000
,
1000
0000
0001
0100
0010
0000
1000
0000
0100
0000
0010
0100
1000
0000
0010
0000
,
1000
0000
0001
0010
0100
0000
1000
0001
0100
0000
0010
1000
0100
0000
0010
0001
,
1000
0000
0001
0100
0010
0000
0100
0001
1000
0000
0100
0010
0001
1000
0010
0000
,
1000
0000
0100
1000
0010
0000
0100
0000
0001
0000
0010
0100
1000
0000
0010
0000
,
1000
0000
0100
0010
0001
0000
1000
0000
0010
0000
0100
0001
0010
0000
0100
0000
,
1000
0000
0001
0100
0010
0000
0100
0001
0100
0000
0010
1000
0010
0000
0100
0001
,
1000
0000
0001
0010
0100
0000
1000
0001
1000
0000
0010
0100
0001
1000
0001
0000
,
1000
0100
0010
0001
1000
0000
0001
0000
0100
0010
0100
0001
1000
0000
0100
0000
,
0010
0001
1000
0001
0100
0000
0010
0000
1000
0100
1000
0001
0010
0000
0100
0000
,
1000
0001
0100
0010
0100
0000
0001
0000
0010
0100
1000
0001
1000
0000
0010
0000
,
0100
0001
1000
0100
0010
0000
0001
0000
1000
0010
0100
0010
1000
0000
0001
0000
,
0010
0100
1000
0001
0100
0000
0010
0000
1000
0100
0010
0001
1000
0000
0010
0000
,
0100
0001
1000
0100
0010
0000
0001
0000
1000
0100
1000
0001
0100
0000
0010
0000
,
1000
0100
1000
0001
0010
0000
0100
0000
1000
0010
0100
0001
0100
0000
0001
0000
,
0010
0100
1000
0001
1000
0000
0010
0000
0100
0001
1000
0100
0010
0001
1000
0010
,
1000
0001
0100
0010
1000
0001
0010
0100
1000
0001
0100
0010
0100
0001
1000
0100
,
1000
0001
0100
0001
1000
0100
1000
0001
0100
0010
0100
0001
1000
0100
0010
0001
,
1000
0010
0100
0010
1000
0001
0010
0100
1000
0001
0100
0010
0100
0001
1000
0100
,
0010
0100
1000
0001
0100
0001
1000
0010
0100
0001
1000
0100
1000
0001
0010
0100
,
1000
0010
0100
0001
0010
0001
1000
0100
1000
0010
0100
0001
0010
0100
1000
0010
,
0100
0001
1000
0010
0100
0001
1000
0100
0010
0100
1000
0010
0100
0001
0010
0001
,
1000
0100
0010
0001
0100
0010
1000
0100
0010
0001
0100
0010
0100
0001
1000
0100
,
1000
0010
0100
0001
0010
0001
0100
0010
1000
0000
0000
0000
0000
0000
0000
0000
,
4001
0000
0000
0000
,
0000
0000
0000
0000
,
0000
0000
0000
0000
,
0000
0000
0000
0000
,
0000
0000
0000
0000
0000
0000
0000
3000
,
0200
0300
2000
3000
0002
0003
0200
0300
,
0002
0003
0020
0030
0200
0300
2000
3000
,
0020
0030
0200
0300
0002
0003
0020
0030
,
0100
1000
0001
0100
0010
0100
0001
0000
,
1002
0003
2000
3000
0200
0300
0020
0030
,
0002
0000
0003
0000
2000
0000
3000
0000
0001
0000
1000
0000
0010
1000
0001
0010
,
0100
1000
0010
0100
0001
1000
0100
0010
,
0001
0100
0010
1000
0100
1000
0010
0100
0001
0010
0100
1000
0010
0100
0001
0010
,
0004
0000
0000
0000
,
0000
0000
0000
0000
,
0000
0000
0000
0000
,
0000
0000
0000
0000
,
0000
0000
0000
0000
0000
0000
0000
0003
,
1000
0000
0001
0010
0100
0000
1000
0000
0001
0000
1000
0010
0100
0000
0001
0000
,
0010
0000
0100
1000
0001
0000
0100
0000
0010
0000
1000
0000
0100
0000
0000
0000
,
1000
0000
0010
0100
0001
0000
0010
0000
0100
0000
1000
0001
0100
0000
0010
0000
,
1000
0000
0001
0010
0100
0000
1000
0000
0001
0000
0100
0000
0010
0000
0000
0000
,
1000
0000
0010
0100
0001
0000
0010
0000
0100
0000
1000
0010
0100
0000
0001
0000
,
1000
0000
0001
0010
0100
0000
1000
0000
0010
0000
0100
0000
0001
0000
0000
0000
,
0100
0000
0001
1000
0100
0000
0010
0000
0001
0000
0010
0100
1000
0000
0001
0000
,
1000
0000
0001
1000
0010
0000
0100
0000
0001
0000
1000
0000
0010
0000
0000
0000
,
1000
0100
1000
0010
0100
0001
0010
0100
1000
0001
0100
0010
0100
0001
1000
0100
,
1000
0001
0100
0010
0100
0001
1000
0001
0010
0100
1000
0010
0100
0001
0010
0001
,
1000
0100
1000
0010
0100
0001
0010
0100
1000
0001
1000
0010
0100
0001
1000
0100
,
0010
0100
1000
0001
0100
0010
0100
0001
1000
0100
0010
0001
0100
0010
1000
0100
,
1000
0001
0010
0100
1000
0001
0100
0010
1000
0100
1000
0010
0100
0001
0010
0100
,
1000
0001
0100
0010
0100
0001
0010
0100
1000
0010
0100
0001
1000
0100
0010
0001
,
2000
0000
0000
3200
0000
0000
0320
0000
,
0000
0032
0000
0000
2003
0000
3020
0000
,
1030
0000
0001
0010
0100
0000
1000
0000
0010
0000
0100
0001
0010
0000
0100
0000
,
1000
0000
0001
0100
0010
0000
1000
0000
0100
0000
0010
0100
1000
0000
0001
0000
,
1000
0000
0001
0100
0010
0000
0100
0001
1000
0000
0001
0010
0100
0000
1000
0001
,
1000
0000
0010
0100
0001
0000
0010
0100
1000
0000
0001
0010
0100
1000
0010
0000
,
1000
0000
0010
0100
0001
0000
0010
0000
0100
0000
1000
0010
0100
0000
0001
0000
,
1000
0000
0100
1000
0010
0000
0100
0000
0001
0000
0010
0100
1000
0000
0001
0000
,
1000
0000
0001
0100
0010
0000
0100
0001
1000
0000
0001
0010
0100
0000
1000
0001
,
1000
0000
0010
0100
0001
0000
1000
0100
0010
0000
0001
0010
0100
1000
0010
0000
,
4000
0000
0000
0000
,
0000
0000
0000
0000
,
0000
0000
0000
0000
,
0000
0000
0000
0000
,
0000
0000
0000
0000
0000
0000
0000
0000
0000
0000
0000
0000
0000
0000
0000
3000
,
0001
0100
0001
1000
0010
0100
0001
1000
0001
0010
0100
1000
0001
0100
0010
0100
,
0001
1000
0100
0010
0100
1000
0001
0100
0010
0100
0001
1000
0100
0010
0001
1000
,
0001
0100
0010
0100
0001
1000
0100
0010
0100
1000
0001
0010
0001
1000
0100
1000
,
0001
0100
0010
0100
0001
1000
0001
0010
0100
1000
0001
0100
0001
1000
0010
0100
,
0001
0010
0100
1000
0010
0100
0001
0100
0010
1000
0001
0010
0100
0010
0001
0100
,
0010
1000
0100
1000
0001
0010
0100
1000
0010
0100
0001
1000
0100
1000
0010
0100
,
0001
0010
0100
1000
0001
0010
0001
0100
0010
1000
0100
0010
0100
1000
0001
0100
,
0010
0100
0001
0010
0100
1000
0010
0100
0002
0000
0000
0000
0000
0000
0000
0000
,
0003
0000
0000
0000
;
