#TITLE:What A World (Original Mix);
#SUBTITLE:Feels The Arrow;
#ARTIST:Alex S. feat. Steven Magnet;
#TITLETRANSLIT:;
#SUBTITLETRANSLIT:;
#ARTISTTRANSLIT:;
#CREDIT:Ov3rHell3XoduZ;
#BANNER:../bn.png;
#BACKGROUND:../bg.png;
#LYRICSPATH:;
#CDTITLE:;
#MUSIC:WAW.ogg;
#OFFSET:-1.956;
#SAMPLESTART:42.039;
#SAMPLELENGTH:11.960;
#SELECTABLE:YES;
#BPMS:0.000=124.970,164.000=62.485,180.000=124.970,211.000=126.000,212.000=124.970,251.000=126.000,252.000=124.970;
#STOPS:;
#BGCHANGES:;
// cache tags:
#FIRSTBEAT:4.000;
#LASTBEAT:407.750;
#SONGFILENAME:Songs/EXoduz' Feels The Arrow/What A World - [Ov3rHell3XoduZ]/WAW.sm;
#HASMUSIC:1;
#HASBANNER:1;
#MUSICLENGTH:211.136;
// end cache tags

//---------------dance-single - Ov3rHell3XoduZ----------------
#NOTES:
     dance-single:
     Ov3rHell3XoduZ:
     Challenge:
     10:
     0.792,1.000,0.166,0.715,0.907,984.000,35.000,151.000,36.000,0.000:

0000
0000
0000
0000
,
MMMM
0000
0000
0000
,
MMMM
0000
0000
0000
,
MMMM
0000
0000
0000
,
MMMM
0000
0000
0000
,
MMMM
0000
0000
0000
,
MMMM
0000
0000
0000
,
MMMM
0000
0000
0000
,
MMMM
0000
0000
0000
0000
0000
0000
0000
0000
0000
0000
0000
0000
0000
0000
0000
0000
0000
0000
0000
0000
0000
0000
1000
,
0100
0000
0000
0000
0000
0000
0000
0000
0000
0000
0000
0000
0000
0000
0000
0000
0000
0000
0000
0000
0000
0000
0000
0000
0100
0000
0000
0000
0000
0000
0000
0000
0000
0000
0000
0000
0000
0000
0000
0000
0000
0000
0000
0000
0000
0000
0000
0000
1000
0000
0000
0000
0000
0000
0000
0000
0000
0000
0000
0000
0000
0000
0000
0000
0000
0000
0000
0000
0000
0000
0000
0000
0001
0000
0000
0000
0000
0000
0000
0000
0000
0000
0000
0000
0000
0000
0000
0000
0000
0000
0000
0000
0000
0000
0000
0000
1000
0000
0000
0000
0000
0000
0000
0000
0000
0000
0000
0000
0000
0000
0000
0000
0000
0000
0000
0000
0000
0000
0000
0000
0001
0000
0000
0000
0000
0000
0100
0000
0000
0000
0000
0000
0001
0000
0000
0000
0000
0000
0000
0000
0000
0000
0000
0000
0100
0000
0000
0000
0000
0000
0000
0000
0000
0000
0000
0000
0001
0000
0000
0000
0000
0000
0000
0000
0000
0000
0000
0000
0100
0000
0000
0000
0000
0000
0000
0000
0000
0000
0000
0000
0000
0000
0000
0000
0010
0000
0000
0000
0000
0000
0000
0000
,
1000
0000
0000
0200
0000
0000
0000
0000
0000
2300
0000
0000
0000
0000
0000
0000
0000
0000
3010
0000
0000
0000
0100
0000
0001
0000
0000
2000
0000
0000
3000
0000
0000
2000
0000
0000
0000
0000
0000
3000
0000
0000
1000
0000
0000
0100
0000
0000
,
0010
0000
0000
0000
0001
0000
0000
0000
0101
0000
0000
0000
0100
0000
0000
0000
0110
0000
0000
0000
0010
1000
0010
0000
1000
0000
0001
0000
1000
0000
0000
0000
,
1000
0000
0000
0002
0000
0000
0000
0000
0000
2003
0000
0000
0000
0000
0000
0000
0000
0000
3001
0000
0000
0000
0100
0000
0010
0000
0000
0000
1000
0000
0100
0000
0000
0000
0010
0000
0001
0000
0000
0000
0000
0000
0000
0000
0000
0000
0000
0000
,
1100
0000
0000
0000
0000
0000
0000
0000
0000
0000
0000
0000
0000
0000
0000
0000
0000
0000
0000
0000
0000
0000
0000
0000
0100
0000
0000
0000
0000
0000
0000
0000
0000
0000
0000
0000
0000
0000
0000
0000
0000
0000
0000
0000
0000
0000
0000
0000
0011
0000
0000
0000
0000
0000
0000
0000
0000
0000
0000
0000
0000
0000
0000
0000
0000
0000
0000
0000
0000
0000
0000
0000
0001
0000
0000
0000
0000
0000
0000
0000
0000
0000
0000
0000
0000
0000
0000
0000
0000
0000
0000
0000
0000
0000
0000
0000
0101
0000
0000
0000
0000
0000
0000
0000
0000
0000
0000
0000
0000
0000
0000
0000
0000
0000
0000
0000
0000
0000
0000
0000
0100
0000
0000
0000
0000
0000
0010
0000
0000
0000
0000
0000
1000
0000
0000
0000
0000
0000
0000
0000
0000
0000
0000
0000
0100
0000
0000
0000
0000
0000
0000
0000
0000
0000
0000
0000
0010
0000
0000
0000
0000
0000
0000
0000
0000
0000
0000
0000
0001
0000
0000
0000
0000
0000
0000
0000
0000
0000
0000
0000
0000
0000
0000
0000
1000
0000
0000
0000
0000
0000
0000
0000
,
0100
0000
0000
0020
0000
0000
0030
0000
0000
0020
0000
0000
0000
0000
0000
0032
0000
0000
0103
0000
0000
0000
0010
0000
1000
0000
0000
0000
0000
0000
0001
0000
0000
0000
1000
0000
0100
0000
0000
0000
0000
0000
0010
0000
0000
0001
0000
0000
,
1000
0000
0000
0000
0100
0000
0000
0000
0110
0000
0000
0000
0010
0000
0000
0000
0011
0000
0000
0000
0001
0100
0001
0000
1000
0000
0100
0000
0010
0000
0000
0000
,
0001
0000
0000
1000
0000
0000
0001
0000
0000
0100
0000
0000
0001
0000
0000
1000
0000
0000
0200
0000
0000
0020
0000
0000
0000
0000
0000
0000
0000
0000
0330
0000
0000
0000
0000
0000
0002
0000
0000
0000
0000
0000
0000
0000
0000
0000
1003
0000
,
0100
0000
0000
0000
0000
0000
0010
0000
0000
0000
0001
0000
0100
0000
0000
0000
0000
0000
0010
0000
0000
0000
1000
0000
0100
0000
0000
0000
0000
0000
0010
0000
0000
0001
0000
0000
1000
0000
0000
0100
0000
0000
0010
0000
0000
0000
0001
0000
,
1000
0000
0000
0100
0000
0000
0000
0000
0000
0000
1000
0000
0010
0000
0000
0000
0000
0000
0100
0000
0000
0000
0001
0000
0010
0000
0000
0200
0000
0000
0000
0000
0000
2300
0000
0000
0000
0000
0000
0000
0000
0000
3001
0000
0000
0100
0000
0000
,
0010
0000
0000
0000
0000
0000
1000
0000
0000
0000
0000
0000
1100
0000
0000
0000
0000
0000
0100
0000
0000
0000
0010
0000
0001
0000
0000
0000
0000
0000
1000
0000
0000
0100
0000
0000
0010
0000
0000
0001
0000
0000
1000
0000
0000
0000
0100
0000
,
0010
0000
0000
0002
0000
0000
0000
0000
0000
2003
0000
0000
0000
0000
0000
0000
0000
0000
3010
0000
0000
0000
0100
0000
0001
0000
0000
0000
1000
0000
0100
0000
0000
0000
0010
0000
0001
0000
0000
0000
0000
0000
1000
0000
0000
0000
0000
0000
,
1100
0000
0000
0000
0000
0000
0000
0000
0000
0000
0000
0000
0000
0000
0000
0000
0000
0000
0000
0000
0000
0000
0000
0000
0100
0000
0000
0000
0000
0000
0000
0000
0000
0000
0000
0000
0000
0000
0000
0000
0010
0000
0000
0000
0000
0000
0000
0000
0001
0000
0000
0000
0000
0000
0000
0000
0000
0000
0000
0000
0000
0000
0000
0000
0000
0000
0000
0000
0000
0000
0000
0000
1000
0000
0000
0000
0000
0000
0000
0000
0000
0000
0000
0000
0000
0000
0000
0000
0000
0000
0000
0000
0000
0000
0000
0000
1010
0000
0000
0000
0000
0000
0000
0000
0000
0000
0000
0000
0000
0000
0000
0000
0000
0000
0000
0000
0000
0000
0000
0000
0100
0000
0000
0000
0000
0000
0001
0000
0000
0000
0000
0000
0010
0000
0000
0000
0000
0000
0000
0000
0000
0000
0000
0000
0100
0000
0000
0000
0000
0000
0000
0000
0000
0000
0000
0000
1000
0000
0000
0000
0000
0000
0000
0000
0000
0000
0000
0000
0001
0000
0000
0000
0000
0000
0000
0000
0000
0000
0000
0000
0000
0000
0000
0000
0000
0000
0000
0000
0000
0000
0000
0000
,
1000
0000
0000
0200
0000
0000
0000
0000
0000
0320
0000
0000
0000
0000
0000
0000
0000
0000
0031
0000
0000
0000
0100
0000
0010
0000
0000
1000
0000
0000
0000
0000
0000
0100
0000
0000
0000
0000
0000
0000
0000
0000
0010
0000
0000
0001
0000
0000
,
1000
0000
0000
0000
0000
0000
0000
0000
0000
0000
0000
0000
0000
0000
0000
0000
0000
0000
0000
0000
0000
0000
0000
0000
1000
0000
0000
0000
0000
0000
0000
0000
0000
0000
0000
0000
0000
0000
0000
0000
0001
0000
0000
0000
0000
0000
0000
0000
0100
0000
0000
0000
0000
0000
0000
0000
0000
0000
0000
0000
0000
0000
0000
0000
0000
0000
0000
0000
0000
0000
0000
0000
0010
0000
0000
0000
0000
0000
0000
0000
0000
0000
0000
0000
0000
0000
0000
0000
1000
0000
0000
0000
0000
0000
0000
0000
0100
0000
0000
0000
0000
0000
0000
0000
0000
0000
0000
0000
0000
0000
0000
0000
0000
0000
0000
0000
0000
0000
0000
0000
0010
0000
0000
0000
0000
0000
0001
0000
0000
0000
0000
0000
1000
0000
0000
0000
0000
0000
0000
0000
0000
0000
0000
0000
0001
0000
0000
0000
0000
0000
0000
0000
0000
0000
0000
0000
0100
0000
0000
0000
0000
0000
0000
0000
0000
0000
0000
0000
0001
0000
0000
0000
0000
0000
0000
0000
0000
0000
0000
0000
0000
0000
0000
0000
0000
0000
0000
0000
0000
0000
0000
0000
,
1000
0000
0000
0100
0000
0000
0000
0000
0000
0010
0000
0000
0000
0000
0000
0000
0000
0000
0001
0000
0000
0100
0000
0000
0010
0000
0000
0000
1000
0000
0100
0000
0010
0000
0001
0000
1000
0000
0000
0100
0000
0000
1000
0000
0000
0001
0000
0000
,
0101
0000
0000
0000
0000
0000
0000
0000
0000
0000
0000
0000
0000
0000
0000
0000
0000
0000
0000
0000
0000
0000
0000
0000
0100
0000
0000
0000
0000
0000
0000
0000
0000
0000
0000
0000
0000
0000
0000
0000
0010
0000
0000
0000
0000
0000
0000
0000
1000
0000
0000
0000
0000
0000
0000
0000
0000
0000
0000
0000
0000
0000
0000
0000
0000
0000
0000
0000
0000
0000
0000
0000
0100
0000
0000
0000
0000
0000
0000
0000
0000
0000
0000
0000
0000
0000
0000
0000
0000
0000
0000
0000
0000
0000
0000
0000
0110
0000
0000
0000
0000
0000
0000
0000
0000
0000
0000
0000
0000
0000
0000
0000
0000
0000
0000
0000
0000
0000
0000
0000
0010
0000
0000
0000
0000
0000
0001
0000
0000
0000
0000
0000
1000
0000
0000
0000
0000
0000
0000
0000
0000
0000
0000
0000
0100
0000
0000
0000
0000
0000
0000
0000
0000
0000
0000
0000
1000
0000
0000
0000
0000
0000
0000
0000
0000
0000
0000
0000
0001
0000
0000
0000
0000
0000
0000
0000
0000
0000
0000
0000
0000
0000
0000
0000
1000
0000
0000
0000
0000
0000
0000
0000
,
0100
0000
0000
0020
0000
0000
0000
0000
0000
0032
0000
0000
0000
0000
0000
0000
0000
0000
1003
0000
0000
0000
0001
0000
0100
0000
0000
0020
0000
0000
0000
0000
0000
2030
0000
0000
0000
0000
0000
0000
0000
0000
3001
0000
0000
0010
0000
0000
,
0100
0000
0000
0000
0000
0000
0000
0000
0000
0000
0000
0000
0000
0000
0000
0000
0000
0000
0000
0000
0000
0000
0000
0000
0100
0000
0000
0000
0000
0000
0000
0000
0000
0000
0000
0000
0000
0000
0000
0000
1000
0000
0000
0000
0000
0000
0000
0000
0010
0000
0000
0000
0000
0000
0000
0000
0000
0000
0000
0000
0000
0000
0000
0000
0000
0000
0000
0000
0000
0000
0000
0000
0100
0000
0000
0000
0000
0000
0000
0000
0000
0000
0000
0000
0000
0000
0000
0000
0000
0000
0000
0000
0000
0000
0000
0000
0101
0000
0000
0000
0000
0000
0000
0000
0000
0000
0000
0000
0000
0000
0000
0000
0000
0000
0000
0000
0000
0000
0000
0000
0001
0000
0000
0000
0000
0000
0010
0000
0000
0000
0000
0000
0100
0000
0000
0000
0000
0000
0000
0000
0000
0000
0000
0000
1000
0000
0000
0000
0000
0000
0000
0000
0000
0000
0000
0000
0001
0000
0000
0000
0000
0000
0000
0000
0000
0000
0000
0000
0100
0000
0000
0000
0000
0000
0000
0000
0000
0000
0000
0000
0000
0000
0000
0000
0010
0000
0000
0000
0000
0000
0000
0000
,
1000
0000
0000
0200
0000
0000
0000
0000
0000
0320
0000
0000
0000
0000
0000
0000
0000
0000
0031
0000
0000
0000
1000
0000
0100
0000
0000
0000
0010
0000
0001
0000
0000
0000
1000
0000
0010
0000
0000
0000
0000
0000
0000
0000
0000
0000
0000
0000
,
0101
0000
0000
0000
0000
0000
0000
0000
0000
0000
0000
0000
0000
0000
0000
0000
0000
0000
0000
0000
0000
0000
0000
0000
0001
0000
0000
0000
0000
0000
0000
0000
0000
0000
0000
0000
0000
0000
0000
0000
0010
0000
0000
0000
0000
0000
0000
0000
0100
0000
0000
0000
0000
0000
0000
0000
0000
0000
0000
0000
0000
0000
0000
0000
0000
0000
0000
0000
0000
0000
0000
0000
1000
0000
0000
0000
0000
0000
0000
0000
0000
0000
0000
0000
0000
0000
0000
0000
0000
0000
0000
0000
0000
0000
0000
0000
1001
0000
0000
0000
0000
0000
0000
0000
0000
0000
0000
0000
0000
0000
0000
0000
0000
0000
0000
0000
0000
0000
0000
0000
0001
0000
0000
0000
0000
0000
0100
0000
0000
0000
0000
0000
0001
0000
0000
0000
0000
0000
0000
0000
0000
0000
0000
0000
1000
0000
0000
0000
0000
0000
0000
0000
0000
0000
0000
0000
0100
0000
0000
0000
0000
0000
0000
0000
0000
0000
0000
0000
0010
0000
0000
0000
0000
0000
0000
0000
0000
0000
0000
0000
0000
0000
0000
0000
0001
0000
0000
0000
0000
0000
0000
0000
,
0100
0000
0000
0020
0000
0000
0000
0000
0000
2030
0000
0000
0000
0000
0000
0000
0000
0000
3001
0000
0000
0000
0010
0000
0100
0000
0000
2000
0000
0000
0000
0000
0000
3002
0000
0000
0000
0000
0000
0000
0000
0000
0103
0000
0000
0010
0000
0000
,
1000
0000
0000
0000
0000
0000
0000
0000
0000
0000
0000
0000
0000
0000
0000
0000
0000
0000
0000
0000
0000
0000
0000
0000
1000
0000
0000
0000
0000
0000
0000
0000
0000
0000
0000
0000
0000
0000
0000
0000
0001
0000
0000
0000
0000
0000
0000
0000
0100
0000
0000
0000
0000
0000
0000
0000
0000
0000
0000
0000
0000
0000
0000
0000
0000
0000
0000
0000
0000
0000
0000
0000
0010
0000
0000
0000
0000
0000
0000
0000
0000
0000
0000
0000
0000
0000
0000
0000
1000
0000
0000
0000
0000
0000
0000
0000
0001
0000
0000
0000
0000
0000
0000
0000
0000
0000
0000
0000
0000
0000
0000
0000
0000
0000
0000
0000
0000
0000
0000
0000
0010
0000
0000
0000
0000
0000
0100
0000
0000
0000
0000
0000
1000
0000
0000
0000
0000
0000
0000
0000
0000
0000
0000
0000
0001
0000
0000
0000
0000
0000
0000
0000
0000
0000
0000
0000
0100
0000
0000
0000
0000
0000
0000
0000
0000
0000
0000
0000
0001
0000
0000
0000
0000
0000
0000
0000
0000
0000
0000
0000
0000
0000
0000
0000
1000
0000
0000
0000
0000
0000
0000
0000
,
0100
0000
0000
0020
0000
0000
0000
0000
0000
0032
0000
0000
0000
0000
0000
0000
0000
0000
1003
0000
0000
0100
0000
0000
0010
0000
0000
0000
0000
0000
0001
0000
0000
0000
0100
0000
0010
0000
0000
1000
0000
0000
0100
0000
0000
0000
0010
0000
,
0001
0000
0000
1000
0000
0000
0001
0000
0000
0000
1000
0000
0100
0000
0000
0010
0000
0000
0001
0000
0000
0000
0100
0000
0010
0000
0000
1000
0000
0000
0100
0000
0000
0000
0010
0000
0001
0000
0000
1000
0000
0000
0010
0000
0000
0000
0100
0000
,
0001
0000
0000
1000
0000
0100
0010
0000
0000
0001
0000
1000
0010
0000
0000
0100
0000
0001
1000
0000
0000
0100
0000
0010
,
0001
0000
0000
1000
0000
0010
0100
0000
0000
0001
0000
1000
0100
0000
0000
0010
0000
0001
1000
0000
0000
0010
0000
0100
,
0001
0000
0000
0010
0000
0100
1000
0000
0000
0001
0000
1000
0100
0000
0000
0010
0000
0001
1000
0000
0100
0010
0000
0001
,
0100
0000
0000
0010
0000
1000
0100
0000
0000
0010
0000
0001
1000
0000
0100
0000
0010
0000
0001
0000
0000
1000
0000
0010
,
0100
0000
0000
0001
0000
1000
0010
0000
0000
0100
0000
0001
0010
0000
0000
0100
0000
1000
0001
0000
0000
1000
0000
0010
,
0100
0000
0000
0001
0000
0010
0100
0000
0000
1000
0000
0001
0100
0000
0000
0010
0000
1000
0100
0000
0000
0010
0000
0001
,
1000
0000
0000
0100
0000
1000
0010
0000
0000
0100
0000
0001
0010
0000
0000
0100
0000
1000
0001
0000
0000
1000
0000
0100
,
0020
0032
0203
0320
2030
0000
3020
0000
,
2030
3002
0203
0320
,
2030
3200
0320
0032
2003
3002
0203
0320
,
1030
0000
0100
0010
0000
0001
0100
0000
0010
1000
0000
0001
0010
0000
0100
1000
0000
0001
0100
0000
0010
1000
0000
0001
0010
0000
0000
0100
0000
0000
1000
0000
0000
0001
0000
0000
0100
0000
0010
1000
0000
0001
0010
0100
1000
0001
1000
0001
,
0200
0000
0000
0000
0000
0000
0000
0000
0000
0000
0000
0000
0310
0000
0000
0000
0000
0000
1000
0000
0000
0000
0100
0000
0010
0000
0000
0001
0000
0000
0000
0000
0000
0000
1000
0000
0100
0000
0000
0000
0000
0000
0010
0000
0000
0000
0000
0000
,
0011
0000
0000
0000
0000
0000
0000
0000
0000
0000
0001
0000
0200
0000
0000
0000
0000
0000
0000
0000
0000
0320
0000
0000
0000
0000
0000
2030
0000
0000
0000
0000
0000
0000
3001
0000
0010
0000
0000
0000
0000
0000
0100
0000
0000
0000
1000
0000
,
0002
0000
0000
0000
0000
0000
0000
0000
0000
0000
0000
0000
0103
0000
0000
0000
0000
0000
0010
0000
0000
0000
1000
0000
0100
0000
0000
0010
0000
0000
0000
0000
0000
0000
0000
0000
0001
0000
0000
0000
0000
0000
1000
0000
0000
0000
0100
0000
,
0020
0000
0000
0000
0000
0000
0000
0000
0000
0000
0000
0000
0000
0000
0000
0000
0000
0000
0000
0000
0000
0000
0000
0000
0000
0000
0000
0000
0000
0000
0000
0000
0000
0000
0000
0000
0000
0000
0000
0000
0000
0000
0000
0000
0000
0000
0000
0000
0031
0000
0000
0000
0000
0000
0000
0000
0000
0000
0000
0000
0000
0000
0000
0000
0000
0000
0000
0000
0000
0000
0000
0000
0000
0000
0000
0000
0000
0000
0000
0000
0000
0000
0000
0000
0000
0000
0000
0000
1000
0000
0000
0000
0000
0000
0000
0000
0010
0000
0000
0000
0000
0000
0000
0000
0000
0000
0000
0000
0100
0000
0000
0000
0000
0000
0000
0000
0000
0000
0000
0000
0000
0000
0000
0000
0000
0000
0000
0000
0000
0000
0000
0000
0000
0000
0000
0000
0001
0000
0000
0000
0000
0000
0000
0000
0010
0000
0000
0000
0000
0000
0000
0000
0000
0000
0000
0000
0000
0000
0000
0000
0000
0000
0000
0000
0000
0000
0000
0000
0100
0000
0000
0000
0000
0000
1000
0000
0000
0000
0000
0000
0000
0000
0000
0000
0001
0000
0000
0000
0000
0000
0000
0000
,
0100
0000
0000
0010
0000
0000
1000
0000
0000
0100
0000
0010
0001
0000
1000
0100
0000
0000
1000
0000
0000
0001
0000
0000
,
0100
0000
0000
0010
0000
1000
0100
0000
0000
0010
0000
0001
1000
0000
0000
1000
0000
0001
1000
0000
0000
0001
0100
0010
,
2000
0000
0000
3002
0000
0000
0203
0000
0000
0320
0000
0000
2030
0000
0000
3200
0000
0000
0320
0000
0000
0031
0000
1000
,
0100
0000
0010
0001
0000
1000
0010
0000
0100
0001
1000
0100
0020
0000
0000
0000
0000
0000
0032
0000
0000
0000
0000
1003
,
0001
0000
0000
0000
0000
0000
0000
0000
0000
0000
0000
0000
0000
0000
0000
0000
0000
0000
0000
0000
0000
0000
0000
0000
0100
0000
0000
0000
0000
0000
0000
0000
0000
0000
0000
0000
0000
0000
0000
0000
0000
0000
0000
0000
0000
0000
0000
0000
0110
0000
0000
0000
0000
0000
0000
0000
0000
0000
0000
0000
0000
0000
0000
0000
0000
0000
0000
0000
0000
0000
0000
0000
0010
0000
0000
0000
0000
0000
0000
0000
0000
0000
0000
0000
0000
0000
0000
0000
0000
0000
0000
0000
0000
0000
0000
0000
1010
0000
0000
0000
0000
0000
0000
0000
0000
0000
0000
0000
0000
0000
0000
0000
0000
0000
0000
0000
0000
0000
0000
0000
1000
0000
0000
0000
0000
0000
0001
0000
0000
0000
0000
0000
0100
0000
0000
0000
0000
0000
0000
0000
0000
0000
0000
0000
0010
0000
0000
0000
0000
0000
0000
0000
0000
0000
0000
0000
1000
0000
0000
0000
0000
0000
0000
0000
0000
0000
0000
0000
0001
0000
0000
0000
0000
0000
0000
0000
0000
0000
0000
0000
0000
0000
0000
0000
0010
0000
0000
0000
0000
0000
0000
0000
,
0100
0000
0000
2000
0000
0000
0000
0000
0000
3002
0000
0000
0000
0000
0000
0000
0000
0000
0103
0000
0000
0000
0010
0000
1000
0000
0000
0002
0000
0000
0000
0000
0000
2003
0000
0000
0000
0000
0000
3000
0000
0000
1000
0000
0000
0001
0000
0000
,
0100
0000
0000
0000
0000
0000
0000
0000
0000
0000
0000
0000
0000
0000
0000
0000
0000
0000
0000
0000
0000
0000
0000
0000
0010
0000
0000
0000
0000
0000
0000
0000
0000
0000
0000
0000
0000
0000
0000
0000
0000
0000
0000
0000
0000
0000
0000
0000
1010
0000
0000
0000
0000
0000
0000
0000
0000
0000
0000
0000
0000
0000
0000
0000
0000
0000
0000
0000
0000
0000
0000
0000
0100
0000
0000
0000
0000
0000
0000
0000
0000
0000
0000
0000
0000
0000
0000
0000
0000
0000
0000
0000
0000
0000
0000
0000
0110
0000
0000
0000
0000
0000
0000
0000
0000
0000
0000
0000
0000
0000
0000
0000
0000
0000
0000
0000
0000
0000
0000
0000
0010
0000
0000
0000
0000
0000
0001
0000
0000
0000
0000
0000
1000
0000
0000
0000
0000
0000
0000
0000
0000
0000
0000
0000
0010
0000
0000
0000
0000
0000
0000
0000
0000
0000
0000
0000
0100
0000
0000
0000
0000
0000
0000
0000
0000
0000
0000
0000
0001
0000
0000
0000
0000
0000
0000
0000
0000
0000
0000
0000
0000
0000
0000
0000
1000
0000
0000
0000
0000
0000
0000
0000
,
0100
0000
0000
0020
0000
0000
0000
0000
0000
0032
0000
0000
0000
0000
0000
0000
0000
0000
1003
0000
0000
0000
0100
0000
0010
0000
0000
0000
0001
0000
0100
0000
0000
0000
0010
0000
2000
0000
0000
0000
0000
0000
0000
0000
0000
0000
3001
0000
,
0100
0000
0000
0000
0000
0000
0000
0000
0000
0000
0000
0000
0000
0000
0000
0000
0000
0000
0000
0000
0000
0000
0000
0000
0010
0000
0000
0000
0000
0000
0000
0000
0000
0000
0000
0000
0000
0000
0000
0000
0000
0000
0000
0000
0000
0000
0000
0000
1010
0000
0000
0000
0000
0000
0000
0000
0000
0000
0000
0000
0000
0000
0000
0000
0000
0000
0000
0000
0000
0000
0000
0000
1000
0000
0000
0000
0000
0000
0000
0000
0000
0000
0000
0000
0000
0000
0000
0000
0000
0000
0000
0000
0000
0000
0000
0000
1100
0000
0000
0000
0000
0000
0000
0000
0000
0000
0000
0000
0000
0000
0000
0000
0000
0000
0000
0000
0000
0000
0000
0000
0100
0000
0000
0000
0000
0000
0010
0000
0000
0000
0000
0000
0001
0000
0000
0000
0000
0000
0000
0000
0000
0000
0000
0000
1000
0000
0000
0000
0000
0000
0000
0000
0000
0000
0000
0000
0100
0000
0000
0000
0000
0000
0000
0000
0000
0000
0000
0000
1000
0000
0000
0000
0000
0000
0000
0000
0000
0000
0000
0000
0000
0000
0000
0000
0001
0000
0000
0000
0000
0000
0000
0000
,
0100
0000
0000
0020
0000
0000
0000
0000
0000
2030
0000
0000
0000
0000
0000
0000
0000
0000
3001
0000
0000
0000
0100
0000
0010
0000
0000
2000
0000
0000
0000
0000
0000
3200
0000
0000
0000
0000
0000
0000
0000
0000
0310
0000
0000
0001
0000
0000
,
1001
0000
0000
0000
0000
0000
0000
0000
0000
0000
0000
0000
0000
0000
0000
0000
0000
0000
0000
0000
0000
0000
0000
0000
1000
0000
0000
0000
0000
0000
0000
0000
0000
0000
0000
0000
0000
0000
0000
0000
0000
0000
0000
0000
0000
0000
0000
0000
1100
0000
0000
0000
0000
0000
0000
0000
0000
0000
0000
0000
0000
0000
0000
0000
0000
0000
0000
0000
0000
0000
0000
0000
0100
0000
0000
0000
0000
0000
0000
0000
0000
0000
0000
0000
0000
0000
0000
0000
0000
0000
0000
0000
0000
0000
0000
0000
0110
0000
0000
0000
0000
0000
0000
0000
0000
0000
0000
0000
0000
0000
0000
0000
0000
0000
0000
0000
0000
0000
0000
0000
0010
0000
0000
0000
0000
0000
0001
0000
0000
0000
0000
0000
0100
0000
0000
0000
0000
0000
0000
0000
0000
0000
0000
0000
0010
0000
0000
0000
0000
0000
0000
0000
0000
0000
0000
0000
1000
0000
0000
0000
0000
0000
0000
0000
0000
0000
0000
0000
0001
0000
0000
0000
0000
0000
0000
0000
0000
0000
0000
0000
0000
0000
0000
0000
0100
0000
0000
0000
0000
0000
0000
0000
,
0010
0000
0000
2000
0000
0000
0000
0000
0000
3200
0000
0000
0000
0000
0000
0000
0000
0000
0310
0000
0000
0000
0001
0000
1000
0000
0000
0000
0000
0000
0010
0000
0000
0000
0000
0000
0100
0000
0000
0001
0000
0000
1000
0000
0000
0100
0000
0000
,
0010
0000
0000
0000
0000
0000
0000
0000
0000
0000
0000
0000
0000
0000
0000
0000
0000
0000
0000
0000
0000
0000
0000
0000
0001
0000
0000
0000
0000
0000
0000
0000
0000
0000
0000
0000
0000
0000
0000
0000
0000
0000
0000
0000
0000
0000
0000
0000
0101
0000
0000
0000
0000
0000
0000
0000
0000
0000
0000
0000
0000
0000
0000
0000
0000
0000
0000
0000
0000
0000
0000
0000
0100
0000
0000
0000
0000
0000
0000
0000
0000
0000
0000
0000
0000
0000
0000
0000
0000
0000
0000
0000
0000
0000
0000
0000
0110
0000
0000
0000
0000
0000
0000
0000
0000
0000
0000
0000
0000
0000
0000
0000
0000
0000
0000
0000
0000
0000
0000
0000
0010
0000
0000
0000
0000
0000
1000
0000
0000
0000
0000
0000
0100
0000
0000
0000
0000
0000
0000
0000
0000
0000
0000
0000
0010
0000
0000
0000
0000
0000
0000
0000
0000
0000
0000
0000
0001
0000
0000
0000
0000
0000
0000
0000
0000
0000
0000
0000
1000
0000
0000
0000
0000
0000
0000
0000
0000
0000
0000
0000
0000
0000
0000
0000
0100
0000
0000
0000
0000
0000
0000
0000
,
0010
0000
0000
0002
0000
0000
0000
0000
0000
2003
0000
0000
0000
0000
0000
0000
0000
0000
3001
0000
0000
0000
0100
0000
0010
0000
0000
2000
0000
0000
0000
0000
0000
3200
0000
0000
0000
0000
0000
0000
0000
0000
1300
0000
0000
0001
0000
0000
,
0101
0000
0000
0000
0000
0000
0000
0000
0000
0000
0000
0000
0000
0000
0000
0000
0000
0000
0000
0000
0000
0000
0000
0000
0100
0000
0000
0000
0000
0000
0000
0000
0000
0000
0000
0000
0000
0000
0000
0000
0000
0000
0000
0000
0000
0000
0000
0000
0110
0000
0000
0000
0000
0000
0000
0000
0000
0000
0000
0000
0000
0000
0000
0000
0000
0000
0000
0000
0000
0000
0000
0000
0010
0000
0000
0000
0000
0000
0000
0000
0000
0000
0000
0000
0000
0000
0000
0000
0000
0000
0000
0000
0000
0000
0000
0000
1010
0000
0000
0000
0000
0000
0000
0000
0000
0000
0000
0000
0000
0000
0000
0000
0000
0000
0000
0000
0000
0000
0000
0000
1000
0000
0000
0000
0000
0000
0001
0000
0000
0000
0000
0000
0100
0000
0000
0000
0000
0000
0000
0000
0000
0000
0000
0000
0010
0000
0000
0000
0000
0000
0000
0000
0000
0000
0000
0000
1000
0000
0000
0000
0000
0000
0000
0000
0000
0000
0000
0000
0001
0000
0000
0000
0000
0000
0000
0000
0000
0000
0000
0000
0000
0000
0000
0000
0010
0000
0000
0000
0000
0000
0000
0000
,
0100
0000
0000
2000
0000
0000
0000
0000
0000
3002
0000
0000
0000
0000
0000
0000
0000
0000
0103
0000
0000
0000
0010
0000
1000
0000
0000
0000
0001
0000
0100
0000
0000
0000
0010
0000
0100
0000
0000
0000
0000
0000
0000
0000
0000
0000
0000
0000
,
0011
0000
0000
0000
0000
0000
0000
0000
0000
0000
0000
0000
0000
0000
0000
0000
0000
0000
0000
0000
0000
0000
0000
0000
0010
0000
0000
0000
0000
0000
0000
0000
0000
0000
0000
0000
0000
0000
0000
0000
0000
0000
0000
0000
0000
0000
0000
0000
0110
0000
0000
0000
0000
0000
0000
0000
0000
0000
0000
0000
0000
0000
0000
0000
0000
0000
0000
0000
0000
0000
0000
0000
0100
0000
0000
0000
0000
0000
0000
0000
0000
0000
0000
0000
0000
0000
0000
0000
0000
0000
0000
0000
0000
0000
0000
0000
1100
0000
0000
0000
0000
0000
0000
0000
0000
0000
0000
0000
0000
0000
0000
0000
0000
0000
0000
0000
0000
0000
0000
0000
1000
0000
0000
0000
0000
0000
0001
0000
0000
0000
0000
0000
1000
0000
0000
0000
0000
0000
0000
0000
0000
0000
0000
0000
0100
0000
0000
0000
0000
0000
0000
0000
0000
0000
0000
0000
0010
0000
0000
0000
0000
0000
0000
0000
0000
0000
0000
0000
0001
0000
0000
0000
0000
0000
0000
0000
0000
0000
0000
0000
0000
0000
0000
0000
1000
0000
0000
0000
0000
0000
0000
0000
,
0010
0000
0000
0200
0000
0000
0000
0000
0000
0302
0000
0000
0000
0000
0000
0000
0000
0000
0013
0000
0000
0000
0100
0000
1000
0000
0000
0002
0000
0000
0000
0000
0000
2003
0000
0000
0000
0000
0000
0000
0000
0000
3100
0000
0000
0010
0000
0000
,
0001
0000
0000
0000
0000
0000
0000
0000
0000
0000
0000
0000
0000
0000
0000
0000
0000
0000
0000
0000
0000
0000
0000
0000
1000
0000
0000
0000
0000
0000
0000
0000
0000
0000
0000
0000
0000
0000
0000
0000
0000
0000
0000
0000
0000
0000
0000
0000
1100
0000
0000
0000
0000
0000
0000
0000
0000
0000
0000
0000
0000
0000
0000
0000
0000
0000
0000
0000
0000
0000
0000
0000
0100
0000
0000
0000
0000
0000
0000
0000
0000
0000
0000
0000
0000
0000
0000
0000
0000
0000
0000
0000
0000
0000
0000
0000
0110
0000
0000
0000
0000
0000
0000
0000
0000
0000
0000
0000
0000
0000
0000
0000
0000
0000
0000
0000
0000
0000
0000
0000
0010
0000
0000
0000
0000
0000
0001
0000
0000
0000
0000
0000
1000
0000
0000
0000
0000
0000
0000
0000
0000
0000
0000
0000
0010
0000
0000
0000
0000
0000
0000
0000
0000
0000
0000
0000
0100
0000
0000
0000
0000
0000
0000
0000
0000
0000
0000
0000
0001
0000
0000
0000
0000
0000
0000
0000
0000
0000
0000
0000
0000
0000
0000
0000
1000
0000
0000
0000
0000
0000
0000
0000
,
0100
0020
0000
0032
0000
0000
1003
0010
0100
0000
0001
0000
0010
0100
1000
0001
,
1000
0000
0000
0001
0000
0100
0010
0000
0000
1000
0000
0100
0010
0000
0000
0001
0000
1000
0010
0000
0000
0100
0000
0001
,
0010
0000
0000
0100
0000
1000
0001
0000
0000
1000
0000
0010
0100
0000
0000
0001
0000
0010
0100
0000
0000
1000
0000
0001
,
0100
0000
0000
0010
0000
1000
0100
0000
0000
0010
0000
0100
1000
0000
0000
0001
0000
0100
0001
0000
0000
0010
0000
0100
,
1000
0000
0000
0001
0000
0100
0010
0000
0000
1000
0000
0100
0010
0000
0000
0001
0000
1000
0010
0000
0000
0100
0000
0001
,
0010
0000
0000
0100
0000
0010
0001
0000
0000
1000
0000
0100
1000
0000
0000
0010
0000
0100
0001
0000
0000
0010
0000
0100
,
1000
0000
0000
0001
0000
1000
0010
0000
0000
0100
0000
0001
0010
0000
0000
0001
0000
1000
0100
0000
0000
0010
0000
0100
,
1000
0000
0000
0001
0000
0100
0010
0000
0000
1000
0000
0100
1000
0000
0000
0010
0000
0100
0001
0000
0000
0010
0000
0100
,
2000
3002
0203
0000
0320
0000
2030
0000
,
3100
0000
0000
1000
0000
0010
0100
0000
0000
0001
0000
1000
0100
0000
0000
0010
0000
0001
1000
0000
0000
0100
0000
0010
,
0002
0203
0320
2030
3200
0320
0032
2003
,
3010
0000
0000
0100
0000
0001
0010
0000
0000
0100
0000
1000
0001
0000
0000
1000
0000
0010
0100
0000
0000
0001
0000
0010
,
0100
0000
0000
1000
0000
0001
0100
0000
0000
0000
0000
0001
0100
0000
0000
0000
0000
0001
0100
0000
0000
0100
0000
0001
,
0100
0000
0000
0010
0000
1000
0100
0000
0000
0010
0000
0100
1000
0000
0000
0001
0000
0100
0010
0000
0000
1000
0000
0100
,
1000
0000
0000
0001
0000
0100
0010
0000
0000
1000
0000
0001
0010
0000
0000
0100
0000
1000
0001
0000
0000
0100
0000
0010
,
1000
0000
0000
0100
0000
0010
0100
0000
0000
1000
0000
0001
0100
0000
0000
0010
0000
1000
0100
0000
0000
0010
0000
0001
,
1000
0000
0000
0010
0000
0100
0001
0000
0000
0010
0000
0100
2000
0000
0000
0000
0000
0000
3002
0000
0000
0000
0000
0000
,
1003
0000
0000
0010
0000
0000
0100
0000
0000
0001
0000
0000
0010
0000
0000
0001
0000
0000
1000
0000
0000
0100
0000
0010
,
0001
0000
0000
2000
0000
0000
0000
0000
0000
3020
0000
0000
0000
0000
0000
0000
0000
0000
0130
0000
0000
0000
0001
0000
0010
0000
0000
0200
0000
0000
0000
0000
0000
2300
0000
0000
0000
0000
0000
0000
0000
0000
3001
0000
0000
0100
0000
0000
,
0010
0000
0000
1000
0000
0000
0100
0000
0000
1000
0000
0000
0001
0000
0000
0010
0000
0000
0100
0000
0000
0010
0000
0001
,
1000
0000
0000
0200
0000
0000
0000
0000
0000
0320
0000
0000
0000
0000
0000
0000
0000
0000
0130
0000
0000
0000
1000
0000
0010
0000
0000
0000
0100
0000
0001
0000
0000
0000
1000
0000
0200
0000
0000
0000
0000
0000
0000
0000
0000
0000
0310
0000
,
0001
0000
0000
1000
0000
0000
0100
0000
0000
1000
0000
0000
0001
0000
0000
0100
0000
0000
0001
0000
0000
0010
0000
0100
,
1000
0000
0000
0002
0000
0000
0000
0000
0000
0203
0000
0000
0000
0000
0000
0000
0000
0000
0310
0000
0000
0000
1000
0000
0100
0000
0000
0020
0000
0000
0000
0000
0000
0032
0000
0000
0000
0000
0000
0000
0000
0000
1003
0000
0000
0100
0000
0000
,
0010
0000
0000
0001
0000
0000
0100
0000
0000
0001
0000
0000
1000
0000
0000
0100
0000
0000
1000
0000
0000
0001
0000
1000
,
0010
0000
0000
0200
0000
0000
0000
0000
0000
0302
0000
0000
0000
0000
0000
0000
0000
0000
0013
0000
0000
0000
0100
0000
1000
0000
0000
0000
0000
0000
0001
0000
0000
0000
0000
0000
0100
0000
0000
0010
0000
0000
1000
0000
0000
0100
0000
0000
,
0020
0032
2003
3200
,
2300
3020
0230
0302
,
2003
3200
0320
0032
,
2003
3002
0203
0302
,
0023
0032
2003
3200
,
0320
0230
2300
3020
,
0230
0000
0000
0000
0000
0000
0302
0000
0000
0000
0000
0000
2003
0000
0000
0000
0000
0000
3100
0000
0000
0000
0000
0010
,
0001
0000
0000
2000
0000
0000
0000
0000
0000
3200
0000
0000
0000
0000
0000
0000
0000
0000
0310
0000
0000
0000
0001
0000
0100
0000
0000
0020
0000
0000
0000
0000
0000
2030
0000
0000
0000
0000
0000
0000
0000
0000
3001
0000
0000
0200
0000
0000
,
0000
0000
0300
0200
0000
0000
0300
0200
0000
0000
0300
0200
0000
0000
0300
MMMM
;
