#TITLE:Baby Baby;
#SUBTITLE:(Love To Infinity Classic Master Mix);
#ARTIST:Ashanti;
#TITLETRANSLIT:;
#SUBTITLETRANSLIT:;
#ARTISTTRANSLIT:;
#CREDIT:;
#BANNER:babybabylticmm.png;
#BACKGROUND:babybabylticmm-bg.png;
#LYRICSPATH:;
#CDTITLE:;
#MUSIC:babybabylticmm.mp3;
#OFFSET:-7.469;
#SAMPLESTART:44.390;
#SAMPLELENGTH:12.000;
#SELECTABLE:YES;
#BPMS:0.000=130.010;
#STOPS:;
#BGCHANGES:;
// cache tags:
#FIRSTBEAT:0.000;
#LASTBEAT:176.000;
#SONGFILENAME:Songs/mongol/babybabylticmm/babybabylticmm.sm;
#HASMUSIC:1;
#HASBANNER:1;
#MUSICLENGTH:96.522;
// end cache tags

//---------------dance-single - ----------------
#NOTES:
     dance-single:
     :
     Easy:
     2:
     0.141,0.114,0.000,0.052,0.000,90.000,0.000,5.000,0.000,0.000:  // measure 1
0200
0000
0000
0300
,  // measure 2
0002
0000
0000
0003
,  // measure 3
2000
0000
0000
3000
,  // measure 4
0200
0000
0000
0300
,  // measure 5
0010
0001
0001
0000
,  // measure 6
0100
0000
0010
0000
,  // measure 7
0000
1000
1000
0000
,  // measure 8
0001
0000
0100
0000
,  // measure 9
0000
0010
0010
0000
,  // measure 10
0000
1000
0000
0100
,  // measure 11
0000
1000
1000
0000
,  // measure 12
0010
0000
0100
0000
,  // measure 13
0001
0000
0001
0000
,  // measure 14
0000
1000
0000
1000
,  // measure 15
0100
0000
0100
0000
,  // measure 16
0010
0000
0001
0000
,  // measure 17
0100
0000
0100
0000
,  // measure 18
0010
0000
0010
0000
,  // measure 19
1000
1000
1000
0000
,  // measure 20
0002
0000
0000
0003
,  // measure 21
0000
0100
0100
0000
,  // measure 22
0010
1000
0010
0000
,  // measure 23
0000
0100
0100
0000
,  // measure 24
0001
1000
0001
0000
,  // measure 25
0000
0100
0100
0000
,  // measure 26
0010
1000
0010
0000
,  // measure 27
0000
0100
0100
0000
,  // measure 28
0000
0100
0100
0000
,  // measure 29
0000
0001
1000
0000
,  // measure 30
0000
1000
0100
0000
,  // measure 31
0000
0100
0010
0000
,  // measure 32
0000
0010
0100
0000
,  // measure 33
0000
0100
1000
0000
,  // measure 34
0000
1000
0001
0000
,  // measure 35
0000
0001
0100
0000
,  // measure 36
0000
0100
0000
0100
,  // measure 37
0010
1000
1000
0000
,  // measure 38
0001
0000
0100
0000
,  // measure 39
0000
0010
0010
0000
,  // measure 40
1000
0000
0100
0000
,  // measure 41
0000
0010
0010
0000
,  // measure 42
0001
0000
1000
0000
,  // measure 43
0000
0001
0001
0000
,  // measure 44
1000
0000
0100
0000
,  // measure 45
0100
0000
0000
0000
;

//---------------dance-single - ----------------
#NOTES:
     dance-single:
     :
     Medium:
     4:
     0.246,0.251,0.052,0.010,0.000,160.000,5.000,1.000,0.000,0.000:  // measure 1
1000
0100
0000
0100
,  // measure 2
1000
1000
0001
0001
,  // measure 3
0100
0010
0000
0010
,  // measure 4
1000
0000
0100
0100
,  // measure 5
1001
0100
0010
0010
,  // measure 6
1000
0100
0010
0001
,  // measure 7
1000
0100
1000
1000
,  // measure 8
0001
0010
0100
1000
,  // measure 9
0001
0010
0100
0100
,  // measure 10
1000
0100
0010
0001
,  // measure 11
1000
0010
1000
1000
,  // measure 12
0001
0010
0000
0100
,  // measure 13
1001
0100
0010
0100
,  // measure 14
0000
0001
1000
0001
,  // measure 15
1000
0000
0100
0000
1000
0000
0000
0010
,  // measure 16
0000
0010
0000
0000
0000
0000
0100
0000
,  // measure 17
0001
1000
0100
1000
,  // measure 18
0010
0100
0001
0000
,  // measure 19
0010
0100
0010
0001
,  // measure 20
0200
0000
0010
0310
,  // measure 21
1001
0100
0010
0010
,  // measure 22
1000
1000
1000
0100
,  // measure 23
0010
0001
0100
0010
,  // measure 24
0100
0100
0100
0001
,  // measure 25
1000
0100
0010
0001
,  // measure 26
0010
0010
0010
0100
,  // measure 27
1000
0001
1000
0010
,  // measure 28
0100
0100
0100
0110
,  // measure 29
1100
0010
0001
0010
,  // measure 30
0001
0100
0010
0010
,  // measure 31
0000
1000
0100
1000
,  // measure 32
0010
0100
0001
0001
,  // measure 33
0000
1000
0100
0010
,  // measure 34
0001
0100
0010
0010
,  // measure 35
0000
0100
0001
1000
,  // measure 36
0000
0100
0000
0100
,  // measure 37
0010
0001
0001
0100
,  // measure 38
0010
1000
1000
0100
,  // measure 39
0000
0010
0001
0001
,  // measure 40
0010
0100
1000
1000
,  // measure 41
0000
0010
0100
0100
,  // measure 42
0001
1000
0100
0100
,  // measure 43
0000
0001
0100
0100
,  // measure 44
0001
1000
0001
1000
,  // measure 45
0100
0000
0000
0000
;

//---------------dance-single - ----------------
#NOTES:
     dance-single:
     :
     Hard:
     9:
     0.509,0.410,0.228,0.000,0.658,322.000,22.000,0.000,0.000,0.000:  // measure 1
0100
0000
0000
0001
0000
0000
0001
0000
0100
0000
0000
0001
0000
0000
0001
0000
,  // measure 2
0010
0100
0000
1000
0000
0001
0000
0010
0000
0100
0000
1000
0000
0000
0010
0000
,  // measure 3
1000
0000
0000
0100
0000
0000
0100
0000
1000
0000
0000
0100
0000
0000
0100
0000
,  // measure 4
0010
0000
0000
0001
0000
0000
0001
0000
0100
0000
0010
0000
1000
0000
0010
0000
,  // measure 5
0100
0000
0000
0000
0011
0000
0000
0001
0100
0000
0100
0010
0000
0000
0000
1000
,  // measure 6
0000
0100
0000
1000
0010
0000
0000
0010
0100
0000
0100
0001
0000
0000
1000
0000
,  // measure 7
0100
0000
0000
0000
1001
0000
0000
1000
0010
0000
0010
0100
0000
0000
0000
0001
,  // measure 8
0000
0010
0000
0001
0100
0000
0000
0100
0010
0000
0010
1000
0000
0000
0100
0000
,  // measure 9
0010
0000
0000
0000
0110
0000
0000
0100
1000
0000
1000
0010
0000
0000
0000
0100
,  // measure 10
0000
0001
0000
0100
0010
0000
0000
0010
1000
0000
1000
0100
0000
0000
0010
0000
,  // measure 11
0100
0000
0000
0000
1010
0000
0000
0100
0010
0000
0010
1000
0000
0000
0000
0100
,  // measure 12
0000
0010
0000
0100
1000
0000
0000
0000
0110
0000
0001
0000
1000
0000
0100
0000
,  // measure 13
0010
0001
0100
0100
0010
1000
0001
1000
,  // measure 14
0100
0000
0010
0001
1000
1000
0010
0100
,  // measure 15
0001
0010
1000
0010
0100
0010
1000
0010
,  // measure 16
0001
0000
0000
0100
0000
0000
0100
0000
0010
0000
0000
1000
0000
0000
1000
0000
,  // measure 17
0100
0010
0001
0001
0010
0100
0010
0001
,  // measure 18
1000
0000
0010
0100
0001
0001
1000
0100
,  // measure 19
0010
0100
0001
0100
0010
0100
0001
0100
,  // measure 20
1000
0000
0000
0110
0000
0000
0100
0001
0100
0001
0000
0000
,  // measure 21
1000
0000
0000
0000
1001
0000
0000
0001
0100
0000
0100
0010
0000
0000
1000
0000
,  // measure 22
0100
1000
0000
0010
0000
0100
0000
0001
0000
0001
0000
0100
0000
0000
0010
0000
,  // measure 23
1000
0000
0000
0000
1010
0000
0000
0100
0001
0000
0001
1000
0000
0000
0100
0000
,  // measure 24
0010
0001
0000
0100
0000
0010
0000
1000
0000
1000
0000
0010
0000
0000
0100
0000
,  // measure 25
0100
0000
0000
0000
1001
0000
0000
1000
0010
0000
0010
0100
0000
0000
0001
0000
,  // measure 26
1000
0100
0000
1000
0000
0010
0000
0100
0000
0100
0000
0001
0000
0000
0010
0000
,  // measure 27
0100
0000
0000
0000
1100
0000
0000
0010
0001
0000
0001
0100
0000
0000
0000
0010
,  // measure 28
0000
1000
0000
0010
0100
0000
0000
0100
0001
0000
0001
1000
0000
0000
0000
0000
,  // measure 29
0110
0000
0000
0000
0011
0000
0000
0100
0010
0000
0100
0010
0000
0000
0000
1000
,  // measure 30
0000
1000
0000
0001
0100
0000
0000
0010
1000
0000
0010
1000
0000
0000
0001
0000
,  // measure 31
0001
0000
0000
0000
0101
0000
0000
0010
0100
0000
0010
0100
0000
0000
0000
0010
,  // measure 32
0000
0010
0000
0001
0100
0000
0000
0010
1000
0000
0010
1000
0000
0000
0100
0000
,  // measure 33
0110
0000
0000
0000
1100
0000
0000
0001
0100
0000
0001
0100
0000
0000
0000
0001
,  // measure 34
0000
0001
0000
1000
0010
0000
0000
1000
0100
0000
1000
0100
0000
0000
0010
0000
,  // measure 35
0010
0000
0000
0000
0101
0000
0000
1000
0001
0000
1000
0001
0000
0000
0100
0000
,  // measure 36
0010
0000
0000
1000
0000
0000
1000
0000
0000
0000
0010
0000
0001
0000
0100
0000
,  // measure 37
0010
0000
0000
0000
1100
0000
0000
0010
0100
0000
0010
0001
0000
0000
0000
0100
,  // measure 38
0000
0100
0000
0010
1000
0000
0000
0001
0100
0000
0001
0100
0000
0000
0010
0000
,  // measure 39
0010
0000
0000
0000
1001
0000
0000
1000
0100
0000
1000
0010
0000
0000
0100
0000
,  // measure 40
0100
0001
0000
0010
0000
0100
0000
1000
0000
0001
0000
0010
0000
0000
0100
0000
,  // measure 41
1100
0000
0000
0000
0110
0000
0000
0010
0001
0000
0010
0100
0000
0000
1000
0000
,  // measure 42
1000
0010
0000
0100
0000
0001
0000
1000
0000
0010
0000
0100
0000
0000
0001
0000
,  // measure 43
0001
0000
0000
0000
0110
0000
0000
1000
0010
0000
1000
0001
0000
0000
0100
0000
,  // measure 44
0100
0010
0000
1000
0000
0001
0000
0100
0000
0010
0000
1000
0000
0000
0001
0000
,  // measure 45
0101
0000
0000
0000
;
