#TITLE:Garden;
#SUBTITLE:Gradius III;
#ARTIST:Konami;
#TITLETRANSLIT:;
#SUBTITLETRANSLIT:;
#ARTISTTRANSLIT:;
#CREDIT:;
#BANNER:Garden-bn.jpg;
#BACKGROUND:Garden-bg.jpg;
#LYRICSPATH:;
#CDTITLE:cdtitle.png;
#MUSIC:Garden.mp3;
#OFFSET:-0.060;
#SAMPLESTART:100.000;
#SAMPLELENGTH:12.000;
#SELECTABLE:YES;
#BPMS:0.000=112.320;
#STOPS:;
#BGCHANGES:;
// cache tags:
#FIRSTBEAT:0.000;
#LASTBEAT:114.000;
#SONGFILENAME:Songs/VGMP 2/Garden (Patashu)/Garden.sm;
#HASMUSIC:1;
#HASBANNER:1;
#MUSICLENGTH:135.840;
// end cache tags

//---------------dance-single - ----------------
#NOTES:
     dance-single:
     :
     Edit:
     14:
     0.861,0.724,1.000,0.493,0.850,421.000,233.000,67.000,0.000,91.000:


1021
0130
1011
0110
0000
1100
0110
0001
0010
0000
0101
0010
0000
0010
0101
1000
,
0211
1300
0111
1100
0000
0011
1100
0010
0001
0000
1010
0100
0000
1000
0110
0001
,
1120
0031
1110
0101
0000
1001
0110
1000
0001
0000
0101
0010
0000
0010
1100
0010
,
1201
0000
0310
0000
1101
0000
1010
0000
0000
0000
0101
0000
1010
0000
0100
0000
1000
0100
0010
0000
1001
0010
0100
0000
1000
0100
0011
0000
1001
0010
1100
0000
,
1210
0300
1010
0100
0000
0110
1101
1010
0100
0000
0101
1020
0030
1001
1110
0101
,
1000
0000
1010
0102
0003
0110
1011
1100
0101
0000
1100
1021
0030
0001
1211
0310
,
2011
3000
1010
1021
0030
0001
1211
1300
0010
0000
1121
0130
0201
0310
2111
3100
,
1012
0000
0000
0000
0003
0000
0000
0000
2101
0000
0000
0000
3211
0000
0000
0000
0300
0000
0000
0000
0010
0000
0000
0000
1101
0000
0000
0000
0010
0000
0000
0000
1001
0000
0000
0000
0100
0000
0000
0000
1010
0000
0000
0000
0001
0000
0000
0000
0000
0000
0000
0000
0010
0000
0000
0000
1100
0000
0001
0010
0100
1000
0000
0000
,
1102
0003
1100
0001
0000
1001
0111
1100
0001
0000
0011
2100
3000
0110
1101
0011
,
0100
0000
1100
0021
0030
1001
1110
0101
0011
0000
0101
2110
3000
0010
1112
1003
,
1210
0300
1100
2110
3000
0010
1112
0103
1000
0000
2111
3001
0012
1003
1211
0301
,
1120
0000
0000
0000
0030
0000
0000
0000
0211
0000
0000
0000
1312
0000
0000
0000
0003
0000
0000
0000
1000
0000
0000
0000
0111
0000
0000
0000
1000
0000
0000
0000
0110
0000
0000
0000
0001
0000
0000
0000
1100
0000
0000
0000
0010
0000
0000
0000
0000
0000
0000
0000
0001
0000
0000
0000
1100
0000
0001
0010
0100
1000
0000
0000
,
1121
1130
0110
0101
0000
0101
1000
0010
1201
0310
0100
0011
0000
0001
1110
0000
,
1021
0131
1010
0110
0000
0110
0001
0100
1021
0130
1000
0101
0000
0010
1111
1001
,
1211
0311
0110
0101
0000
0101
1000
0100
1021
0130
0001
1100
0000
1000
0111
0000
,
1021
0131
1100
0011
0000
0011
1000
0010
1201
0310
0100
1010
0000
0110
1101
0010
,
1121
0131
1010
1001
0000
1001
0100
0010
1201
0310
1000
0101
0000
0100
1011
0000
,
1121
0131
0110
1100
0000
1100
0001
0010
1201
0310
0001
1100
0000
0010
1111
1001
,
1121
0131
0110
1001
0000
1001
0100
0010
1201
0310
0100
1010
0000
1000
0111
0000
,
1011
1010
0101
1011
1010
0101
1011
0100
0000
0010
0100
1000
0010
0100
0011
0100
,
1021
0000
0000
0130
0000
0000
1010
0000
0001
0100
0010
0000
1100
0000
0000
0010
0000
0000
1001
0000
0000
0100
0000
0000
1020
0000
0000
0130
0000
0000
0011
0000
0000
0100
0000
0000
1001
0000
0000
0010
0000
0000
1101
0000
0000
0010
0000
0000
,
2101
0000
0000
3010
0000
0000
1100
0000
0001
0100
0010
0000
1100
0000
0000
0001
0000
0000
0110
0000
0000
1000
0000
0000
0201
0000
0000
0310
0000
0000
1100
0000
0000
0010
0000
0000
0101
0000
0000
0010
0000
0000
1011
0000
0000
0100
0000
0000
,
1012
0000
0000
0103
0000
0000
1010
0000
0001
0100
0010
0000
1100
0000
0000
0001
0000
0000
1010
0000
0000
0100
0000
0000
0021
0000
0000
0130
0000
0000
1001
0000
0000
0100
0000
0000
1010
0000
0000
0001
0000
0000
1110
0000
0000
0001
0000
0000
,
1210
0301
1100
0010
2101
3010
0101
1000
0211
1300
0110
1000
1021
1031
0110
0101
,
1012
0000
0000
0103
0000
0000
1010
0000
0001
0100
0010
0000
1201
0000
0000
0310
0000
0000
1001
0000
0000
0120
0000
0000
1030
0000
0000
0100
0000
0000
0011
0000
0000
0100
0000
0000
2011
0000
0000
3010
0000
0000
1101
0000
0000
0010
0000
0000
,
1102
0000
0000
0013
0000
0000
1100
0000
0001
0100
0010
0000
2101
0000
0000
3001
0000
0000
0110
0000
0000
0102
0000
0000
0013
0000
0000
0100
0000
0000
1001
0000
0000
0010
0000
0000
1001
0000
0000
0100
0000
0000
1011
0000
0000
0100
0000
0000
,
1021
0130
1010
0100
0001
1100
0101
1021
0030
1010
0100
0001
0010
0110
1100
1021
,
0030
0010
1100
0010
0100
1010
0110
1021
0030
1010
1001
0110
1010
1001
0011
1010
,
1000
0010
0100
0001
0100
0010
1000
0010
0100
0001
0100
0010
1000
0000
0000
0000
0000
0000
0000
0000
0000
0000
0000
0000
;

//---------------dance-single - ----------------
#NOTES:
     dance-single:
     :
     Challenge:
     12:
     0.670,0.556,1.000,0.015,0.810,410.000,216.000,2.000,0.000,9.000:


1001
0100
1001
0010
0000
0101
1010
0100
0001
0000
0110
1000
0000
0100
0011
0100
,
1010
0100
1010
0101
0000
0110
1001
0010
0001
0000
0101
0010
0000
0100
1010
0100
,
0011
1000
0011
1100
0000
0101
1010
0100
0001
0000
1100
0010
0000
0001
0110
1000
,
0110
0000
0001
0000
0110
0000
1001
0000
0000
0000
0011
0000
1100
0000
0010
0000
1000
0100
0010
0000
0001
0010
0100
0000
1000
0100
0010
0000
0001
0010
0100
0000
,
1001
0000
0110
1000
0000
1010
0110
0101
0010
0000
0101
0010
0000
1100
1001
0011
,
0100
0000
1001
0100
0000
1100
1010
0101
0011
0000
0110
1001
0000
0100
1010
0100
,
1001
0000
0101
1010
0000
0010
1100
0010
0001
0000
1100
0010
0001
0100
1001
0010
,
0101
0000
0000
0000
1100
0000
0011
0000
0000
0000
0100
0000
1010
0000
0100
0000
0011
0000
0100
0000
1001
0000
0010
0000
0000
0000
0010
0000
1001
0020
0130
0000
,
0110
0000
1001
0100
0000
1100
1001
0011
1000
0000
0011
1000
0000
0101
0110
1010
,
0001
0000
0110
0001
0000
0101
1100
0011
1010
0000
1001
0110
0000
0001
1100
0001
,
0110
0000
0011
1100
0000
1000
0101
1000
0010
0000
0101
1000
0010
0001
0110
1000
,
0011
0000
0000
0000
0101
0000
1010
0000
0000
0000
0001
0000
1100
0000
0001
0000
1010
0000
0001
0000
0110
0000
1000
0000
0000
0000
1000
0000
0110
2000
3001
0000
,
1101
0110
1001
0110
0000
0110
1000
0001
1010
0100
0010
0101
0000
0010
0101
0000
,
1100
0011
1100
0011
0000
0011
1000
0010
1100
0010
0100
0011
0000
0001
1110
0110
,
0111
1010
0101
1010
0000
1010
0001
0010
1001
0000
1000
0011
0000
0100
1010
0000
,
1001
0110
1001
0110
0000
0110
1000
0001
1010
0100
1000
0011
0000
0110
1001
0010
,
1101
0011
1100
0011
0000
0011
0100
0010
1001
0010
1000
0101
0000
0001
1100
0000
,
1001
0110
1001
0110
0000
0110
0001
0010
1100
0001
0010
1001
0000
1000
0111
0110
,
1110
0011
1100
0011
0000
0011
0100
1000
0101
0010
0001
0110
0000
0010
1100
0000
,
1011
0100
0100
1011
0100
0100
1011
0100
0000
1000
0100
0010
0001
0010
1001
0100
,
1010
0000
0000
0100
0000
0000
0011
0000
0100
0000
0010
0000
1100
0000
0000
0010
0000
0000
0101
0000
0000
0010
0000
0000
1000
0000
0000
0100
0000
0000
0011
0000
0000
0100
0000
0000
1001
0000
0000
0010
0000
0000
1100
0000
0000
0001
0000
0000
,
0110
0000
0000
1000
0000
0000
0101
0000
0010
0000
0100
0000
1010
0000
0000
0001
0000
0000
1100
0000
0000
0010
0000
0000
0101
0000
0000
1000
0000
0000
0011
0000
0000
0100
0000
0000
1010
0000
0000
0001
0000
0000
1100
0000
0000
0010
0000
0000
,
0101
0000
0000
0010
0000
0000
1001
0000
0010
0000
0100
0000
1001
0000
0000
0010
0000
0000
0101
0000
0000
1000
0000
0000
0110
0000
0000
0001
0000
0000
1010
0000
0000
0100
0000
0000
0011
0000
0000
1000
0000
0000
0101
0000
0000
0010
0000
0000
,
1001
0010
1100
0010
1001
0100
0011
0100
1010
0001
1100
0010
0101
0110
0110
0110
,
1001
0000
0000
0100
0000
0000
0011
0000
0100
0000
0010
0000
1100
0000
0000
0010
0000
0000
0101
0000
0000
0010
0000
0000
1000
0000
0000
0100
0000
0000
0011
0000
0000
0100
0000
0000
1001
0000
0000
0010
0000
0000
1100
0000
0000
0001
0000
0000
,
0110
0000
0000
1000
0000
0000
0101
0000
0010
0000
0100
0000
1010
0000
0000
0001
0000
0000
1100
0000
0000
0010
0000
0000
0101
0000
0000
1000
0000
0000
0011
0000
0000
0100
0000
0000
1010
0000
0000
0001
0000
0000
1100
0000
0000
0010
0000
0000
,
0101
0000
1100
0001
0010
1100
0011
1100
0000
0101
0010
1000
0001
1010
0101
1010
,
0000
1000
0011
0100
0010
1001
0110
1001
0000
1010
1010
0110
0110
0101
0101
1001
,
1000
0100
0010
0001
0010
0100
1000
0100
0010
0001
0010
0100
1000
0000
0000
0000
0000
0000
0000
0000
0000
0000
0000
0000
;

//---------------dance-single - ----------------
#NOTES:
     dance-single:
     :
     Hard:
     11:
     0.533,0.451,0.721,0.000,0.806,409.000,98.000,0.000,0.000,0.000:

0001
0010
1100
0010
0000
0001
0110
1000
0100
0000
1001
0100
0000
0010
0101
1000
,
0100
0010
1001
0100
0000
0010
1100
0001
0010
0000
0101
0010
0000
0001
0110
1000
,
0100
0010
0101
0010
0000
0001
1100
0010
0001
0000
1010
0001
0000
0010
1001
0010
,
0100
0000
0010
0000
0101
0000
0010
0000
0000
0000
0100
0000
1001
0000
0100
0000
1000
0100
0010
0000
0001
0010
0100
0000
1000
0100
0010
0000
0001
0010
0100
0000
,
1000
0000
0110
0001
0000
0010
1001
0100
0010
0000
0101
0010
0000
1000
0011
0100
,
1000
0000
0101
0010
0000
1000
0011
1000
0100
0000
1010
0100
0000
1000
0110
0001
,
1000
0000
0011
0100
0000
0010
1100
0010
0001
0000
0110
1000
0001
0100
0011
0100
,
1000
0000
0101
0010
0000
1000
0011
0100
1000
0010
0101
0010
0000
0100
1001
0100
,
0010
0000
0110
0001
0000
0100
1010
0100
0001
0000
1010
0100
0000
0001
1010
0100
,
0001
0000
1010
0001
0000
0010
1100
0010
0100
0000
1001
0100
0000
0010
0101
1000
,
0100
0000
0011
0100
0000
0100
1010
0100
0001
0000
0110
1000
0001
0010
1001
0100
,
0010
0000
0011
0100
0000
1000
0110
0001
1000
0010
1001
0100
0000
0001
1010
0100
,
1001
0100
0010
0001
0000
0001
0100
0010
1000
0100
0010
0100
0000
1000
0110
0000
,
1000
0010
0100
0001
0000
0001
0100
0010
0100
0001
1000
0010
0000
0100
1001
1001
,
1010
0100
0010
1000
0000
1000
0010
0100
0001
0010
0100
1000
0000
0010
0101
0000
,
0010
0100
0001
0100
0000
0100
0010
0100
0001
1000
0100
0010
0000
0101
0101
0100
,
1010
0100
0010
1000
0000
1000
0010
0100
0001
0010
0100
1000
0000
0001
0110
0000
,
0001
0010
0100
1000
0000
1000
0100
0010
0100
1000
0001
0010
0000
0100
1001
1001
,
1010
0001
0100
0010
0000
0010
1000
0100
0010
0001
0100
0010
0000
1000
0011
0000
,
1010
0100
0100
1010
0100
0100
1010
0100
0000
1000
0100
0010
0001
0100
0010
1000
,
0100
0000
0000
0010
0000
0000
0100
0000
1000
0000
0001
0000
0010
0000
0000
0100
0000
0000
1001
0000
0000
0100
0000
0000
0010
0000
0000
0001
0000
0000
1100
0000
0000
0010
0000
0000
0100
0000
0000
0001
0000
0000
0110
0000
0000
1000
0000
0000
,
0100
0000
0000
0010
0000
0000
0001
0000
0100
0000
0010
0000
1000
0000
0000
0100
0000
0000
1010
0000
0000
0100
0000
0000
0010
0000
0000
0001
0000
0000
1100
0000
0000
0010
0000
0000
0100
0000
0000
0010
0000
0000
1001
0000
0000
0100
0000
0000
,
0001
0000
0000
1000
0000
0000
0100
0000
0010
0000
0001
0000
0100
0000
0000
0010
0000
0000
0101
0000
0000
1000
0000
0000
0010
0000
0000
0100
0000
0000
0011
0000
0000
0100
0000
0000
1000
0000
0000
0100
0000
0000
1010
0000
0000
0001
0000
0000
,
0010
0100
1001
0010
0100
0001
0110
1000
0001
0100
1001
0010
0001
1010
1010
1010
,
0100
0000
0000
1000
0000
0000
0010
0000
1000
0000
0001
0000
0100
0000
0000
0001
0000
0000
1010
0000
0000
0100
0000
0000
0010
0000
0000
0001
0000
0000
0110
0000
0000
1000
0000
0000
0001
0000
0000
0100
0000
0000
1001
0000
0000
0010
0000
0000
,
0100
0000
0000
0010
0000
0000
0001
0000
1000
0000
0010
0000
0100
0000
0000
0001
0000
0000
0110
0000
0000
0001
0000
0000
0100
0000
0000
0010
0000
0000
1100
0000
0000
0010
0000
0000
0001
0000
0000
0010
0000
0000
0101
0000
0000
0010
0000
0000
,
0101
0010
1001
0100
0010
0001
0100
1001
0000
0110
0001
0100
0010
1000
0010
0101
,
0000
0000
0011
0100
0010
0100
0001
1010
0000
1001
1001
1001
1001
1001
1001
1001
,
1000
0100
0010
0001
0010
0100
1000
0100
0010
0001
0010
0100
1000
0000
0000
0000
0000
0000
0000
0000
0000
0000
0000
0000
;

//---------------dance-single - pad file----------------
#NOTES:
     dance-single:
     pad file:
     Medium:
     10:
     0.411,0.336,0.052,0.000,0.744,384.000,7.000,0.000,0.000,0.000:


1000
0100
0010
0100
0000
1000
0100
0010
0001
0000
0001
1000
0000
1000
0010
0100
,
0001
0100
0010
0100
0000
0001
1000
0010
1000
0000
1000
0100
0000
0100
0010
0001
,
0010
0100
0010
0001
0000
1000
0001
0010
0001
0000
0001
0100
0000
0100
0010
1000
,
0001
0010
0100
1000
0000
0100
1000
0001
1000
0100
0010
0001
0000
0010
0100
0010
,
0001
0000
0001
1000
0000
1000
0010
0100
0001
0000
0001
0010
0000
0010
0001
1000
,
0100
0000
0100
1000
0000
1000
0001
0010
0100
0000
0100
0010
0000
0010
0001
1000
,
0010
0000
0100
0010
0000
0010
0100
1000
0001
0000
0100
0001
1000
0010
0100
0010
,
1000
0000
1000
0001
0000
0001
0100
0010
1000
0001
1000
0100
0000
0100
0010
0001
,
0010
0000
0100
0010
0000
0010
0100
0010
0001
0000
0100
0010
0000
1000
0100
0010
,
0001
0000
0001
0100
0000
0100
0010
1000
0001
0000
0001
0100
0000
0100
0010
1000
,
0010
0000
0100
0001
0000
0100
0010
0100
0001
0000
0010
0001
1000
0100
1000
0001
,
0010
0000
0010
0100
0000
0100
0010
0001
1000
0100
1000
0010
0000
0100
0010
0100
,
0001
0100
0010
1000
0000
1000
0100
0010
0001
0100
0010
0100
0000
0100
0001
0000
,
1000
0010
0100
0001
0000
0001
0100
0010
0100
0001
1000
0010
0000
0100
0010
0100
,
0001
0100
0010
0100
0000
0100
0010
1000
0001
0010
0100
1000
0000
0010
0100
0000
,
0001
0100
0010
0100
0000
0100
0010
1000
0001
1000
0100
0010
0000
0001
0100
0010
,
1000
0100
0010
0001
0000
0001
0010
0100
1000
0010
0100
0001
0000
0001
0100
0000
,
0001
0010
0100
1000
0000
1000
0100
0010
0100
1000
0001
0010
0000
0100
1000
0001
,
1000
0001
0100
0010
0000
0010
1000
0100
0010
0001
0100
0010
0000
1000
0010
0000
,
1001
0000
0000
1001
0000
0000
1001
0000
0000
1000
0100
0010
0001
0100
0010
1000
,
0100
0000
0000
0000
0000
0000
0000
0000
0010
0000
0001
0000
0010
0000
0000
0100
0000
0000
1000
0000
0000
0100
0000
0000
0010
0000
0000
0001
0000
0000
0100
0000
0000
0010
0000
0000
0100
0000
0000
0001
0000
0000
0100
0000
0000
0010
0000
0000
,
1000
0000
0000
0000
0000
0000
0000
0000
1000
0000
0010
0000
1000
0000
0000
0100
0000
0000
1000
0000
0000
0100
0000
0000
0010
0000
0000
0001
0000
0000
1000
0000
0000
0010
0000
0000
0100
0000
0000
0010
0000
0000
1000
0000
0000
0100
0000
0000
,
0010
0000
0000
0000
0000
0000
0000
0000
0100
0000
1000
0000
0100
0000
0000
0010
0000
0000
0001
0000
0000
0100
0000
0000
0010
0000
0000
1000
0000
0000
0010
0000
0000
0100
0000
0000
0001
0000
0000
0010
0000
0000
0100
0000
0000
1000
0000
0000
,
0100
0010
0001
0010
0100
0010
0001
0100
0001
1000
0001
0010
0001
0010
0100
1000
,
0100
0000
0000
0000
0000
0000
0000
0000
0010
0000
0001
0000
0010
0000
0000
0001
0000
0000
0010
0000
0000
0100
0000
0000
0010
0000
0000
0001
0000
0000
0100
0000
0000
0010
0000
0000
0100
0000
0000
0001
0000
0000
1000
0000
0000
0100
0000
0000
,
0010
0000
0000
0000
0000
0000
0000
0000
0001
0000
1000
0000
0001
0000
0000
1000
0000
0000
0100
0000
0000
0010
0000
0000
0100
0000
0000
0010
0000
0000
0001
0000
0000
1000
0000
0000
0010
0000
0000
0100
0000
0000
0001
0000
0000
0010
0000
0000
,
0110
0000
1000
0010
0100
0001
0010
0110
0000
1000
0001
0100
0010
1000
0010
0110
,
0000
0000
0001
0100
0010
1000
0010
0110
0000
1000
0001
1000
0001
1000
0001
1000
,
0001
0000
0001
0010
0000
0010
0100
0000
0100
1000
0000
1000
0001
0000
0000
0000
0000
0000
0000
0000
0000
0000
0000
0000
;

//---------------dance-single - ----------------
#NOTES:
     dance-single:
     :
     Easy:
     8:
     0.281,0.273,0.052,0.125,0.357,243.000,7.000,17.000,2.000,0.000:


1000
0010
1000
0001
0000
0200
0010
0000
0000
0000
1000
0000
0000
0000
0001
0000
,
0310
1000
0010
0100
0000
0002
0010
0000
0000
0000
0100
0000
0000
0000
1000
0000
,
0103
0010
0100
0001
0000
0020
0100
0000
0000
0000
1000
0000
0000
0000
0001
0000
,
0130
1000
0100
0010
0000
0200
1000
0000
0320
0000
0032
0000
0023
0130
1000
0100
,
0010
0000
0001
0000
0000
0010
0100
1000
0000
0000
0010
0000
0000
0100
0001
1000
,
0000
0000
0100
0000
0000
0010
0001
0100
0010
0000
0100
0001
0000
0000
0010
0000
,
0100
0000
1000
0100
0000
0010
0001
0000
0000
0000
0010
0000
0100
0000
1000
0000
,
0010
0000
0100
0001
0000
0000
0010
0000
0100
2000
0010
0000
0000
0000
3001
M000
,
0100
0000
0010
0000
0000
0001
1000
0100
0000
0000
0010
0000
0000
0001
0100
0010
,
0000
0000
1000
0000
0000
0100
0010
0100
1000
0000
0100
0010
0000
0001
1000
0000
,
0100
0000
0010
0001
0000
0010
0100
0000
0000
0000
1000
0000
0001
0000
0010
0000
,
0100
0000
1000
0100
0000
0010
0001
0000
0010
0200
1000
0000
0000
0000
0301
0M00
,
1000
0100
0010
0001
0000
0001
0000
0100
0010
0000
0000
1000
0000
0000
0110
0000
,
0010
0001
0100
0010
0000
0010
0000
0100
0001
0000
0000
0010
0000
0000
0100
1000
,
0100
0010
0001
0100
0000
0100
0000
0010
1000
0000
0000
0100
0000
0000
0011
0000
,
0100
0010
0001
1000
0000
1000
0000
0100
0010
0000
0000
0001
0000
0010
0100
1000
,
0001
0100
0010
1000
0000
1000
0000
0001
0010
0000
0000
0100
0000
0000
1010
0000
,
0100
0010
0001
0010
0000
0010
0000
0100
1000
0000
0000
0010
0000
0000
0100
0001
,
0100
0010
1000
0100
0000
0100
0000
1000
0001
0000
0000
0010
0000
0000
1100
0000
,
1001
0000
0000
1001
0000
0000
1001
0000
0000
0000
0000
0000
0100
0000
0010
0000
,
0001
0000
0000
0000
0010
0000
0100
0000
0000
1000
0000
0000
0000
0000
0000
0100
0000
0000
0010
0000
0000
0001
0000
0000
,
0010
0000
0000
0000
0100
0000
1000
0000
0000
0010
0000
0000
0000
0000
0000
0100
0000
0000
0001
0000
0000
1000
0000
0000
,
0010
0000
0000
0000
0100
0000
0001
0000
0000
0010
0000
0000
0000
0000
0000
0100
0000
0000
1000
0000
0000
0100
0000
0000
,
0010
0000
0001
0000
0100
0000
0010
0000
1000
0000
0001
0000
0010
0100
1000
0001
,
0100
0000
0000
0000
0010
0000
0100
0000
0000
0001
0000
0000
0000
0000
0000
0010
0000
0000
0100
0000
0000
1000
0000
0000
,
0010
0000
0000
0000
0100
0000
0001
0000
0000
0010
0000
0000
0000
0000
0000
0100
0000
0000
1000
0000
0000
0100
0000
0000
,
0020
0000
0000
0000
0000
0031
0010
0200
0000
0000
0000
0000
0000
1300
0100
0020
,
0000
0000
0000
0000
0000
0031
0010
0200
0000
1300
0001
1000
0001
1000
0001
1000
,
0002
0023
0230
2300
3001
0000
0000
0000
;

//---------------dance-single - ----------------
#NOTES:
     dance-single:
     :
     Beginner:
     7:
     0.235,0.220,0.022,0.133,0.306,202.000,3.000,18.000,2.000,0.000:


1000
0010
1000
0001
0000
0200
0000
0000
0000
0000
0000
0000
0000
0000
0000
0000
,
0310
1000
0010
0100
0000
0002
0000
0000
0000
0000
0000
0000
0000
0000
0000
0000
,
0103
0010
0100
0001
0000
0020
0000
0000
0000
0000
0000
0000
0000
0000
0000
0000
,
0130
1000
0100
0010
0000
0200
0000
0000
0320
0000
0032
0000
2003
0000
3200
0000
,
0310
0000
0000
0000
0000
0001
0010
0100
0000
0000
0000
0000
0000
1000
0001
0010
,
0000
0000
0000
0000
0000
0100
1000
0100
0010
0000
0000
0001
0000
0000
0010
0000
,
0100
0000
0000
1000
0000
0000
0010
0000
0000
0000
0100
0000
0010
0000
1000
0000
,
0010
0000
0100
0001
0000
0000
0010
0000
0100
2000
0000
0000
0000
0000
3000
M000
,
0100
0000
0000
0000
0000
1000
0001
0100
0000
0000
0000
0000
0000
0010
1000
0100
,
0000
0000
0000
0000
0000
0010
0001
0100
0010
0000
0000
0100
0000
0000
0001
0000
,
1000
0000
0000
0100
0000
0000
0010
0000
0000
0000
0001
0000
0100
0000
0010
0000
,
1000
0000
0100
0010
0000
0000
0001
0000
0010
0200
0000
0000
0000
0000
0300
0M00
,
1000
0100
0010
0001
0000
0001
0000
0100
0010
0000
0000
1000
0000
0000
0100
0000
,
0010
0001
0100
0010
0000
0010
0000
0100
0001
0000
0000
0010
0000
0000
0100
1000
,
0100
0010
0001
0100
0000
0100
0000
0010
1000
0000
0000
0100
0000
0000
0001
0000
,
0100
0010
0001
1000
0000
1000
0000
0100
0010
0000
0000
0001
0000
0000
0100
0000
,
0001
0100
0010
1000
0000
1000
0000
0001
0010
0000
0000
0100
0000
0000
1000
0000
,
0100
0010
0001
0010
0000
0010
0000
0100
1000
0000
0000
0010
0000
0000
0100
0001
,
0100
0010
1000
0100
0000
0100
0000
1000
0001
0000
0000
0010
0000
0000
0100
0000
,
1001
0000
0000
1001
0000
0000
1001
0000
0000
0000
0000
0000
0100
0000
0010
0000
,
0001
0000
0000
0000
0010
0000
0100
0000
0000
1000
0000
0000
0000
0000
0000
0100
0000
0000
0010
0000
0000
0001
0000
0000
,
0010
0000
0000
0000
0100
0000
1000
0000
0000
0010
0000
0000
0000
0000
0000
0100
0000
0000
0001
0000
0000
1000
0000
0000
,
0010
0000
0000
0000
0100
0000
0001
0000
0000
0010
0000
0000
0000
0000
0000
0100
0000
0000
1000
0000
0000
0100
0000
0000
,
0010
0001
0100
0010
1000
0001
0010
0100
,
1000
0000
0000
0000
0010
0000
0100
0000
0000
0001
0000
0000
0000
0000
0000
0010
0000
0000
0100
0000
0000
1000
0000
0000
,
0010
0000
0000
0000
0100
0000
0001
0000
0000
0010
0000
0000
0000
0000
0000
0100
0000
0000
1000
0000
0000
0100
0000
0000
,
0020
0000
0000
0000
0000
0031
0010
0200
0000
0000
0000
0000
0000
1300
0100
0020
,
0000
0000
0000
0000
0000
0031
0010
0200
0000
0000
0000
0000
0000
0000
0000
0000
,
2300
3200
0320
0032
1003
0000
0000
0000
;
