#TITLE:Paranoia Attack;
#SUBTITLE:;
#ARTIST:The Faint;
#TITLETRANSLIT:;
#SUBTITLETRANSLIT:;
#ARTISTTRANSLIT:;
#CREDIT:Gorilla v1.0.1 (Dancing Monkeys v1.06);
#BANNER:;
#BACKGROUND:;
#LYRICSPATH:;
#CDTITLE:;
#MUSIC:The Faint - Paranoia Attack.mp3;
#OFFSET:-0.545;
#SAMPLESTART:56.859;
#SAMPLELENGTH:12.000;
#SELECTABLE:YES;
#BPMS:0.000=132.115;
#STOPS:43.000=1.817
,43.000=1.817
,43.000=1.817
,43.000=1.817
,79.000=1.817
,79.000=1.817
;
#BGCHANGES:;
// cache tags:
#FIRSTBEAT:0.000;
#LASTBEAT:199.500;
#SONGFILENAME:Songs/keyboard/The Faint - Paranoia Attack/The Faint - Paranoia Attack.sm;
#HASMUSIC:1;
#HASBANNER:0;
#MUSICLENGTH:105.098;
// end cache tags

//---------------dance-single - Basic----------------
#NOTES:
     dance-single:
     Basic:
     Easy:
     3:
     0.197,0.211,0.010,0.010,0.000,143.000,1.000,1.000,0.000,0.000:
0000
0000
0000
0000
0000
0000
0000
0000
,
0000
0000
0000
0000
0000
0000
0000
0000
,
0000
0000
0000
0000
0000
0000
0000
0000
,
0000
0000
0000
0000
0000
0000
0000
0000
,
0000
0000
0000
0000
0000
0000
0000
0000
,
0000
0000
0000
0000
0000
0000
0000
0000
,
0000
0000
0000
0000
0000
0000
0000
0000
,
0000
0000
0000
0000
0000
0000
0000
0000
,
0000
0000
0000
0000
0000
0000
0000
0000
,
0000
0000
0000
0000
0000
0000
0000
0000
,
0000
0000
0000
0000
0000
0000
0000
0000
,
0001
0000
0000
0000
0000
0000
0101
0000
,
1000
0000
0100
0000
0010
0000
0000
0000
,
0001
0000
0100
0000
0010
0000
0000
0000
,
1000
0000
0010
0000
1000
0000
0100
0000
,
0001
0000
0010
0000
0001
0000
0100
0000
,
1000
0000
0010
0000
1000
0000
0100
0000
,
1000
0000
0010
0000
1000
0000
0100
0000
,
0001
0000
0100
0000
0001
0000
0010
0000
,
0001
0000
0010
0000
0001
0000
0100
0000
,
1000
0000
0001
0000
0100
0000
0010
0000
,
1000
0000
0100
0000
0010
0000
0000
0000
,
1000
0000
0001
0000
0100
0000
0010
0000
,
1000
0000
0010
0000
1000
0000
0100
0000
,
1000
0000
0001
0000
0100
0000
0010
0000
,
1000
0000
0001
0000
0100
0000
0010
0000
,
1000
0000
0001
0000
0100
0000
2000
0000
,
0000
0000
0000
0000
0000
0000
3000
0000
,
0001
0000
0000
0000
0001
0000
0010
0000
,
1000
0000
0001
0000
0100
0000
0010
0000
,
0001
0000
1000
0000
0100
0000
0010
0000
,
0001
0000
1000
0000
0010
0000
0100
0000
,
1000
0000
0001
0000
0010
0000
0100
0000
,
0001
0000
1000
0000
0010
0000
0100
0000
,
1000
0000
0001
0000
0100
0000
0010
0000
,
0001
0000
0010
0000
0100
0000
0000
0000
,
1000
0000
0100
0000
0010
0000
0001
0000
,
0001
0000
0100
0000
0010
0000
1000
0000
,
1000
0000
0100
0000
0010
0000
0001
0000
,
1000
0000
0010
0000
0100
0000
0001
0000
,
0001
0000
0100
0000
0010
0000
1000
0000
,
1000
0000
0010
0000
0100
0000
0001
0000
,
1000
0000
0100
0000
0010
0000
0001
0000
,
1000
0000
0010
0000
1000
0000
0001
0000
,
1000
0000
0001
0000
0100
0000
0010
0000
,
0001
0000
1000
0000
0100
0000
0010
0000
,
0001
0000
1000
0000
0100
0000
0010
0000
,
1000
0000
0001
0000
0100
0000
0010
0000
,
1000
0000
0010
0000
1000
0000
0001
0000
,
0001
0000
0010
0000
0000
0000
0000
0000
,;

//---------------dance-single - Standard----------------
#NOTES:
     dance-single:
     Standard:
     Medium:
     5:
     0.314,0.353,0.010,0.010,0.000,229.000,1.000,1.000,0.000,0.000:
1000
0000
0000
0000
0000
0000
0000
0000
,
0001
0000
0000
0000
0000
0000
0000
0000
,
1000
0000
0000
0000
0000
0000
0000
0000
,
0001
0000
0000
0000
0000
0000
0000
0000
,
1000
0000
0000
0000
0000
0000
0000
0000
,
1000
0000
0000
0000
0000
0000
0000
0000
,
0001
0000
0000
0000
0000
0000
0000
0000
,
0001
0000
0000
0000
0000
0000
0000
0000
,
1000
0000
0000
0000
0000
0000
0000
0000
,
1000
0000
0000
0000
0000
0000
0000
0000
,
0001
0000
0000
0000
0000
0000
0000
0000
,
1000
0000
0000
0000
0000
0000
0110
0000
,
0001
0000
0010
0000
0001
0010
0001
0000
,
1000
0000
0010
0000
1000
0010
1000
0000
,
0001
0000
0100
0010
0100
0000
0010
0000
,
1000
0000
0100
0010
0100
0000
0010
0000
,
0001
0000
0010
0100
0010
0000
0100
0000
,
1000
0000
0100
0010
0100
0000
0010
0000
,
1000
0000
0100
0010
0100
0000
0010
0000
,
0001
0000
0100
0010
0100
0000
0010
0000
,
0001
0000
1000
0100
0010
0100
0010
0000
,
0001
0000
0010
0000
0001
0010
0001
0000
,
0001
0000
1000
0100
0010
0100
0010
0000
,
0001
0000
0100
0010
0100
0000
0010
0000
,
0001
0000
1000
0100
0010
0100
0010
0000
,
1000
0000
0001
0010
0100
0010
0100
0000
,
1000
0000
0001
0100
0010
0100
0200
0000
,
0000
0000
0001
0000
0000
0000
0301
0000
,
1000
0000
1000
0100
0100
0000
1000
0000
,
0001
0000
1000
0100
0010
0100
0010
0000
,
1000
0000
0001
0010
0100
0010
0100
0000
,
1000
0000
0001
0100
0010
0100
0010
0000
,
0001
0000
1000
0100
0010
0100
0010
0000
,
0001
0000
1000
0010
0100
0010
0100
0000
,
1000
0000
0001
0100
0010
0100
0010
0000
,
0001
0000
0100
0000
0001
0100
0000
0001
,
0001
1000
0100
0000
0010
0100
1000
0001
,
0001
1000
0100
0000
0010
0100
1000
0001
,
0001
1000
0100
0000
0010
0100
1000
0001
,
1000
0001
0100
0000
0010
0100
0001
1000
,
0001
1000
0010
0000
0100
0010
1000
0001
,
0001
1000
0100
0000
0010
0100
1000
0001
,
0001
1000
0010
0000
0100
0010
1000
0001
,
0001
0100
0010
0001
0100
0000
0010
0000
,
0001
0000
1000
0100
0010
0100
0010
0000
,
1000
0000
0001
0100
0010
0100
0010
0000
,
0001
0000
1000
0010
0100
0010
0100
0000
,
1000
0000
0001
0100
0010
0100
0010
0000
,
0001
0100
0010
0001
0100
0000
0010
0000
,
1000
0000
0100
0000
1000
0000
0000
0000
,;

//---------------dance-single - Heavy----------------
#NOTES:
     dance-single:
     Heavy:
     Hard:
     8:
     0.446,0.380,0.029,0.010,0.000,324.000,3.000,1.000,0.000,0.000:
1000
0000
1000
0000
1000
0000
0100
0100
,
0001
0000
0001
0000
0001
0000
0010
0010
,
1000
0000
1000
0000
1000
0000
0010
0010
,
1000
0000
1000
0000
1000
0000
0100
0100
,
1000
0000
1000
0000
1000
0000
0010
0010
,
1000
0000
1000
0000
1000
0000
0100
0100
,
1000
0000
1000
0000
1000
0000
0010
0010
,
0001
0000
0001
0000
0001
0000
0010
0010
,
0001
0000
0001
0000
0001
0000
0100
0100
,
1000
0000
1000
0000
1000
0000
0010
0010
,
1000
0000
1000
0000
1000
0000
0010
0010
,
1000
0001
0001
0100
0100
0000
1010
0000
,
0001
0100
0001
0100
0010
1000
0100
0000
,
0001
0100
0001
0100
0010
1000
0100
0000
,
1000
0100
1000
0100
0010
0001
0100
0000
,
0001
0010
0001
0010
0100
1000
0010
0000
,
0001
0010
0001
0010
0100
1000
0010
0000
,
1000
0010
1000
0010
0100
0001
0010
0000
,
0001
0100
0001
0100
0010
1000
0100
0000
,
0001
0100
0001
0100
0010
1000
0100
0000
,
1000
0100
0010
0001
1000
0100
1000
0000
,
0001
0100
0001
0100
0010
1000
0100
0000
,
1000
0100
0010
0001
1000
0100
1000
0000
,
1000
0100
1000
0100
0010
0001
0100
0000
,
1000
0100
0010
0001
1000
0100
1000
0000
,
0001
0010
0100
1000
0001
0010
0001
0000
,
1000
0100
0010
0001
1000
0100
0200
0000
,
1000
0000
0010
0000
1000
0000
0300
1000
,
1000
0001
0001
0100
0100
0010
0100
0010
,
1000
0100
0010
0001
1000
0100
1000
0000
,
0001
0010
0100
1000
0001
0010
0001
0000
,
1000
0100
0010
0001
1000
0100
1000
0000
,
1000
0010
0100
0001
1000
0010
1000
0000
,
1000
0010
0100
0001
1000
0010
1000
0000
,
1000
0100
0010
0001
1000
0100
1000
0000
,
1100
0000
1000
0000
0101
0000
0100
0010
,
1000
0010
0100
0000
0010
0100
0001
0100
,
1000
0100
0010
0000
0100
0010
0001
0010
,
0001
0100
0010
0000
0100
0010
1000
0010
,
0001
0100
0010
0000
0100
0010
1000
0010
,
0001
0010
0100
0000
0010
0100
1000
0100
,
1000
0010
0100
0000
0010
0100
0001
0100
,
1000
0100
0010
0000
0100
0010
0001
0010
,
1000
0010
0100
0010
0100
0010
0100
0000
,
1000
0100
0010
0001
1000
0100
1000
0000
,
1000
0100
0010
0001
1000
0100
1000
0000
,
1000
0100
0010
0001
1000
0100
1000
0000
,
0001
0010
0100
1000
0001
0010
0001
0000
,
1000
0010
0100
0010
0100
0010
0100
0000
,
0001
0100
0010
0100
0001
0010
0001
0100
,
;
