#TITLE:Symphony Of Destruction;
#SUBTITLE:;
#ARTIST:Megadeth;
#TITLETRANSLIT:;
#SUBTITLETRANSLIT:;
#ARTISTTRANSLIT:;
#CREDIT:Wavanova;
#BANNER:SoD Banner.png;
#BACKGROUND:Megadeth - Symphony Of Destruction.png;
#LYRICSPATH:;
#CDTITLE:wavanova06.jpg;
#MUSIC:Megadeth - Symphony of Destruction.mp3;
#OFFSET:0.000;
#SAMPLESTART:59.120;
#SAMPLELENGTH:12.000;
#SELECTABLE:YES;
#BPMS:0.000=20.000,3.500=224.001;
#STOPS:477.750=0.300
;
#BGCHANGES:;
// cache tags:
#FIRSTBEAT:2.500;
#LASTBEAT:484.000;
#SONGFILENAME:Songs/keyboard/Nouveau dossier/Megadeth - Symphony of Destruction.sm;
#HASMUSIC:1;
#HASBANNER:1;
#MUSICLENGTH:141.035;
// end cache tags

//---------------dance-single - ----------------
#NOTES:
     dance-single:
     :
     Hard:
     10:
     0.653,0.987,0.560,0.681,0.812,470.000,79.000,96.000,0.000,10.000:
0000
0000
0000
0000
0000
0000
0000
0000
0000
0000
0000
0000
0000
0000
0000
1000
0001
0000
0000
0000
0000
0000
0000
0000
,
0000
0010
0000
0100
0000
0000
0001
0000
0000
0000
0010
0000
0000
0100
0000
0000
,
0000
0000
0000
0000
2000
0000
0000
0000
0000
0000
0000
3000
0000
0000
0000
0000
,
0000
0000
0000
1001
0000
0000
0000
0010
0000
0100
0000
0000
0000
0002
0000
0000
,
0010
0000
0000
0100
0000
0000
0000
1000
0000
0000
0010
0000
0003
0100
0000
0000
,
0010
0000
0000
0100
0000
0000
0002
0000
0000
0000
0000
0000
0000
0000
0010
0000
,
0000
0000
0000
0000
1000
0000
0000
0000
0000
0000
0100
0000
0000
1000
0000
0000
,
0000
0000
0000
0010
0000
0000
0000
1000
0000
0003
0000
0000
0000
0000
0000
0000
,
1001
0000
0000
0000
0100
0000
0000
0010
0000
0000
0011
0000
0000
0100
0000
0000
,
0000
1000
0000
0100
0000
0000
0000
1000
0000
0000
1001
0000
0000
0100
0000
0000
,
0010
0000
0000
0110
0000
0000
0000
0001
0000
1000
0000
0000
0100
0000
0000
0000
,
0010
0000
0000
1000
0000
0000
0001
0000
0000
1000
0000
0000
0010
0000
0000
0000
,
0000
0000
0000
0100
0000
0000
0000
0002
0000
0000
0000
0000
0000
0000
0000
0010
,
0000
0000
0000
1000
0000
0000
0000
0100
0000
0000
0000
0000
0000
1000
0000
0000
,
0000
0000
0000
0003
0000
0000
0000
1001
0000
0000
0100
0000
0000
0000
1100
0000
,
0000
0100
0000
0000
0010
0000
0000
0000
0001
0000
0010
0000
0000
0001
0000
0000
,
1100
0000
0000
0000
0001
0000
0000
1000
0000
0000
0100
0000
0000
0001
0000
0000
,
1000
0000
0000
0100
0000
0000
0100
0000
0000
0000
0110
0000
0000
0001
0000
0000
,
0000
1001
0000
0000
0100
0000
0000
0010
0000
0000
0002
0000
0000
0010
0000
0000
,
0000
0100
0000
1000
0000
0000
0000
0100
0000
0000
0010
0000
0000
0100
0000
0000
,
0000
0003
2000
0000
0000
0000
3000
0001
,
0010
0000
0000
0200
0000
0000
0000
0010
0000
0000
0001
0000
0000
0000
0010
0000
,
0000
0001
0000
0300
1000
0000
0000
1001
0000
0000
0100
0000
0000
0000
0010
0000
,
0001
0000
0000
0010
0000
0000
0100
0000
0000
0000
0100
0000
0000
0010
0000
0000
,
0002
0000
0000
2000
0000
0000
0000
0013
0000
0000
0010
0000
0000
0000
0001
0000
,
0000
0000
0010
0000
0000
0000
0000
0001
0000
0000
0000
0010
0000
0000
0001
0000
,
0000
0010
0000
0000
0001
0000
0000
0000
0000
0000
0010
0000
3000
0000
0001
0000
,
0001
0000
0010
0000
0000
0100
0000
0000
1000
0000
0000
0000
0001
0000
0001
0000
,
0000
0000
0000
1000
0000
1000
0000
1000
0010
0000
0000
0000
0000
0000
0000
0000
,
1000
0100
0000
0000
0000
1000
0000
1000
0010
0000
0100
0000
0000
0010
0000
1000
,
0100
0010
0000
0000
0000
1000
1000
1000
,
1000
0000
0000
0000
0000
0000
1000
0000
0001
0000
1000
0000
0000
0001
0000
0000
,
0000
0000
0000
0000
0001
0000
0010
0000
0000
0010
0000
0010
0000
0000
0000
0000
,
0010
0000
1000
0000
0000
1000
0000
0010
0000
0000
0000
0000
0000
0001
0000
1000
,
0000
0000
0100
0000
1000
0000
0000
0000
2000
0000
0000
0000
0010
0000
0000
0100
,
0000
0000
3000
0000
0000
0000
0000
0000
0100
0100
0000
0001
0000
0000
0010
0000
,
0000
0000
0100
0000
0010
0000
1000
2000
0000
0000
0000
0000
0000
0000
0000
3000
,
0000
0100
0000
0000
0000
0000
0000
0001
0000
0000
0000
0000
0000
0000
1010
0000
,
0000
0001
0000
0000
1000
0010
0000
0000
0000
0000
0000
0001
0000
0000
0100
0000
,
0020
0000
0000
0000
1000
0000
0030
1020
0000
0000
0100
0030
0000
1001
0000
0000
,
0000
0000
0000
0000
0010
0000
0000
0200
0000
0000
0000
0000
0000
0001
0000
0010
,
0000
0000
0000
0000
0000
0000
0000
0001
0000
0000
0010
0000
0000
0001
0000
0000
,
0000
1000
0000
0000
1000
0000
0000
0000
0000
0000
0000
0000
0000
0001
0000
0300
,
0000
0000
1001
0000
0000
0010
0000
0000
,
0100
0010
0000
0010
0000
0000
0000
0000
0000
0000
0001
0000
0000
0000
1001
0000
,
0000
0000
0000
0000
0000
0001
0000
0000
0000
0010
0000
0000
0001
0000
0000
0010
,
0000
0000
0000
0200
0000
0000
0000
0001
,
0000
0000
0020
0000
0000
0000
0000
0000
0000
0000
0030
0000
0000
0000
0000
0002
,
0000
0000
0000
0000
0000
0000
0000
0003
0000
0020
0000
0000
0000
0000
0000
0000
,
0000
0300
0030
0000
1001
0000
0000
0000
0000
0000
0000
0010
0000
0000
0000
0000
,
0000
0200
0000
0000
0000
0000
0000
0000
0000
0000
0001
0000
0000
0000
0000
0000
,
0000
0010
0000
0300
1001
0000
0000
1001
0000
0000
0000
0010
0000
0200
0000
0000
,
0000
0001
0000
0000
0000
0010
0000
0300
0000
0000
0000
0001
0000
0000
0020
0000
,
0000
0000
0000
0000
0000
0000
0000
0100
0000
0000
0000
0000
0000
0000
0000
0000
,
0000
0030
0000
0000
0000
0000
0000
1001
0000
0000
0010
0000
0000
0000
0101
0000
,
0000
0001
0000
0000
0000
1000
0000
0020
0000
0000
0000
0100
0030
0000
0001
0000
,
0000
0000
0101
0000
0000
0010
0000
0000
0001
0000
0000
0000
1010
0000
0000
0000
,
0000
0000
0020
0000
0000
0000
0000
0000
0000
0130
0000
0000
0001
0000
0000
0000
,
0200
0000
0000
0010
0000
0000
0000
0000
0000
0000
0000
0001
0000
0000
0000
0000
,
0310
0000
0000
0000
0000
0011
0000
0000
1100
0000
0000
0000
0011
0000
1100
0000
,
0000
0000
0011
0000
0000
0011
0000
0000
0011
0000
0000
0000
0022
0000
2203
0000
,
0000
3330
0000
0000
0000
0000
0000
0000
0000
0000
0000
0000
0011
0000
0000
0000
0000
0000
0000
0000
0000
0000
0000
0000
0000
0000
0000
0000
0000
0000
0000
0000
0000
0000
0000
0000
0000
0000
0000
0000
0000
0000
0000
0000
0000
0000
0000
0000
0000
0000
0000
0000
0000
0000
0000
0000
0000
0000
0000
0000
1100
0000
0000
0000
0000
0000
0000
0000
0000
0000
0000
0000
0000
0000
0000
0000
0000
0000
0000
0000
0000
0000
0000
0000
0000
0000
0000
0000
0000
0000
0000
0000
0000
0000
0000
0000
0011
0000
0000
0000
0000
0000
0000
0000
0000
0000
0000
0000
0000
0000
0000
0000
0000
0000
0000
0000
0000
0000
0000
0000
0000
0000
0000
0000
0000
0000
0000
0000
0000
0000
0000
0000
0022
0000
0000
0000
0000
0000
0000
0000
0000
0000
0000
0000
0000
0000
0000
0000
0000
0000
0000
0000
0000
0000
0000
0000
0000
0000
0000
0000
0000
0000
0000
0000
0000
0000
0000
0000
2000
0000
0000
0000
0000
0000
0000
0000
0000
0000
0000
0000
0000
0000
0000
0000
0000
0000
0000
0000
0000
0000
0000
0000
,
0000
0033
0000
0000
0000
0000
0000
0000
0000
0000
0000
0000
0001
0000
0000
0000
0000
0000
0000
0000
0000
0000
0000
0000
0000
0000
0000
0000
0000
0000
0000
0000
0000
0000
0000
0000
0000
0000
0000
0000
0000
0000
0000
0000
0000
0000
0000
0000
0010
0000
0000
0000
0000
0000
0000
0000
0000
0000
0000
0000
0000
0000
0000
0000
0000
0000
0000
0000
0000
0000
0000
0000
0000
0000
0000
0000
0000
0000
0000
0000
0000
0000
0000
0000
0000
0000
0000
0000
0000
0000
0000
0000
0000
0000
0000
0000
0001
0000
0000
0000
0000
0000
0000
0000
0000
0000
0000
0000
0000
0000
0000
0000
0000
0000
0000
0000
0000
0000
0000
0000
0000
0000
0000
0000
0000
0000
0000
0000
0000
0000
0000
0000
0010
0000
0000
0000
0000
0000
0000
0000
0000
0000
0000
0000
0000
0000
0000
0000
0000
0000
0000
0000
0000
0000
0000
0000
0000
0000
0000
0000
0000
0000
0000
0000
0000
0000
0000
0000
0100
0000
0000
0000
0000
0000
0000
0000
0000
0000
0000
0000
0000
0000
0000
0000
0000
0000
0000
0000
0000
0000
0000
0000
,
0000
0202
0000
0303
0000
0000
0000
0000
0000
0001
0000
0000
0000
0010
0000
0002
,
0000
0000
0000
0010
0000
0000
0000
0000
,
0000
0000
0000
0000
0010
0003
3000
0000
0000
0000
0000
1001
0000
0000
0010
0000
,
0000
0101
0000
0000
0001
0000
0000
0000
1010
0000
0000
0010
0000
0000
0101
0000
,
0000
0001
0000
0000
0000
1010
0000
0010
0000
0000
0000
0000
0000
0000
0101
0000
,
0000
0000
0000
0000
0000
0011
0000
0000
0011
0000
0000
0011
0000
0000
0000
1000
,
0000
0000
0001
0000
0000
2000
3000
0000
0220
0330
0000
0000
0000
0000
0002
0003
,
0000
0000
2000
0000
0000
0000
0000
0000
0000
0000
0000
0000
0000
0010
0000
0000
,
0000
0000
0001
0000
0000
0000
0000
0100
0001
0000
0101
0000
0100
0000
0000
0000
,
0000
0000
0010
0000
0000
0001
0000
0000
0010
0000
0000
0002
3000
0000
0000
0010
,
0203
0000
0010
0000
0000
0000
0001
0000
0000
0001
0000
0300
0010
0000
0000
0000
,
0010
0000
0000
0000
0000
0001
0000
0000
0000
0000
0000
0000
1100
0000
0000
0100
,
0000
0000
0110
0000
0000
0100
0000
0000
1000
0000
2000
0000
0000
0000
0001
0000
,
0000
0000
0000
0000
3000
0020
0000
0000
0000
0000
0000
0000
0000
0100
0000
0000
,
1000
0000
0000
0000
0100
0000
0000
0000
0000
0100
0000
0000
0000
1000
0030
0000
,
0000
0001
0000
0100
0000
0000
0011
0000
0000
0100
0000
0000
1000
0100
0000
0000
,
1000
0000
0010
0200
0000
0000
0000
0000
0000
1000
1300
1000
0000
0010
0000
2000
,
0000
3000
0200
0000
0000
0000
0000
0000
0000
0000
0000
0000
0000
0000
0000
0000
0000
0000
0000
0000
0000
0000
0000
0000
0000
0000
0000
0000
0000
0000
0000
0000
0000
0000
0000
0000
0000
0000
0000
0000
0000
0000
0000
0000
0000
0000
0000
0000
0000
0000
0000
0000
0000
0000
0000
0000
0000
0000
0000
0000
0301
0000
0000
0000
0000
0000
0000
0000
0000
0000
0000
0000
0000
0000
0000
0000
0000
0000
0000
0000
0000
0000
0000
0000
0000
0000
0000
0000
0000
0000
0000
0000
0000
0000
0000
0000
0000
0000
0000
0000
0000
0000
0000
0000
0000
0000
0000
0000
0000
0000
0000
0000
0000
0000
0000
0000
0000
0000
0000
0000
0000
0000
0000
0000
0000
0000
0000
0000
0000
0000
0000
0000
0010
0000
0000
0000
0000
0000
0000
0000
0000
0000
0000
0000
0000
0000
0000
0000
0000
0000
0000
0000
0000
0000
0000
0000
0000
0000
0000
0000
0000
0000
0000
0000
0000
0000
0000
0000
0000
0000
0000
0000
0000
0000
0000
0000
0000
0000
0000
0000
0000
0000
0000
0000
0000
0000
0000
0000
0000
0000
0000
0000
,
0000
0001
0001
1000
0000
1000
0100
0000
0100
0000
0000
0000
0000
0000
0010
0000
,
0010
0000
0000
0001
0000
0001
0000
0000
0000
0000
1000
0000
1000
0000
0000
0010
,
0000
0000
0000
0000
0000
0000
0010
0000
0010
0000
0000
0001
0000
0001
0000
0000
,
0000
0000
0000
1000
0000
1000
0100
0000
0100
0000
0010
0000
0000
0000
0000
0000
,
0000
0001
0000
0001
0000
1000
0000
0000
1000
0000
0000
0000
0000
0100
0100
0000
,
0000
0000
0000
2002
0000
3003
0000
0000
0000
0000
0000
0100
0000
0100
0000
0000
,
1000
0000
1000
0000
0000
0000
0000
0010
0000
0010
0000
1000
0000
0000
0000
0022
,
0000
0033
0000
0000
0000
0000
0010
0000
0000
0000
0000
0000
0001
0000
0000
0000
,
0000
0000
1010
0000
0000
0101
0000
0000
0011
0000
0000
0000
0000
0000
0000
1001
,
0000
0000
1100
0000
0000
0101
0000
0000
1010
0000
0000
1001
0000
0000
0000
1100
,
0000
0000
0022
0000
0000
0000
0033
0000
0000
2000
0000
0000
0010
0000
0000
0000
,
0000
0000
0001
0000
0000
0000
0001
0001
,
0000
0000
0010
0000
0000
0000
0001
0000
0020
0000
0000
0000
0000
0000
0000
0030
,
0000
0002
0000
0000
0000
0000
0000
0000
0000
3003
0000
0000
0000
0000
0000
0110
,
0000
0000
0000
0000
0000
0001
0000
0000
2002
0000
0000
0000
0000
0000
0000
3003
,
0000
0000
0220
0000
0000
0000
0000
0000
0000
0330
0000
0001
0000
0000
2002
0000
,
0000
0000
0000
0000
0010
0000
0000
0000
0000
0000
0000
0000
3000
0003
0000
0000
,
0000
0220
0000
0000
0000
0000
0000
0330
0000
0011
0000
0000
0022
0000
0000
0000
,
0000
0000
0000
0000
0030
2203
0000
0000
0000
0000
0000
0000
0300
3000
0022
0000
,
0000
0000
0000
0000
0000
0033
0000
0000
0000
0001
0000
0000
0010
0000
0000
0002
,
0000
0000
0000
0000
0000
0203
0000
0000
0000
0000
0000
0000
0000
0300
0020
0000
,
0000
0000
0000
0030
0000
1000
0000
0000
0100
0000
0000
0010
0000
0000
0100
0000
,
0000
0000
0001
0000
0000
0000
0020
0000
0000
0200
0000
0000
0000
0000
0000
0000
,
0000
0330
0000
0000
0000
0000
0000
0000
1000
0100
0000
0010
0001
0000
1000
0000
,
0001
0010
0000
0100
1000
0000
0000
0000
0000
1000
0000
0100
0000
0020
0000
0000
,
0000
0000
0000
0030
0000
0200
0000
0000
0000
0000
0000
0000
0000
0300
0002
0000
,
0000
0000
0000
0000
0000
0000
0003
0000
0000
0000
0000
0000
1000
0100
0000
0010
,
0001
0000
1000
0000
0001
0010
0000
0100
1000
0000
0000
0000
2000
0000
0000
0200
,
0000
0000
0000
3000
0010
0002
0000
0000
,
0000
0000
0323
0000
0000
0000
0000
0000
0000
0030
0000
0000
0000
0000
1000
2000
,
0000
0000
0000
0000
0000
3001
0002
0000
0000
0000
0000
0000
0000
0000
0003
0000
,
0000
0000
0000
1010
0000
0001
0000
0000
0000
0001
0000
0000
0101
0000
0000
0000
,
0000
0000
0000
0001
0000
0000
0020
0000
0000
0000
0000
0000
0000
0030
0000
0000
,
0000
0000
0000
1001
0000
0000
0000
0000
0000
0010
0000
0000
0110
0000
0000
0000
,
0000
0000
0001
0000
0000
0000
1001
0000
0000
0001
0000
0000
0010
0000
0000
0000
,
0010
0000
0000
0000
0000
0000
0000
0000
0000
0000
0000
0000
0000
0000
0000
0000
0000
0000
0000
0000
0000
0000
0000
0000
0000
0000
0000
0000
0000
0000
0000
0000
0000
0000
0000
0000
1000
0000
0000
0000
0000
0000
0000
0000
0000
0000
0000
0000
0000
0000
0000
0000
0000
0000
0000
0000
0000
0000
0000
0000
0000
0000
0000
0000
0000
0000
0000
0000
0000
0000
0000
0000
0001
0000
0000
0000
0000
0000
0000
0000
0000
0000
0000
0000
0000
0000
0000
0000
0000
0000
0000
0000
0000
0000
0000
0000
0200
0000
0000
0000
0000
0000
0000
0000
0000
0000
0000
0000
0000
0000
0000
0000
0000
0000
0000
0000
0000
0000
0000
0000
0000
0300
0000
0000
0000
0000
0000
0000
0000
0000
0000
0000
0000
0000
0000
0000
0000
0000
0000
0000
0000
0000
0000
0000
0000
0000
0000
0000
0000
0000
0000
0000
0000
0000
0000
0000
0000
0000
0000
0000
0000
0000
0000
0000
0000
0000
0000
0000
0000
0000
0000
0000
0000
0000
0000
0000
0000
0000
0000
0000
0000
0000
0000
0000
0000
0000
0000
0000
0000
0000
0000
0000
,
0000
0000
0000
0000
0200
0300
0020
0032
0003
0000
0000
0000
0000
0000
0200
0000
,
0000
0000
0000
0000
0300
0000
0002
0003
0020
0030
0200
0300
2000
0000
0000
0002
,
0000
0000
0000
0000
0000
0003
3000
0000
0000
0000
0001
0000
0000
0000
0000
1010
,
0000
0001
2002
0000
,
3003
0000
0000
0000
;

//---------------dance-single - ----------------
#NOTES:
     dance-single:
     :
     Medium:
     7:
     0.377,0.470,0.170,0.135,0.592,329.000,24.000,19.000,0.000,0.000:
0000
0000
0000
0000
0000
0000
0000
0000
0000
0000
0000
0000
0000
0000
0000
1000
0001
0000
0000
0000
0000
0000
0000
0000
,
0000
0010
0000
0100
0000
0000
0000
0000
0000
0001
0000
0000
1000
0000
0000
0000
,
0000
0010
0000
0000
,
0000
0000
0000
1001
0000
0000
0010
0000
0000
0000
0000
0000
0000
0101
0000
0000
,
0000
0000
0000
0010
0000
0000
0000
1000
0000
0000
0001
0000
0000
0100
0000
0000
,
0001
0000
0000
0000
0000
0000
0110
0000
0000
0000
0000
0000
0000
0002
0000
0000
,
0000
0000
0000
0000
,
0000
0000
0000
0000
0000
0003
0000
0000
,
1001
0000
0010
0000
0000
0101
0000
0000
,
0010
0000
0000
1000
0000
0000
0001
0000
0000
0000
1010
0000
0000
0001
0000
0000
,
0000
0000
0000
0100
0000
0000
0000
0000
0000
0001
0000
0000
0000
0100
0000
0000
,
0010
0000
0000
0000
0002
0000
0000
0000
0010
0000
0000
0000
0000
0100
0000
0000
,
0000
0003
0000
0000
0000
0000
0000
0000
,
0000
0000
0000
0010
0000
0000
0000
0000
0000
0000
0000
0000
0000
0000
0000
0000
,
0000
0010
0000
0000
0000
0000
0000
1001
0000
0000
0010
0000
0000
0000
0000
0000
,
0100
0000
0000
0000
,
1001
0000
0000
0110
0000
0000
0000
0000
0000
0000
1001
0000
0000
0000
0000
0000
,
0010
0000
0000
0100
0000
0000
0001
0000
0000
0000
0010
0000
0000
0001
0000
0000
,
0000
0000
0000
1001
0000
0000
0000
0000
0000
0000
0000
0000
0000
0000
0000
0000
,
0000
0000
0000
0010
0000
0000
0000
0000
0000
0000
0000
0000
0000
0000
0000
0000
,
0000
0010
0000
0000
0000
0000
0000
0000
0000
0000
0000
0000
0000
0000
0110
0000
,
0000
0001
0000
0000
1000
0000
0000
0000
,
0000
0010
0000
0000
0000
0000
0000
0001
0000
0000
0100
0000
0000
0000
0010
0000
,
0000
0001
0000
0000
0000
0000
0000
0010
0000
0000
0000
0100
0000
0000
0001
0000
,
0000
0100
0000
0000
0020
0000
0000
0000
0000
2000
0030
0000
0000
0000
0000
0000
,
0000
0000
0000
0000
,
0000
0000
0000
0000
0000
3000
0000
0000
0000
0000
0000
1000
0000
0000
0100
0000
,
0010
0000
0000
0001
0000
0000
0010
0000
0000
0000
0100
0000
0000
2000
0000
0000
,
0000
0000
0000
0000
0000
0001
0000
0000
0010
0000
0000
0001
3000
0000
0000
0000
,
0000
0000
1000
0000
0100
0000
0000
0010
0000
0000
0000
0000
0000
0000
0001
0000
,
0000
0010
0000
0000
0001
0000
0000
0000
0000
0000
0000
0001
0000
0000
0010
0000
,
0000
0100
0000
0000
0000
0000
0000
0000
0100
0000
0001
0000
0000
0010
0000
0000
,
0000
0000
0000
0000
0000
1000
0000
0001
0000
0000
0100
0000
0000
0000
0000
0000
,
0000
0001
0000
0000
0100
0000
0000
0001
0000
0000
0000
0000
0000
0000
0010
0000
,
0000
0001
0000
0000
0010
0000
0000
0000
0000
0000
0001
1000
0000
0000
0100
0000
,
0000
1000
0000
0000
0000
0000
0000
0000
0001
0000
0000
1000
0000
0000
0100
0000
,
0000
0000
0000
0000
2000
0000
0000
0001
0000
0000
0010
0000
0000
0000
3000
0000
,
0002
0000
0000
0000
0000
0000
0000
0000
0000
0000
0000
0000
0000
0000
0000
0003
,
0000
2002
0000
0000
,
0000
0000
0000
0000
,
3003
0000
0000
0000
0000
0000
0000
0010
0000
0000
0000
0000
0000
0000
0000
0000
,
0000
0001
0000
0000
0000
0000
0000
0000
0000
0000
0000
1000
0000
0000
0000
0000
,
0000
0000
0000
0000
0100
0000
0000
0000
0000
0000
0000
0000
0000
1000
0000
0000
,
0000
0000
0001
0000
0000
0010
0000
0000
,
0000
0001
0000
0000
0010
0000
0000
0000
0000
0000
0000
0001
0000
0000
0010
0000
,
0000
0000
0000
0000
0000
0000
0000
0101
0000
0000
0010
0000
0000
1000
0000
0000
,
0002
0000
0000
0000
0000
0000
0003
0000
0000
0000
0000
0000
0000
0000
0001
0100
,
0000
0000
0000
0000
0000
0010
0000
0000
1000
0000
0000
0000
0000
0000
0000
0000
,
0000
0000
0001
0000
0000
0000
0000
0000
0000
0000
0000
0010
0000
0000
0000
0000
,
0000
0001
0000
0000
0010
0000
0000
0100
0000
0000
0000
0001
0000
0000
0000
0000
,
0000
2000
0000
0000
0000
0000
0000
0000
0000
0000
0020
0000
0000
0000
0000
0000
,
0000
0000
0030
0000
0000
0001
0000
0000
0010
0000
0000
0001
0000
0000
0010
0000
,
0000
0002
0000
0000
0000
0000
0000
0000
3003
0000
0000
0000
0000
0000
0000
0010
,
0000
0000
0100
0000
0000
0001
0000
0000
0010
0000
0000
0000
0000
0000
0000
0000
,
0000
0000
0000
0000
0000
0000
0000
0000
1000
0000
0000
0001
0000
0000
0000
0100
,
0000
0000
0010
0000
0000
0001
0000
0000
0010
0000
0000
0001
0000
0000
0010
0000
,
0000
1000
0000
0000
0001
0000
0000
0000
0010
0000
0001
0000
0000
0000
0000
0000
,
0000
0000
0000
0000
,
0000
0000
0000
0000
,
0000
0000
0000
0000
0000
1000
0000
0000
0100
0000
0000
0010
0000
0000
0000
0001
,
0000
0000
0010
0000
0000
0100
0000
0000
0001
0000
0000
0010
0000
0000
0001
0000
,
0000
0010
0000
0000
0000
0100
0000
0000
1001
0000
0000
0100
0000
0000
0010
0000
,
0000
0001
0000
0000
0000
0100
0000
0000
1010
0000
0000
0001
0000
0000
0100
0000
,
0000
0010
0000
0000
0000
0000
0000
0000
,
0000
0000
0000
0000
0000
0000
0000
0001
,
0000
0000
0000
0100
0000
0000
0000
0000
0000
0000
0000
0001
0000
0000
1000
0000
,
0000
0010
0000
0000
0100
0000
0000
0000
0001
0000
0000
0000
0000
0000
0000
0000
,
0000
0000
0000
0000
0000
0010
0000
0000
0001
0000
0000
0100
0000
0000
1001
0000
,
0000
0100
0000
0000
0000
0010
0000
0000
0001
0000
0000
0010
0000
0000
0000
0110
,
0000
0000
0001
0000
0000
1000
0000
0000
0100
0000
0000
0000
0000
0000
0000
0000
,
0000
0000
0000
0000
,
0000
0000
0000
0000
,
0000
0000
1000
0000
0000
0010
0000
0000
0001
0000
0000
0100
0000
0000
0000
0000
,
0000
0000
0000
0000
0000
0000
0000
0000
0000
0000
0000
0001
0000
0000
0010
0000
,
0000
0000
0100
0000
0000
1000
0000
0000
0000
0000
0000
1000
0000
0000
0100
0000
,
0000
0010
0000
0000
0000
0001
0000
0000
0010
0000
0000
0100
0000
0000
1000
0000
,
0000
0000
0000
0000
,
0000
0000
0000
0000
0000
1000
0000
0000
0000
0000
0000
0000
0000
0000
0000
0001
,
0000
0000
1000
0000
0000
0001
0000
0000
1000
0000
0000
0001
0000
0000
1000
0000
,
0000
0000
0001
0000
0000
0000
0000
0000
0000
0010
0000
0000
0100
0000
0000
0001
,
0000
0000
0000
0000
0000
1000
0000
0000
0001
0000
0000
1000
0000
0000
0000
0000
,
0000
0000
0100
0000
0000
0010
0000
0000
0001
0000
0000
0000
0000
0000
0000
1000
,
0000
0000
0001
0000
0000
1000
0000
0000
0000
0000
0000
0100
0000
0000
0010
0000
,
0000
0100
0000
0000
0000
0000
0000
0000
1000
0000
0000
0001
0000
0000
1000
0000
,
0000
0000
0000
0000
0000
0000
0100
0000
0000
0010
0000
0100
0000
0000
0000
0000
,
0000
0000
2000
0000
0000
0000
0000
0000
0001
0000
0000
3000
0000
0000
0000
1000
,
0000
0000
0000
0001
0000
1000
0000
0000
0000
0000
0000
0000
1000
0000
0000
0000
,
0000
0000
0000
0001
0000
0000
0000
0000
1000
0000
0000
0000
0001
0000
0000
1000
,
0000
0000
0000
0000
0000
1000
0000
0000
0000
0000
0000
0000
1000
0000
0000
0000
,
0000
0000
1000
0000
0000
0000
1000
0000
0001
0000
0000
0000
0000
0000
0000
1000
,
0000
0000
0001
0000
0000
1000
0000
0000
0000
0001
0000
1000
0000
0000
0001
0000
,
0000
1000
0000
0000
0000
0000
0000
0100
0000
0000
0000
0010
0000
0000
0000
0000
,
0000
0000
0001
0000
0000
0010
0000
0000
0000
0000
0000
0000
0001
0000
0000
0010
,
0000
0001
0000
0010
0001
0000
0000
0000
,
0000
1000
0000
0000
0000
0000
0000
0000
0000
0000
0000
0000
0000
0000
0000
1000
,
0000
0000
0000
0000
0000
0000
0001
0000
0000
1000
0000
0000
0000
0000
0000
0000
,
0000
0000
0001
0000
0000
0000
0000
0000
0000
0000
0000
0010
0000
0000
0000
0001
,
0000
0000
0010
0000
0000
0001
0000
0000
0000
0000
0000
0000
0000
0000
0000
0000
,
0000
0000
0020
0000
0000
0000
0000
0000
0030
0000
0000
0002
0000
0000
0000
0000
,
0000
0003
0000
0000
0000
2000
0000
0000
0000
0000
0000
3000
0000
0002
0000
0000
,
0000
0003
1000
0000
,
0000
0000
0000
0000
0000
0010
0000
0000
0000
0000
0000
0000
0000
0000
0001
0000
,
0000
0000
0000
0000
0000
0000
0000
0000
0000
1000
0000
0000
0000
0000
0000
0000
,
0001
0000
0000
0000
,
0000
0000
1000
0000
0000
0000
0000
0000
0000
0000
0000
0000
0000
0000
0000
0001
,
0000
0000
0000
0000
0000
0000
0000
0000
0000
0000
0000
0000
1000
0000
0000
0001
,
0000
0000
1000
0000
0000
0001
0000
0000
0000
0000
0000
0000
0000
0000
0000
0010
,
0000
0000
0000
0001
0000
0000
0010
0000
,
0000
0000
0000
0100
0000
0000
0001
0000
0000
0000
0000
0000
0000
0000
0000
0000
,
0010
0000
0000
0000
0000
0000
0000
0000
0000
0001
0000
2000
0000
0000
0000
0000
,
0000
0001
0000
3000
0000
0000
0000
0000
,
0010
0000
0000
0000
0000
0000
0000
0000
0000
0001
0000
0000
0000
0000
0000
0000
,
0000
0000
0000
1001
0000
0000
0100
0000
0000
0001
0000
0000
0010
0000
0000
0000
,
0000
0001
0000
0011
0000
0000
0000
0000
,
0000
0000
0001
0000
0000
0000
0000
0000
0000
0000
0000
1000
0000
0000
0000
0000
,
0000
0000
0001
0000
0000
0000
1001
0000
0000
0000
0001
0000
1000
0000
0000
0001
,
0000
0000
1000
0000
0000
0000
0010
0000
0000
0001
0000
0000
0000
0000
0000
1000
,
0000
0000
0000
0000
0000
1001
0000
0000
0000
0000
0000
0000
0001
0000
0000
1000
,
0000
0000
0000
0000
0000
0000
0010
0000
0000
0110
0000
0000
0000
0001
0000
0000
,
1000
0000
0000
0000
0000
0000
0000
0000
0000
0000
0000
0000
0000
0000
0000
0001
,
0000
1000
0000
0000
0000
0000
0000
0000
1001
0000
0000
0000
0000
0000
0000
0000
;

//---------------dance-single - ----------------
#NOTES:
     dance-single:
     :
     Easy:
     5:
     0.253,0.299,0.078,0.128,0.379,221.000,11.000,18.000,0.000,0.000:
0000
0000
0000
0000
0000
1001
0000
0000
,
0000
0010
0000
0000
0100
0000
0000
0001
0000
0000
0010
0000
0000
0000
0000
0000
,
0000
0010
0000
0000
,
0000
0000
0000
0001
0000
0000
0000
0000
0000
0000
0000
0000
0000
1000
0000
0000
,
0000
0000
0000
1001
0000
0000
0000
0000
0000
0000
0000
0000
0000
0010
0000
0000
,
0000
0000
0000
0001
0000
0000
0000
0000
,
0000
0000
0000
0000
,
0000
0000
0000
0000
,
0000
1000
0000
0000
0000
0000
0000
0000
0000
1001
0000
0000
0000
0000
0000
0000
,
0000
0000
0000
0000
0000
0000
0000
0000
0000
0001
0000
0000
0000
0000
0000
0000
,
0000
0000
0110
0000
0000
0000
0000
0000
0000
0001
0000
0000
0000
0000
0000
0000
,
0000
0000
0000
1000
0000
0000
0000
0000
0000
0000
0000
0000
0101
0000
0000
0000
,
0000
0000
0000
0000
,
0000
0000
0000
0000
,
0000
0000
0000
0000
0000
0000
0000
0001
1000
0000
0000
0000
0000
0000
0000
0000
,
0010
0000
0000
0000
,
0001
0000
0000
1000
0000
0000
0000
0000
0000
0000
0001
0000
0000
0000
0000
0000
,
0000
0000
0000
0000
0010
0000
0000
0001
0000
0000
0010
0000
0000
0001
0000
0000
,
0000
0000
0000
1000
0000
0000
0000
0000
0000
0000
0000
0000
0000
0000
0000
0000
,
0000
0000
0000
0000
,
0000
0000
0000
0000
0000
0000
0000
1000
,
0001
0000
0000
0000
0000
0000
0000
1000
0000
0000
0000
0000
0000
0000
0000
0000
,
0000
0000
0000
0000
0000
0000
0000
0001
0000
0000
1000
0000
0000
0000
0000
0000
,
0000
0001
0000
0000
0000
0000
0000
0010
0000
0000
0100
0000
0000
0010
0000
0000
,
0001
0000
1000
0000
0000
0001
0000
0000
,
0000
0000
0000
0000
,
0000
0000
0000
0000
0000
0000
0000
0000
0000
0000
0000
0000
0000
0000
0000
1000
,
0000
0000
0000
0000
0000
0000
0000
0001
0000
0000
0000
0000
0000
0000
1000
0000
,
0000
0020
0000
0030
,
0000
0001
0000
0000
0000
0000
0000
0000
0100
0000
0000
0000
0000
0002
0000
0000
,
0000
0000
0000
0000
0000
0000
0003
0000
0000
0000
0000
1000
0000
0000
0000
0000
,
0000
0100
0000
0000
0000
0000
0020
0000
0000
0000
0000
0000
0000
0000
0000
0030
,
0000
0000
0000
0000
0001
0000
0000
0000
0000
0000
0000
0100
0000
0000
0000
0000
,
0020
0000
0000
0000
0000
0000
0000
0000
0000
0030
0000
0000
0000
0001
0000
0000
,
0000
0000
0000
0000
0100
0000
0000
0000
0000
2000
0000
0000
0000
0000
0000
0000
,
0000
0000
3000
0000
0000
0000
0000
1000
0000
0000
0000
0000
0000
0000
0010
0000
,
0000
0000
0000
0200
0000
0000
0000
0000
0000
0000
0000
0000
0300
0000
0000
0000
,
0001
0000
0000
0000
0000
0000
0000
1000
0000
0000
0000
0000
0000
0000
0010
0000
,
0000
0001
0100
0000
0000
0000
0000
0001
,
0000
0000
1000
0000
0000
0020
0200
0000
,
0000
0000
0000
0000
0330
0000
0000
0000
0000
0000
0000
0000
0000
0001
0000
0000
,
0000
1000
0000
0000
0000
0000
0000
0000
0000
0000
0000
0001
0000
0000
0000
0000
,
0000
0000
1000
0000
0000
0001
0000
0000
0000
0000
0000
0000
0000
0000
0000
0010
,
0000
0000
0000
0000
0002
0000
0000
0000
0000
0000
0000
0013
0000
0000
0000
0000
,
0000
0000
0001
0000
0000
0000
0000
1000
,
0000
0000
0000
0000
0000
0000
0000
0001
0000
0000
1000
0000
0000
0001
0000
0000
,
0000
1000
0000
0000
0000
0000
0000
0001
0000
0000
0000
0000
0000
0000
0010
0000
,
0000
0000
0000
0000
0000
0000
0000
0001
0000
0000
0000
0000
0000
0000
0000
0000
,
0000
0000
1000
0000
0001
0000
0000
0000
1000
0000
0000
0001
0000
0000
0000
0000
,
0000
0010
0000
0000
0001
0000
0000
0000
0000
0000
0000
0000
0000
0000
0000
0000
,
0000
0000
1000
0000
0000
0000
0000
0000
0000
0000
0000
0001
0000
0000
0000
0000
,
0000
0100
0000
0000
0000
0010
0000
0000
0100
0000
0000
0001
0000
0000
0000
0000
,
0000
0000
0000
0000
0000
0000
0000
0020
,
0000
0000
0000
0000
0030
0000
0002
0000
0000
0000
0000
0000
0000
0000
0000
0003
,
0000
0000
0000
0000
2000
0000
0000
0000
0000
0000
0000
3000
0000
0000
0002
0000
,
0000
0000
0000
0000
0000
0003
0000
1000
0000
0000
0000
0001
0000
0000
1000
0000
,
0000
0002
0000
0000
0000
0000
0000
0000
0003
0000
0020
0000
0000
0000
0000
0000
,
0000
0030
0000
0000
0000
0000
0000
0000
0000
0000
0000
0000
0000
0000
0000
0000
,
0000
0001
0000
0000
0000
0000
0000
0001
,
0000
0000
0000
0000
0000
1000
0000
0000
0000
0000
0000
0000
0000
0000
0001
0000
,
0000
0000
0000
0000
0000
0000
0000
0000
0000
0000
0000
0000
0000
0000
0000
1000
,
0000
0000
0001
0000
,
0000
1000
0000
0000
0000
0000
0000
0000
0010
0000
0000
0000
0000
0000
0000
0000
,
0000
1000
0000
0000
0000
0000
0000
0000
0000
0000
0000
0000
0000
0000
0000
0000
,
0000
0000
1000
0000
,
0000
0000
0000
0000
1000
0000
0000
0000
0000
0000
0000
0001
0000
0000
1000
0000
,
0000
0000
0000
0000
0000
0100
0000
0000
0000
0000
0000
0000
0000
0000
0000
0000
,
0000
0000
0000
0000
0000
1000
0000
0000
0010
0000
0000
0000
0000
0000
0000
0100
,
0000
0000
0000
0000
0000
0000
0000
0000
0000
1000
0000
0000
0000
0000
0000
0000
,
0000
0000
0000
0001
0000
0000
0000
0000
,
0000
0010
0000
0000
0000
0000
0000
0000
0000
0000
0000
0000
0000
0000
0001
0000
,
0000
0000
0000
0000
0000
0000
0000
0000
0000
0000
0000
1000
0000
0000
0000
0000
,
0000
0000
0110
0000
0000
0000
0000
0000
0000
0000
0000
0001
0000
0000
0000
0000
,
0000
0000
0000
0000
0000
0000
0000
0000
0000
0000
0000
0110
0000
0000
0000
0000
,
0000
0000
0000
0000
1000
0000
0000
0000
0000
0000
0000
0001
0000
0000
1000
0000
,
0000
0000
0001
0000
0000
1000
0000
0000
0000
0000
0000
0000
0000
0000
0110
0000
,
0000
0000
0000
0000
,
0000
0000
0000
0000
0000
0000
0000
0000
0000
0000
0000
0000
0000
0000
0000
1000
,
0000
0001
0000
0000
1000
0000
0000
0000
0000
0000
0000
0000
0010
0000
0000
0000
,
0000
0000
0001
0000
0000
0000
0000
0000
0100
0000
0000
0000
0010
0000
0000
0100
,
0000
0000
0000
0000
0000
0100
0000
0000
0000
0000
0000
0000
0010
0000
0000
0000
,
0000
0000
0100
0000
0000
0001
0000
0000
0100
0000
0000
0000
0000
0000
0000
0001
,
0000
0000
0000
0000
0000
0010
0000
0000
0000
0000
0000
1000
0000
0000
0000
0100
,
0000
0000
0010
0000
0000
0000
0000
0000
0001
0000
0000
0000
0000
0000
0000
1000
,
0000
0000
0000
0000
0000
0002
0000
0000
0000
0000
0000
1000
0000
0000
0000
0003
,
0000
0000
0000
0000
0000
0000
0000
0000
0000
0100
0000
0000
0000
0000
0000
0000
,
0000
0000
0000
0001
0000
0000
0000
0000
,
0000
0000
0000
1000
0000
0000
0000
0000
0000
0000
0000
0000
0000
0000
0000
0010
,
0000
0000
0000
0000
0000
0001
0000
0000
0000
0000
0000
0000
1000
0000
0000
0000
,
0000
0001
0000
0010
0002
0000
0000
0000
,
0000
0000
0010
0000
0000
0000
0000
0000
0000
0000
0000
0000
0003
0000
0000
0100
,
0000
0000
0000
0000
0000
0000
0000
0000
0000
0000
0000
0001
0000
0000
0000
0000
,
0000
0000
0000
1000
0000
0000
0000
0000
,
0000
0000
0000
0000
0000
0000
0000
0000
0000
0001
0000
0000
0000
0000
0000
0000
,
0000
1000
0000
0000
0000
0000
0000
0000
,
0000
0000
0010
0000
,
0000
0001
0000
0000
0000
0000
0000
0110
,
0000
0001
0000
0000
,
0000
0001
1000
0000
0000
0000
0000
0000
0000
0000
0000
1000
0000
0000
0000
0000
,
0000
0000
0000
0000
0000
0000
0001
0000
0000
0000
0000
0000
0000
0000
0000
1000
,
0000
0000
0000
0000
0000
0000
0000
0010
0000
0000
0000
0000
0000
0000
0000
0000
,
0000
0000
0000
0000
0000
0001
0000
0000
0000
0000
0000
0000
0000
0000
0000
1000
,
0000
0000
0000
0000
0000
0000
0000
0000
0001
0000
0000
0000
1000
0000
0000
0001
,
0000
0000
0000
0000
0000
0000
0000
0010
0000
0000
0000
0000
0000
0000
0000
0000
,
0000
0001
0000
0000
1000
0000
0000
0000
,
0000
0000
0001
0000
0000
0000
0000
0000
0000
0010
0000
0000
0100
0000
0000
0000
,
0000
0000
0000
0000
0000
0000
0001
0000
0000
0000
0000
0000
0000
0000
0000
1000
,
0000
0000
0000
0000
0000
0000
0002
0000
0000
0000
0000
0000
0000
0010
0000
0000
,
0000
0000
0000
0100
0000
0000
0000
0000
,
0000
0000
0000
0000
0000
0000
0000
0000
0000
0003
0000
0000
0000
0000
0000
0000
,
0000
0000
1000
0000
0000
0000
0000
0000
0000
0000
0000
0000
0000
0000
0000
0001
,
0000
0000
0000
0000
0000
0000
0000
0000
0000
1000
0000
0000
0000
0000
0000
0000
,
0000
0000
0001
0000
0000
0000
0000
0000
0000
0000
0000
1001
0000
0000
0000
0000
,
0000
0000
0000
0001
0000
0000
0000
0000
,
0000
0000
0001
1000
0000
0000
0000
0000
0000
0000
0000
0000
0001
0000
0000
0000
,
0000
0000
0000
1000
0000
0000
0001
0000
,
0000
0000
0000
0010
0000
0000
0000
0000
0000
0110
0000
0000
0000
0000
0000
0000
,
0000
0000
0000
0000
0000
0000
0001
0000
0000
0000
0000
0000
0000
0000
0000
0100
,
0000
0000
0000
0000
0000
0000
0000
0000
0001
0000
0000
0000
0000
1000
0000
0000
,
0001
0000
0000
0000
0000
0000
0000
0100
,
0000
0000
0000
0000
0000
0000
0000
0001
0000
0000
0000
0000
0000
0000
0000
0000
;

//---------------dance-single - ----------------
#NOTES:
     dance-single:
     :
     Beginner:
     3:
     0.154,0.298,0.057,0.014,0.000,142.000,8.000,2.000,0.000,0.000:
0000
0000
0000
0000
,
0000
1000
0000
0001
,
0000
0000
0000
0000
,
0000
1000
0000
0001
,
0000
0000
0000
1000
,
0000
0000
0001
0000
,
0000
0000
0000
0000
,
0000
1000
0001
0000
,
0001
0000
0000
1000
,
0000
0000
0001
0000
,
0000
1000
0000
0010
,
0000
0001
0000
0000
,
1000
0000
0000
0000
,
0000
0000
0000
0000
,
0000
0000
0010
0000
,
0001
0000
0000
0000
,
1000
0000
0000
0001
,
0000
0000
0000
1000
,
0000
0010
0000
0000
,
0000
0000
0000
0000
,
0000
0000
0000
0001
,
0000
0000
0100
0000
,
0000
0000
0010
0000
,
0001
0000
0000
1000
,
0001
0000
0000
1000
,
0000
0000
0000
0000
,
0000
0000
0000
0000
,
0100
0000
0000
0010
,
0000
0000
0001
0000
,
0000
0000
0100
0001
,
0010
0001
0000
0100
,
0000
0000
0001
0011
,
0000
0000
0000
0000
,
0010
0000
0000
0001
,
0000
0010
0000
0000
,
0000
0001
0000
0000
,
1000
0000
0000
0001
,
0000
0000
1000
0000
,
0001
1001
0000
1000
,
1001
0000
0000
0001
,
0000
0000
1000
0000
,
0001
0000
0000
0010
,
0000
0001
0000
1000
,
0000
0000
0000
1001
,
0000
0100
0000
0110
,
0000
0000
0001
1000
,
0000
0000
0000
0010
,
0000
0000
0001
0000
,
1000
0000
0000
0100
,
0000
0001
0000
0000
,
0010
0000
0000
0001
,
0000
1000
0000
0100
,
0001
0000
0000
0000
,
0110
0000
0001
0000
,
0000
0000
0010
0000
,
0001
0000
0000
0000
,
1000
0000
0000
0001
,
0000
0000
0000
0000
,
0000
0000
0000
0000
,
0000
0000
0000
0000
,
0001
0000
0000
0000
,
0000
0000
1100
0000
,
0000
0000
0001
0000
,
0010
0000
0000
0000
,
0000
0000
0000
0000
,
0000
0000
0000
0001
,
0000
0000
0000
0000
,
0000
0001
0000
0000
,
0000
0000
0000
0000
,
0001
0000
0001
0000
,
0000
0000
0000
0000
,
0000
0000
0000
0000
,
0100
0000
0000
0000
,
0000
0000
0000
0001
,
0000
0000
0000
0000
,
0000
0001
0000
0000
,
0000
0000
0000
0000
,
0000
0000
0000
0000
,
0000
0001
0000
0000
,
0000
0000
0000
0100
,
0000
0000
0000
0000
,
0000
0010
0000
0000
,
0000
0000
0000
0001
,
0000
0000
0000
0000
,
0000
0100
0000
0000
,
0000
0001
0000
0000
,
0000
0010
0000
0000
,
0000
0000
0000
1000
,
0000
0000
0000
0000
,
0000
0000
0100
0000
,
0000
0000
0001
0000
,
0000
1000
0000
0000
,
0000
0100
0000
0000
,
0001
0000
0000
0100
,
0000
0000
1000
0000
,
0000
0010
0000
0000
,
0000
0001
0000
0000
,
0100
1000
0000
0000
,
0001
0000
0000
0110
,
0000
0001
0000
0000
,
1000
0000
0002
0000
,
0003
1000
0000
0000
,
0001
0000
1000
0000
,
0001
2000
0000
3000
,
0000
0000
0001
0000
,
0000
1000
0000
0100
,
0000
0010
0000
0000
,
0001
0000
0000
0100
,
0000
0000
0001
0000
,
0100
0000
0001
0100
,
0000
0001
0000
0000
,
0100
0000
0010
0000
,
0000
0001
0000
1000
,
0000
0001
0000
0000
,
0100
0000
0000
0010
,
0000
1000
0000
0001
,
0000
1000
0000
0000
,
0000
0010
0000
0000
,
0001
0000
1000
0000
,
0100
0000
0000
0000
,
0001
0000
0000
0000
;
