#TITLE:レザマリでもつらくないっ！;
#SUBTITLE:;
#ARTIST:EB-TRAIN;
#TITLETRANSLIT:Rezamari demo turakunai!;
#SUBTITLETRANSLIT:;
#ARTISTTRANSLIT:;
#CREDIT:;
#BANNER:lasermarisa.png;
#BACKGROUND:lasermarisa-bg.png;
#LYRICSPATH:lasermarisa.lrc;
#CDTITLE:cdtitle.png;
#MUSIC:lasermarisa.ogg;
#OFFSET:-0.120;
#SAMPLESTART:49.343;
#SAMPLELENGTH:12.000;
#SELECTABLE:YES;
#DISPLAYBPM:312.000;
#BPMS:0.000=312.000;
#STOPS:;
#BGCHANGES:;
// cache tags:
#FIRSTBEAT:24.000;
#LASTBEAT:512.000;
#SONGFILENAME:Songs/Japanese Collaboration Mix/lasermarisa/lasermarisa.sm;
#HASMUSIC:1;
#HASBANNER:1;
#MUSICLENGTH:107.406;
// end cache tags

//---------------dance-single - ----------------
#NOTES:
     dance-single:
     :
     Hard:
     10:
     0.745,0.834,0.736,0.047,0.000,476.000,79.000,5.000,0.000,0.000:
0000
0000
0000
0000
,
0000
0000
0000
0000
,
0000
0000
0000
0000
,
0000
0000
0000
0000
,
0000
0000
0000
0000
,
0000
0000
0000
0000
,
1001
0000
0001
0000
0001
0000
0001
1000
,
0000
0110
1000
0001
,
1000
0000
1000
0000
1000
0000
1000
0001
,
0000
0110
0001
1000
,
0100
0000
0010
0000
0001
0000
1000
0001
,
0000
0011
1000
0100
,
0010
0000
0010
0000
0001
0000
0001
1000
,
0000
1000
0100
0000
0010
0000
0001
0000
,
1000
0000
0100
0000
1000
0010
1000
0010
,
0000
1001
1000
1000
,
0001
0000
0100
0000
0001
0010
0001
0010
,
0000
1001
0001
0001
,
1000
0000
0001
0000
1000
0010
0100
0001
,
0000
0001
1000
0000
0100
0000
0010
0000
,
1001
0000
0000
0000
0011
0000
0000
1001
,
0000
0000
1000
0100
1000
0001
0010
0001
,
1000
0000
1001
0000
,
0101
0101
1001
0101
,
0001
1000
0010
1000
,
0001
1000
0010
1000
,
0001
0000
0100
0000
0010
0000
0100
0001
,
0000
0001
0100
0000
0110
0000
0010
0000
,
0010
0100
0001
0100
,
0010
0100
0001
0100
,
0010
0000
1000
0000
0100
0000
1000
0010
,
0000
0010
1000
0000
1001
0000
0001
0000
,
1000
0001
0100
0010
,
1000
0001
1000
0010
,
0100
0000
0001
0000
1000
0000
0010
0100
,
0000
0110
0100
0010
,
1000
0001
2000
0000
,
3010
0100
0020
0000
,
1030
0000
0001
0010
0001
0010
0001
0000
,
0100
0000
0010
1000
0100
0010
0001
0100
,
0010
0000
0100
0000
,
0001
0000
0001
0000
,
0100
0000
0010
0000
,
1000
0000
1000
0000
,
0100
0000
0100
0000
,
0010
0000
0010
0000
,
0001
0000
0001
0000
,
1001
0000
0000
0101
0000
0000
0110
0000
,
0100
0000
1010
0000
,
0010
0000
0101
0000
,
1000
0000
0011
0000
,
0001
0000
1010
0000
,
0100
0010
0010
0100
,
0100
0010
0010
0100
,
0100
0000
0010
0000
0010
0100
0010
0000
,
1001
1001
0020
0000
,
1030
0000
0010
0000
1000
0001
1000
0001
,
0000
0100
0001
0000
0100
0000
0001
0000
,
1000
0000
0100
0000
0010
0001
0010
0001
,
0000
1000
0100
0000
0010
0000
0001
0000
,
0001
0000
0100
0000
0010
1000
0001
0100
,
0000
0010
1000
0000
0001
0000
1000
0000
,
1010
0000
0000
0000
1001
0000
0000
1100
,
0000
0000
0001
1000
0100
1000
0001
1000
,
0100
1000
1100
0000
,
0010
0001
0011
0000
,
1000
0000
0100
0000
1100
0000
0010
0001
,
0000
1001
1000
0001
,
1000
0010
1010
0000
,
0001
0100
0101
0000
,
1000
0000
0001
0000
1000
0000
0001
0100
,
0000
0100
0010
0000
0110
0000
0010
0000
,
1000
0100
0011
0000
,
0001
0100
1010
0000
,
1000
0000
0001
0000
0110
0000
0100
0010
,
0000
0010
0100
0000
1001
0000
0001
0000
,
1000
0100
1001
0000
,
0101
0000
0000
1001
0000
0000
1010
0000
,
1000
0000
0001
0000
1000
0100
1000
0000
,
1001
0000
0001
0100
0010
1000
0001
0100
,
0010
0100
0001
1000
,
0010
0100
0001
1000
,
0100
0010
0001
1000
,
0100
0010
0001
1000
,
0001
0010
0100
1000
,
0001
0010
0100
1000
,
0001
1000
0100
1000
,
0001
0000
0100
0000
0010
1000
0001
0000
,
0100
0001
0100
0001
,
1000
0010
1000
0010
,
1000
0001
1000
0001
,
0100
0010
0100
0010
,
0100
0100
0100
0100
,
0100
0100
0100
0100
,
0100
0000
0001
1000
0010
1000
0001
1000
,
0100
0000
0100
0000
0010
0001
0010
0000
,
0000
1001
0000
1001
,
1010
0000
0000
1001
0000
0000
1100
0000
,
1000
0000
0001
0000
0010
0000
0001
1000
,
0000
1000
0001
0000
0010
0000
0001
0000
,
1000
0010
1001
0000
,
0100
0000
0001
1000
0000
0000
1001
0000
,
0000
0000
0001
0100
0010
0000
1000
0000
,
0100
0000
0010
0001
1000
0100
0010
0001
,
1000
0100
1001
0000
,
1001
0000
0100
0010
0000
0000
0110
0000
,
0000
0000
1001
0000
0100
0000
1000
0001
,
0000
1001
0010
0100
,
1001
0000
0100
0000
0010
0000
0001
1000
,
0000
1100
1010
1001
,
0000
0000
0110
0000
0000
0110
0000
0000
,
0010
1000
0100
0010
0001
0100
0010
1000
,
0100
0010
0011
0000
,
1001
0000
0000
1001
0000
0000
1010
0000
,
0000
0100
0110
0100
,
0001
1000
0010
0010
,
1000
0100
0001
0100
,
1000
0010
0010
1001
,
0000
0000
0110
0000
0010
0000
0100
0001
,
0000
0001
1000
0000
0010
0100
0010
0000
,
0110
0000
0001
0000
1000
0000
0001
1000
,
0000
1000
0100
0000
0010
0000
0110
0000
,
0000
0000
1001
0000
0010
0000
0100
0001
,
0000
0001
1000
0000
0110
0000
0110
0000
,
0001
1000
1001
0000
,
0110
0000
0000
1001
0000
0000
0220
0000
,
0000
0000
0000
0000
,
0000
0000
0000
0330
0000
0000
0001
0100
,
1000
0000
0000
0000
;
